osu file format v14

[General]
AudioFilename: audio.mp3
AudioLeadIn: 0
PreviewTime: 46436
Countdown: 1
SampleSet: None
StackLeniency: 0.7
Mode: 0
LetterboxInBreaks: 0
WidescreenStoryboard: 0

[Editor]
Bookmarks: 520,11186,32519,40353,42353,44352,47019,57686,68519,76518,79185,85852
DistanceSpacing: 0.4
BeatDivisor: 4
GridSize: 16
TimelineZoom: 2

[Metadata]
Title:Mirai-kei Strikers
TitleUnicode:未来系ストライカーズ
Artist:Altair Torte
ArtistUnicode:アルタイル ・ トルテ
Creator:BAKKALO
Version:Strikers
Source:アニメ:スクールガールストライカーズ Animation Channel
Tags:schoolgirl strikers animation channel 石原夏織 Ishihara Kaori 日高里菜 Hidaka Rina 沢城みゆき Sawashiro Miyuki 花澤香菜 Hanazawa Kana 小倉唯 Ogura Yui
BeatmapID:1743282
BeatmapSetID:832079

[Difficulty]
HPDrainRate:6.5
CircleSize:4.2
OverallDifficulty:8.8
ApproachRate:9.4
SliderMultiplier:1.9
SliderTickRate:1

[Events]
//Background and Video events
0,0,"3rdAnniversary.png",0,0
//Break Periods
//Storyboard Layer 0 (Background)
//Storyboard Layer 1 (Fail)
//Storyboard Layer 2 (Pass)
//Storyboard Layer 3 (Foreground)
//Storyboard Sound Samples

[TimingPoints]
520,333.333333333333,4,3,0,70,1,0
520,-100,4,3,0,70,0,0
1019,-100,4,3,0,70,0,0
1353,-100,4,3,0,70,0,0
1686,-166.666666666667,4,3,0,70,0,0
2519,-111.111111111111,4,3,0,70,0,0
5853,-100,4,3,0,70,0,0
6353,-100,4,3,0,70,0,0
6686,-100,4,3,0,70,0,0
7019,-166.666666666667,4,3,0,70,0,0
7853,-111.111111111111,4,3,0,70,0,0
10519,-100,4,3,0,70,0,0
11186,-125,4,3,0,70,0,0
20519,-125,4,3,0,70,0,0
21519,-100,4,3,0,70,0,0
21853,-125,4,3,0,70,0,0
31186,-125,4,3,0,70,0,0
32186,-100,4,3,0,70,0,0
32519,-166.666666666667,4,3,0,40,0,0
40353,333.333333333333,4,3,0,70,1,0
40353,-100,4,3,0,70,0,0
41686,-100,4,3,0,70,0,0
44352,-100,4,3,0,70,0,0
45852,-100,4,3,0,70,0,0
45936,-100,4,3,0,5,0,0
46019,-100,4,3,0,70,0,0
46102,-100,4,3,0,5,0,0
46186,-100,4,3,0,70,0,0
46269,-100,4,3,0,5,0,0
46352,-100,4,3,0,70,0,0
46436,-100,4,3,0,5,0,0
46519,-100,4,3,0,70,0,0
47019,-83.3333333333333,4,3,0,70,0,1
57019,-100,4,3,0,70,0,1
57686,-76.9230769230769,4,3,0,70,0,1
58019,-83.3333333333333,4,3,0,70,0,1
68519,333.333333333333,4,3,0,70,1,0
68519,-333.333333333333,4,3,0,70,0,0
68935,-333.333333333333,4,3,0,5,0,0
69019,-66.6666666666667,4,3,0,70,0,0
69102,-100,4,3,0,5,0,0
69519,-333.333333333333,4,3,0,70,0,0
69852,-111.111111111111,4,3,0,70,0,0
70019,-66.6666666666667,4,3,0,70,0,0
70102,-111.111111111111,4,3,0,70,0,0
71185,-333.333333333333,4,3,0,70,0,0
71602,-333.333333333333,4,3,0,5,0,0
71685,-66.6666666666667,4,3,0,70,0,0
71769,-100,4,3,0,5,0,0
72185,-333.333333333333,4,3,0,70,0,0
72519,-111.111111111111,4,3,0,70,0,0
72685,-66.6666666666667,4,3,0,70,0,0
72769,-111.111111111111,4,3,0,70,0,0
73185,-83.3333333333333,4,3,0,70,0,0
73519,-111.111111111111,4,3,0,70,0,0
73852,-333.333333333333,4,3,0,70,0,0
74269,-333.333333333333,4,3,0,5,0,0
74352,-66.6666666666667,4,3,0,70,0,0
74435,-100,4,3,0,5,0,0
74852,-333.333333333333,4,3,0,70,0,0
75185,-111.111111111111,4,3,0,70,0,0
75352,-66.6666666666667,4,3,0,70,0,0
75435,-111.111111111111,4,3,0,70,0,0
76518,-100,4,3,0,70,0,0
79185,-100,4,3,0,70,0,0

[Colours]
Combo1 : 160,160,250
Combo2 : 253,183,255
Combo3 : 255,128,128

[HitObjects]
34,118,520,6,0,L|98:104,1,47.5
303,185,686,1,0,0:0:0:0:
303,185,853,1,0,0:0:0:0:
113,369,1019,6,0,P|109:298|130:260,1,95
288,288,1353,6,0,P|228:326|185:327,1,95
140,178,1686,6,0,P|178:194|207:226,1,85.4999973907472
207,226,2019,1,0,0:0:0:0:
335,57,2186,2,0,P|331:20|338:-12,1,56.9999982604981
434,137,2519,1,0,0:0:0:0:
309,193,2686,1,0,0:0:0:0:
309,193,2853,1,0,0:0:0:0:
436,30,3019,1,0,0:0:0:0:
512,216,3186,6,0,P|477:241|435:248,1,85.4999973907472
346,107,3519,1,0,0:0:0:0:
320,297,3686,2,0,L|314:402,1,85.4999973907472
204,272,4019,2,0,L|208:186,1,85.4999973907472
91,162,4353,6,0,P|126:187|212:185,1,128.249996086121
233,173,4686,1,0,0:0:0:0:
169,349,4853,1,0,0:0:0:0:
169,349,5186,5,0,0:0:0:0:
91,162,5353,1,0,0:0:0:0:
300,274,5519,1,0,0:0:0:0:
222,86,5686,1,0,0:0:0:0:
300,274,5853,6,0,L|346:284,1,47.5
512,119,6019,1,0,0:0:0:0:
512,119,6186,1,0,0:0:0:0:
271,9,6353,6,0,P|264:61|280:118,1,95
401,150,6686,6,0,P|409:103|402:56,1,95
406,239,7019,6,0,P|447:226|478:194,1,85.4999973907472
476,196,7353,1,0,0:0:0:0:
264,201,7519,6,0,P|269:239|267:266,1,56.9999982604981
183,112,7853,1,0,0:0:0:0:
133,240,8019,1,0,0:0:0:0:
133,240,8186,1,0,0:0:0:0:
287,96,8353,1,0,0:0:0:0:
87,76,8519,6,0,P|81:119|102:177,1,85.4999973907472
264,201,8853,1,0,0:0:0:0:
96,289,9019,2,0,L|0:283,1,85.4999973907472
133,384,9353,2,0,L|229:378,1,85.4999973907472
355,303,9686,6,0,P|364:252|357:204,1,85.4999973907472
218,378,10019,1,0,0:0:0:0:
442,174,10186,6,0,P|402:140|357:122,1,85.4999973907472
360,218,10436,1,0,0:0:0:0:
360,218,10519,1,0,0:0:0:0:
507,122,10686,1,0,0:0:0:0:
273,160,10853,1,0,0:0:0:0:
487,306,11019,1,0,0:0:0:0:
275,55,11186,6,0,P|203:81|169:174,2,152
385,56,12019,1,0,0:0:0:0:
347,159,12186,2,0,P|302:165|257:153,1,76
153,76,12519,5,0,0:0:0:0:
153,76,12686,1,0,0:0:0:0:
33,183,12853,2,0,L|26:271,1,76
145,189,13186,1,0,0:0:0:0:
39,68,13353,1,0,0:0:0:0:
152,233,13519,1,0,0:0:0:0:
102,0,13686,1,0,0:0:0:0:
33,183,13853,5,0,0:0:0:0:
33,183,14186,1,0,0:0:0:0:
152,233,14353,1,0,0:0:0:0:
33,183,14519,1,0,0:0:0:0:
152,233,14686,1,0,0:0:0:0:
35,346,14853,2,0,P|51:301|83:267,1,76
253,305,15186,5,0,0:0:0:0:
134,355,15353,1,0,0:0:0:0:
253,305,15519,1,0,0:0:0:0:
134,355,15686,1,0,0:0:0:0:
324,377,15853,2,0,P|348:340|354:297,1,76
272,185,16186,2,0,P|250:216|241:252,1,76
324,377,16519,6,0,L|480:373,2,152
222,335,17353,1,0,0:0:0:0:
213,226,17519,2,0,P|234:196|244:159,1,76
329,77,17853,6,0,P|350:107|360:144,1,76
323,250,18186,1,0,0:0:0:0:
235,63,18353,1,0,0:0:0:0:
413,223,18519,2,0,L|511:225,1,76
323,250,18853,1,0,0:0:0:0:
434,82,19019,1,0,0:0:0:0:
403,319,19186,5,0,0:0:0:0:
403,319,19519,1,0,0:0:0:0:
319,159,19686,2,0,L|243:157,2,76
198,241,20186,2,0,P|159:202|151:134,1,114
56,106,20519,6,0,L|46:192,1,76
90,256,20769,1,0,0:0:0:0:
90,256,20853,1,0,0:0:0:0:
206,72,21019,5,0,0:0:0:0:
240,222,21186,1,0,0:0:0:0:
211,32,21353,5,0,0:0:0:0:
181,312,21519,2,0,P|206:326|243:335,1,47.5
379,245,21686,1,0,0:0:0:0:
379,245,21770,1,0,0:0:0:0:
379,245,21853,6,0,L|386:77,2,152
421,346,22686,1,0,0:0:0:0:
511,284,22853,2,0,L|508:207,1,76
385,93,23186,5,0,0:0:0:0:
385,93,23353,1,0,0:0:0:0:
307,222,23519,2,0,P|341:237|378:244,1,76
462,134,23853,1,0,0:0:0:0:
311,52,24019,1,0,0:0:0:0:
379,244,24186,1,0,0:0:0:0:
407,9,24353,1,0,0:0:0:0:
228,91,24519,5,0,0:0:0:0:
228,91,24853,1,0,0:0:0:0:
221,219,25020,1,0,0:0:0:0:
228,91,25186,1,0,0:0:0:0:
221,219,25353,1,0,0:0:0:0:
128,80,25519,2,0,P|141:38|169:8,1,76
289,159,25853,5,0,0:0:0:0:
161,152,26020,1,0,0:0:0:0:
289,159,26186,1,0,0:0:0:0:
161,152,26353,1,0,0:0:0:0:
359,234,26519,2,0,P|382:204|392:167,1,76
260,255,26853,2,0,P|274:290|300:316,1,76
171,384,27186,6,0,L|15:380,2,152
282,357,28020,1,0,0:0:0:0:
260,255,28186,2,0,P|225:269|199:295,1,76
94,271,28519,6,0,P|84:234|61:204,1,76
0,279,28853,1,0,0:0:0:0:
171,384,29019,1,0,0:0:0:0:
61,204,29186,2,0,L|55:118,1,76
125,40,29520,1,0,0:0:0:0:
202,227,29686,1,0,0:0:0:0:
246,0,29853,5,0,0:0:0:0:
246,0,30186,5,0,0:0:0:0:
270,149,30353,2,0,P|223:148|189:139,2,76
358,15,30853,2,0,L|363:145,1,114
337,222,31186,6,0,P|383:220|417:210,1,76
362,128,31436,1,0,0:0:0:0:
362,128,31520,1,0,0:0:0:0:
314,339,31686,5,0,0:0:0:0:
232,210,31853,1,0,0:0:0:0:
324,379,32020,5,0,0:0:0:0:
344,86,32186,1,0,0:0:0:0:
310,83,32269,1,0,0:0:0:0:
277,80,32352,1,0,0:0:0:0:
244,78,32435,1,0,0:0:0:0:
178,106,32519,6,0,B|202:160|188:213|178:241|166:260|146:275|123:287|93:296|72:292|44:259|45:220|80:196|123:200,1,341.999989562989
107,200,33853,6,0,P|166:207|216:241,1,113.999996520996
257,317,34353,1,0,0:0:0:0:
257,317,34686,1,0,0:0:0:0:
301,235,34853,2,0,P|349:205|406:200,1,113.999996520996
406,200,35519,6,0,P|382:145|386:85,1,113.999996520996
432,11,36019,1,0,0:0:0:0:
432,11,36186,2,0,L|340:4,1,85.4999973907472
263,30,36519,1,0,0:0:0:0:
263,30,36853,1,0,0:0:0:0:
239,166,37019,6,0,L|210:169,2,28.4999991302491
349,151,37353,1,0,0:0:0:0:
166,240,37519,2,0,P|132:196|129:150,1,85.4999973907472
171,93,37853,5,0,0:0:0:0:
171,93,38186,1,0,0:0:0:0:
166,240,38519,1,0,0:0:0:0:
296,170,38853,1,0,0:0:0:0:
296,170,39186,5,0,0:0:0:0:
426,100,39519,1,0,0:0:0:0:
426,100,39853,5,0,0:0:0:0:
301,281,40019,1,0,0:0:0:0:
291,34,40186,1,0,0:0:0:0:
166,215,40353,5,0,0:0:0:0:
192,240,40436,1,0,0:0:0:0:
206,275,40519,1,0,0:0:0:0:
202,313,40603,1,0,0:0:0:0:
181,344,40686,1,0,0:0:0:0:
149,364,40769,1,0,0:0:0:0:
112,366,40853,1,0,0:0:0:0:
77,351,40936,1,0,0:0:0:0:
53,323,41019,1,0,0:0:0:0:
43,286,41103,1,0,0:0:0:0:
52,250,41186,1,0,0:0:0:0:
75,220,41269,1,0,0:0:0:0:
110,205,41353,1,0,0:0:0:0:
148,201,41436,1,0,0:0:0:0:
183,189,41519,1,0,0:0:0:0:
214,166,41603,1,0,0:0:0:0:
231,133,41686,5,0,0:0:0:0:
224,86,41769,1,0,0:0:0:0:
192,52,41852,1,0,0:0:0:0:
146,42,41936,1,0,0:0:0:0:
103,60,42019,1,0,0:0:0:0:
77,99,42102,1,0,0:0:0:0:
77,146,42186,1,0,0:0:0:0:
103,184,42269,1,0,0:0:0:0:
148,201,42352,5,0,0:0:0:0:
205,202,42436,1,0,0:0:0:0:
260,191,42519,1,0,0:0:0:0:
308,161,42603,1,0,0:0:0:0:
347,119,42686,2,0,P|348:92|344:66,1,47.5
249,279,42853,2,0,P|247:302|250:326,1,47.5
152,122,43019,5,0,0:0:0:0:
371,244,43186,1,0,0:0:0:0:
325,25,43353,5,0,0:0:0:0:
249,279,43519,1,0,0:0:0:0:
493,26,43686,5,0,0:0:0:0:
499,335,43853,1,0,0:0:0:0:
277,148,44019,5,0,0:0:0:0:
512,296,44186,1,0,0:0:0:0:
127,366,44352,5,0,0:0:0:0:
127,366,44686,1,0,0:0:0:0:
270,117,44852,5,0,0:0:0:0:
305,236,45019,1,0,0:0:0:0:
181,209,45186,1,0,0:0:0:0:
306,275,45352,5,0,0:0:0:0:
156,93,45519,1,0,0:0:0:0:
127,366,45686,1,0,0:0:0:0:
353,156,45852,6,0,L|356:98,1,47.5
306,275,46019,2,0,L|308:322,1,47.5
389,240,46186,2,0,L|447:243,1,47.5
270,193,46353,2,0,L|223:195,1,47.5
127,366,46519,1,0,0:0:0:0:
389,240,46686,1,0,0:0:0:0:
128,128,46852,1,0,0:0:0:0:
422,337,47019,6,0,P|478:289|470:176,1,170.999994781494
460,164,47352,1,0,0:0:0:0:
191,43,47519,2,0,P|223:95|303:116,1,113.999996520996
283,21,47852,1,0,0:0:0:0:
138,112,48019,1,0,0:0:0:0:
343,114,48186,1,0,0:0:0:0:
64,20,48352,6,0,L|52:200,1,170.999994781494
32,225,48686,1,0,0:0:0:0:
311,322,48852,2,0,P|279:270|199:249,1,113.999996520996
217,343,49186,1,0,0:0:0:0:
217,343,49352,1,0,0:0:0:0:
386,260,49519,1,0,0:0:0:0:
148,156,49686,6,0,L|138:299,1,113.999996520996
243,162,50019,1,0,0:0:0:0:
54,283,50186,2,0,P|86:335|166:356,1,113.999996520996
311,322,50519,1,0,0:0:0:0:
243,162,50686,1,0,0:0:0:0:
175,326,50852,1,0,0:0:0:0:
448,341,51019,6,0,L|455:195,1,113.999996520996
495,88,51352,1,0,0:0:0:0:
324,18,51519,2,0,P|337:78|373:117,1,113.999996520996
495,88,51852,6,0,B|454:71|390:107|390:107|311:148|253:106,1,227.999993041992
183,22,52352,5,0,0:0:0:0:
183,22,52436,1,0,0:0:0:0:
183,22,52519,2,0,P|190:78|172:131,1,113.999996520996
4,115,52852,2,0,P|49:80|105:70,1,113.999996520996
174,224,53186,2,0,P|122:202|85:160,1,113.999996520996,0|0,0:0|0:0,2:0:0:0:
172,131,53519,1,0,0:0:0:0:
254,269,53686,6,0,L|252:387,1,113.999996520996
174,224,54019,1,0,0:0:0:0:
334,319,54186,2,0,P|396:331|461:311,1,113.999996520996
310,201,54519,2,0,P|248:189|183:209,1,113.999996520996
444,319,54852,6,0,P|432:228|456:142,1,170.999994781494
483,116,55186,5,0,0:0:0:0:
310,201,55352,1,0,0:0:0:0:
512,239,55519,1,0,0:0:0:0:
301,60,55686,5,0,0:0:0:0:
512,24,55852,1,0,0:0:0:0:
310,201,56019,1,0,0:0:0:0:
322,13,56186,5,0,0:0:0:0:
402,257,56352,2,0,P|336:302|232:270,1,170.999994781494
200,299,56686,1,0,0:0:0:0:
140,1,56852,1,0,0:0:0:0:
140,1,57186,5,0,0:0:0:0:
108,201,57352,1,0,0:0:0:0:
334,62,57519,1,0,0:0:0:0:
30,146,57686,6,0,P|14:212|102:297,1,185.249991519928
125,301,58019,1,0,0:0:0:0:
358,169,58186,2,0,P|406:164|473:185,1,113.999996520996
342,335,58519,1,0,0:0:0:0:
254,172,58686,1,0,0:0:0:0:
407,242,58852,1,0,0:0:0:0:
223,377,59019,6,0,L|217:194,1,170.999994781494
254,172,59352,1,0,0:0:0:0:
21,354,59519,2,0,P|74:371|131:367,1,113.999996520996
135,231,59852,1,0,0:0:0:0:
135,231,60019,1,0,0:0:0:0:
223,377,60186,1,0,0:0:0:0:
286,137,60352,6,0,L|281:-16,1,113.999996520996
185,141,60686,1,0,0:0:0:0:
329,223,60852,2,0,P|366:190|382:129,1,113.999996520996
282,23,61186,1,0,0:0:0:0:
185,141,61352,1,0,0:0:0:0:
91,0,61519,1,0,0:0:0:0:
27,226,61686,6,0,L|161:215,1,113.999996520996
286,137,62019,1,0,0:0:0:0:
284,323,62186,2,0,P|255:289|232:211,1,113.999996520996
474,157,62519,6,0,L|461:384,1,227.999993041992
327,237,63019,5,0,0:0:0:0:
327,237,63102,1,0,0:0:0:0:
327,237,63186,2,0,P|334:192|379:125,1,113.999996520996
490,64,63519,1,0,0:0:0:0:
353,11,63686,2,0,L|217:4,1,113.999996520996
118,116,64019,2,0,L|231:110,1,113.999996520996
46,46,64352,6,0,P|32:94|27:163,1,113.999996520996
96,289,64686,1,0,0:0:0:0:
264,202,64852,2,0,L|150:207,1,113.999996520996
267,319,65186,1,0,0:0:0:0:
309,110,65352,1,0,0:0:0:0:
150,206,65519,1,0,0:0:0:0:
360,321,65686,1,0,0:0:0:0:
403,96,65852,6,0,P|378:43|309:15,1,113.999996520996
180,64,66186,1,0,0:0:0:0:
264,202,66352,1,0,0:0:0:0:
331,17,66519,1,0,0:0:0:0:
180,150,66686,2,0,P|176:205|182:265,1,113.999996520996
337,359,67019,6,0,P|340:302|335:245,1,113.999996520996
180,150,67352,1,0,0:0:0:0:
140,343,67519,2,0,P|192:345|252:319,1,113.999996520996
210,53,67852,5,0,0:0:0:0:
179,243,68019,1,0,0:0:0:0:
367,19,68186,5,0,0:0:0:0:
389,274,68352,1,0,0:0:0:0:
183,41,68519,6,0,B|264:37,1,71.2499978256226
111,106,69019,2,0,L|39:109,1,71.2500027179719
95,308,69519,6,0,L|30:306,1,56.9999982604981
167,373,69935,1,0,0:0:0:0:
167,373,70019,2,0,L|238:376,1,71.2500027179719
433,297,70185,1,0,0:0:0:0:
433,270,70268,1,0,0:0:0:0:
433,243,70351,1,0,0:0:0:0:
433,217,70434,1,0,0:0:0:0:
434,190,70519,2,0,L|433:148,1,42.7499986953736
322,202,70685,2,0,L|323:244,1,42.7499986953736
497,85,70852,1,0,0:0:0:0:
497,85,70935,1,0,0:0:0:0:
497,85,71019,2,0,P|468:65|447:59,1,42.7499986953736
208,150,71185,6,0,L|208:221,1,71.2499978256226
269,74,71685,2,0,L|269:3,1,71.2499978256226
354,327,72185,6,0,L|354:384,1,56.9999982604981
415,251,72602,1,0,0:0:0:0:
415,251,72685,2,0,L|415:180,1,71.2499978256226
224,254,72852,2,0,P|245:256|266:256,3,42.7499986953736
125,217,73185,1,0,0:0:0:0:
125,217,73269,1,0,0:0:0:0:
125,217,73352,2,0,L|125:149,1,56.9999982604981
16,279,73519,1,0,0:0:0:0:
34,302,73602,1,0,0:0:0:0:
56,321,73685,1,0,0:0:0:0:
83,335,73768,1,0,0:0:0:0:
112,342,73852,6,0,P|157:339|187:328,1,71.2499978256226
293,243,74352,2,0,P|247:245|217:256,1,71.2499978256226
326,125,74852,6,0,P|280:122|260:116,1,56.9999982604981
145,26,75269,1,0,0:0:0:0:
145,26,75352,2,0,P|190:28|220:39,1,71.2499978256226
41,108,75519,1,0,0:0:0:0:
40,89,75602,1,0,0:0:0:0:
40,71,75685,2,0,L|41:-1,1,42.7499986953736
269,119,75852,1,0,0:0:0:0:
268,144,75935,1,0,0:0:0:0:
266,170,76018,1,0,0:0:0:0:
266,195,76101,1,0,0:0:0:0:
264,221,76185,1,0,0:0:0:0:
154,128,76352,1,0,0:0:0:0:
379,198,76518,6,0,L|488:185,1,95
270,271,76852,2,0,L|161:258,1,95
206,53,77185,2,0,P|230:93|239:139,1,95
209,346,77518,2,0,P|184:305|175:259,1,95
304,122,77852,5,0,0:0:0:0:
304,122,78018,1,0,0:0:0:0:
209,346,78185,1,0,0:0:0:0:
209,346,78351,1,0,0:0:0:0:
347,44,78518,5,0,0:0:0:0:
384,85,78601,1,0,0:0:0:0:
389,141,78684,1,0,0:0:0:0:
360,189,78767,1,0,0:0:0:0:
308,210,78851,1,0,0:0:0:0:
509,188,79018,1,0,0:0:0:0:
274,10,79185,6,0,P|242:10|203:18,1,47.5
