osu file format v14

[General]
AudioFilename: audio.mp3
AudioLeadIn: 0
PreviewTime: 140132
Countdown: 0
SampleSet: Normal
StackLeniency: 0.7
Mode: 0
LetterboxInBreaks: 0
WidescreenStoryboard: 1

[Editor]
DistanceSpacing: 1
BeatDivisor: 4
GridSize: 32
TimelineZoom: 0.9600002

[Metadata]
Title:Breezeblocks
TitleUnicode:Breezeblocks
Artist:Alt-J
ArtistUnicode:Alt-J
Creator:khrono691
Version:tiktok insane difficulty
Source:
Tags:
BeatmapID:2184666
BeatmapSetID:1044655

[Difficulty]
HPDrainRate:5
CircleSize:4
OverallDifficulty:8.5
ApproachRate:8.8
SliderMultiplier:1.8
SliderTickRate:1

[Events]
//Background and Video events
0,0,"thestinkymonke.jpg",0,0
//Break Periods
2,74232,75603
//Storyboard Layer 0 (Background)
//Storyboard Layer 1 (Fail)
//Storyboard Layer 2 (Pass)
//Storyboard Layer 3 (Foreground)
//Storyboard Layer 4 (Overlay)
//Storyboard Sound Samples

[TimingPoints]
232.641971407019,400,4,1,0,80,1,0
13032,-111.111111111111,4,1,0,80,0,0
25832,-83.3333333333333,4,1,0,80,0,0
38632,-100,4,1,0,80,0,0
77032,-86.9565217391304,4,1,0,80,0,0
89832,-100,4,1,0,80,0,0
116232,-125,4,1,0,80,0,0
125832,-142.857142857143,4,1,0,80,0,0
126632,-200,4,1,0,80,0,0
127432,-333.333333333333,4,1,0,80,0,0
133832,400,4,1,0,80,1,0
140232,-66.6666666666667,4,1,0,80,0,1
165832,-76.9230769230769,4,1,0,80,0,0

[HitObjects]
110,271,13032,6,0,L|131:176,1,80.9999975280763
232,330,13432,1,0,0:0:0:0:
208,222,13632,1,0,0:0:0:0:
397,284,13832,2,0,L|307:263,1,80.9999975280763
253,123,14232,2,0,L|356:143,1,80.9999975280763
156,274,14632,5,0,0:0:0:0:
305,208,14832,1,0,0:0:0:0:
156,103,15032,1,0,0:0:0:0:
212,211,15232,1,0,0:0:0:0:
291,47,15432,2,0,L|394:64,1,80.9999975280763
201,116,15832,2,0,L|102:103,1,80.9999975280763
304,206,16232,5,0,0:0:0:0:
271,45,16432,1,0,0:0:0:0:
163,156,16632,1,0,0:0:0:0:
354,119,16832,1,0,0:0:0:0:
126,47,17032,2,0,L|238:64,1,80.9999975280763
326,80,17432,1,0,0:0:0:0:
72,126,17632,2,0,L|179:141,1,80.9999975280763
282,151,18032,1,0,0:0:0:0:
149,270,18232,5,0,0:0:0:0:
196,101,18432,1,0,0:0:0:0:
301,222,18632,5,0,0:0:0:0:
117,191,18832,1,0,0:0:0:0:
253,60,19032,1,0,0:0:0:0:
189,250,19232,1,0,0:0:0:0:
166,33,19432,6,0,P|148:102|148:147,1,80.9999975280763
156,246,19832,1,0,0:0:0:0:
269,113,20032,1,0,0:0:0:0:
89,91,20232,1,0,0:0:0:0:
189,170,20432,1,0,0:0:0:0:
261,47,20632,2,0,L|355:59,1,80.9999975280763
259,239,21032,5,0,0:0:0:0:
221,102,21232,1,0,0:0:0:0:
143,219,21432,1,0,0:0:0:0:
327,155,21632,1,0,0:0:0:0:
164,64,21832,1,0,0:0:0:0:
227,238,22032,1,0,0:0:0:0:
349,48,22232,2,0,P|316:89|264:113,1,80.9999975280763
172,131,22632,5,0,0:0:0:0:
172,131,22832,1,0,0:0:0:0:
312,173,23032,2,0,L|299:270,1,80.9999975280763
139,152,23432,6,0,L|158:50,1,80.9999975280763
331,198,23832,1,0,0:0:0:0:
331,198,24032,1,0,0:0:0:0:
141,67,24232,6,0,P|129:121|141:182,1,80.9999975280763
251,258,24632,2,0,P|264:197|253:146,1,80.9999975280763
238,72,25032,5,0,0:0:0:0:
405,120,25232,1,0,0:0:0:0:
246,50,25432,1,0,0:0:0:0:
351,191,25632,1,0,0:0:0:0:
449,83,25832,5,0,0:0:0:0:
250,181,26032,1,0,0:0:0:0:
250,181,26132,1,0,0:0:0:0:
250,181,26232,1,0,0:0:0:0:
409,261,26432,1,0,0:0:0:0:
337,34,26632,2,0,L|344:153,1,107.999996704102
217,275,27032,2,0,L|209:149,1,107.999996704102
222,147,27332,1,0,0:0:0:0:
222,147,27432,1,0,0:0:0:0:
362,212,27632,5,0,0:0:0:0:
362,212,27732,1,0,0:0:0:0:
362,212,27832,1,0,0:0:0:0:
286,70,28032,1,0,0:0:0:0:
427,105,28232,1,0,0:0:0:0:
247,181,28432,6,0,L|138:154,1,107.999996704102
265,67,28832,1,0,0:0:0:0:
311,264,29032,1,0,0:0:0:0:
371,122,29232,6,0,L|436:138,2,53.9999983520508
231,87,29632,1,0,0:0:0:0:
298,249,29832,1,0,0:0:0:0:
370,71,30032,1,0,0:0:0:0:
219,178,30232,1,0,0:0:0:0:
383,279,30432,6,0,L|358:169,1,107.999996704102
233,271,30832,1,0,0:0:0:0:
286,120,31032,1,0,0:0:0:0:
401,204,31232,2,0,P|418:258|410:323,1,107.999996704102
260,187,31632,2,0,P|251:136|266:74,1,107.999996704102
321,280,32032,1,0,0:0:0:0:
366,124,32232,1,0,0:0:0:0:
213,176,32432,1,0,0:0:0:0:
213,176,32532,1,0,0:0:0:0:
213,176,32632,1,0,0:0:0:0:
377,225,32832,1,0,0:0:0:0:
271,73,33032,6,0,L|153:100,1,107.999996704102
258,256,33432,1,0,0:0:0:0:
352,128,33632,1,0,0:0:0:0:
192,171,33832,1,0,0:0:0:0:
395,201,34032,1,0,0:0:0:0:
283,34,34232,2,0,P|273:87|281:162,1,107.999996704102
392,258,34632,5,0,0:0:0:0:
336,83,34832,1,0,0:0:0:0:
213,203,35032,1,0,0:0:0:0:
382,167,35232,1,0,0:0:0:0:
146,91,35432,6,0,L|259:109,1,107.999996704102
268,91,35732,1,0,0:0:0:0:
268,91,35832,1,0,0:0:0:0:
223,247,36032,1,0,0:0:0:0:
358,168,36232,1,0,0:0:0:0:
160,122,36432,1,0,0:0:0:0:
287,235,36632,1,0,0:0:0:0:
270,43,36832,1,0,0:0:0:0:
136,193,37032,6,0,P|120:244|124:307,1,107.999996704102
140,318,37332,1,0,0:0:0:0:
140,318,37432,1,0,0:0:0:0:
199,110,37632,1,0,0:0:0:0:
318,273,37832,1,0,0:0:0:0:
159,178,38032,1,0,0:0:0:0:
335,99,38232,1,0,0:0:0:0:
233,347,38432,1,0,0:0:0:0:
132,250,38632,5,0,0:0:0:0:
167,252,38732,1,0,0:0:0:0:
202,258,38832,1,0,0:0:0:0:
237,261,38932,1,0,0:0:0:0:
272,265,39032,6,0,L|298:317,3,45
221,187,39432,2,0,L|256:126,3,45
130,266,39832,2,0,L|201:273,3,45
337,248,40232,5,0,0:0:0:0:
329,212,40332,1,0,0:0:0:0:
319,177,40432,1,0,0:0:0:0:
311,141,40532,1,0,0:0:0:0:
297,107,40632,6,0,L|371:122,1,45
445,174,40832,2,0,L|383:162,1,45
207,162,41032,6,0,L|221:95,3,45
351,183,41432,5,0,0:0:0:0:
357,218,41532,1,0,0:0:0:0:
358,253,41632,1,0,0:0:0:0:
364,288,41732,1,0,0:0:0:0:
370,323,41832,6,0,L|401:271,3,45
287,192,42232,2,0,L|326:254,3,45
174,307,42632,5,0,0:0:0:0:
181,262,42732,1,0,0:0:0:0:
185,217,42832,1,0,0:0:0:0:
193,172,42932,1,0,0:0:0:0:
200,127,43032,6,0,L|254:152,3,45
201,38,43432,2,0,L|150:18,1,45
309,97,43632,2,0,L|376:86,1,45
184,180,43832,2,0,L|193:248,3,45
409,201,44232,5,0,0:0:0:0:
373,193,44332,1,0,0:0:0:0:
337,187,44432,1,0,0:0:0:0:
301,181,44532,1,0,0:0:0:0:
266,170,44632,6,0,L|281:113,3,45
210,261,45032,2,0,L|217:319,3,45
148,194,45432,5,0,0:0:0:0:
191,181,45532,1,0,0:0:0:0:
235,171,45632,1,0,0:0:0:0:
279,163,45732,1,0,0:0:0:0:
322,152,45832,6,0,L|391:171,3,45
317,247,46232,5,0,0:0:0:0:
273,258,46332,1,0,0:0:0:0:
228,265,46432,1,0,0:0:0:0:
183,271,46532,1,0,0:0:0:0:
139,280,46632,6,0,L|86:256,7,45
191,187,47432,2,0,L|120:159,1,45
243,66,47632,2,0,L|251:127,1,45
343,151,47832,2,0,L|298:184,3,45
167,295,48232,5,0,0:0:0:0:
240,134,48432,1,0,0:0:0:0:
240,134,48532,1,0,0:0:0:0:
240,134,48632,1,0,0:0:0:0:
343,232,48832,1,0,0:0:0:0:
133,194,49032,2,0,L|147:82,1,90
228,279,49432,1,0,0:0:0:0:
294,114,49632,1,0,0:0:0:0:
157,194,49832,5,0,0:0:0:0:
157,194,50632,1,0,0:0:0:0:
184,289,51432,6,0,L|194:194,1,90
277,333,51832,1,0,0:0:0:0:
334,220,52032,1,0,0:0:0:0:
112,267,52232,2,0,P|174:284|226:278,1,90
317,157,52632,1,0,0:0:0:0:
152,97,52832,1,0,0:0:0:0:
249,244,53032,5,0,0:0:0:0:
323,73,53232,1,0,0:0:0:0:
156,156,53432,1,0,0:0:0:0:
347,220,53632,1,0,0:0:0:0:
241,98,53832,2,0,L|228:2,1,90
171,243,54232,1,0,0:0:0:0:
344,187,54432,1,0,0:0:0:0:
176,92,54632,5,0,0:0:0:0:
273,252,54832,1,0,0:0:0:0:
315,72,55032,1,0,0:0:0:0:
175,202,55232,1,0,0:0:0:0:
362,168,55432,2,0,L|342:290,1,90
250,106,55832,1,0,0:0:0:0:
204,252,56032,1,0,0:0:0:0:
364,188,56232,6,0,P|375:129|361:70,1,90
241,203,56632,1,0,0:0:0:0:
351,303,56832,1,0,0:0:0:0:
316,116,57032,5,0,0:0:0:0:
220,299,57232,1,0,0:0:0:0:
388,211,57432,1,0,0:0:0:0:
201,108,57632,1,0,0:0:0:0:
319,277,57832,6,0,L|447:293,1,90
283,94,58232,1,0,0:0:0:0:
283,94,58432,1,0,0:0:0:0:
165,244,58632,2,0,L|177:345,1,90
321,205,59032,5,0,0:0:0:0:
170,141,59232,1,0,0:0:0:0:
273,283,59432,5,0,0:0:0:0:
324,107,59632,1,0,0:0:0:0:
437,203,59832,2,0,L|419:304,1,90
240,167,60232,1,0,0:0:0:0:
384,66,60432,1,0,0:0:0:0:
306,273,60632,1,0,0:0:0:0:
291,120,60832,1,0,0:0:0:0:
448,178,61032,6,0,P|384:218|337:228,1,90
380,103,61432,1,0,0:0:0:0:
285,239,61632,1,0,0:0:0:0:
202,101,61832,2,0,L|308:123,1,90
426,149,62232,1,0,0:0:0:0:
337,292,62432,6,0,L|321:187,1,90
306,88,62832,1,0,0:0:0:0:
438,179,63032,1,0,0:0:0:0:
312,208,63232,1,0,0:0:0:0:
425,57,63432,5,0,0:0:0:0:
381,231,63632,1,0,0:0:0:0:
268,60,63832,1,0,0:0:0:0:
453,147,64032,1,0,0:0:0:0:
295,182,64232,6,0,P|286:234|292:314,1,90
400,145,64632,1,0,0:0:0:0:
234,93,64832,1,0,0:0:0:0:
384,225,65032,1,0,0:0:0:0:
330,51,65232,1,0,0:0:0:0:
216,207,65432,5,0,0:0:0:0:
400,145,65632,1,0,0:0:0:0:
301,328,65832,2,0,L|321:214,1,90
343,105,66232,1,0,0:0:0:0:
173,193,66432,1,0,0:0:0:0:
345,228,66632,1,0,0:0:0:0:
231,74,66832,1,0,0:0:0:0:
247,285,67032,1,0,0:0:0:0:
332,127,67232,1,0,0:0:0:0:
151,214,67432,6,0,L|268:195,1,90
371,181,67832,1,0,0:0:0:0:
231,62,68032,1,0,0:0:0:0:
266,272,68232,1,0,0:0:0:0:
351,88,68432,1,0,0:0:0:0:
176,149,68632,1,0,0:0:0:0:
379,210,68832,6,0,L|265:191,1,90
421,121,69232,1,0,0:0:0:0:
296,289,69432,1,0,0:0:0:0:
325,78,69632,1,0,0:0:0:0:
457,225,69832,5,0,0:0:0:0:
262,187,70032,1,0,0:0:0:0:
437,117,70232,1,0,0:0:0:0:
234,189,70432,1,0,0:0:0:0:
381,320,70632,6,0,L|396:217,1,90
300,65,71032,2,0,L|280:185,1,90
168,332,71432,1,0,0:0:0:0:
216,190,71632,1,0,0:0:0:0:
391,315,71832,2,0,L|271:294,1,90
404,159,72232,5,0,0:0:0:0:
257,223,72432,1,0,0:0:0:0:
342,68,72632,1,0,0:0:0:0:
452,220,72832,2,0,P|465:267|453:338,1,90
296,153,73232,1,0,0:0:0:0:
446,91,73432,1,0,0:0:0:0:
364,262,73632,1,0,0:0:0:0:
304,51,73832,5,0,0:0:0:0:
121,61,76232,5,0,0:0:0:0:
351,108,76432,1,0,0:0:0:0:
218,302,76632,1,0,0:0:0:0:
279,60,76832,1,0,0:0:0:0:
188,186,77032,5,0,0:0:0:0:
361,158,77232,1,0,0:0:0:0:
361,158,77332,1,0,0:0:0:0:
361,158,77432,1,0,0:0:0:0:
190,261,77632,1,0,0:0:0:0:
410,263,77832,2,0,L|297:243,1,103.500001974106
152,344,78232,2,0,L|277:321,1,103.500001974106
261,100,78632,5,0,0:0:0:0:
203,259,78832,1,0,0:0:0:0:
203,259,78932,1,0,0:0:0:0:
203,259,79032,1,0,0:0:0:0:
404,180,79232,1,0,0:0:0:0:
265,62,79432,2,0,P|252:126|258:182,1,103.500001974106
280,315,79832,1,0,0:0:0:0:
396,157,80032,1,0,0:0:0:0:
174,194,80232,5,0,0:0:0:0:
373,256,80432,1,0,0:0:0:0:
373,256,80532,1,0,0:0:0:0:
373,256,80632,1,0,0:0:0:0:
282,74,80832,1,0,0:0:0:0:
153,234,81032,2,0,L|173:354,1,103.500001974106
361,143,81432,1,0,0:0:0:0:
156,68,81632,1,0,0:0:0:0:
367,38,81832,5,0,0:0:0:0:
250,219,82032,1,0,0:0:0:0:
427,144,82232,1,0,0:0:0:0:
258,27,82432,1,0,0:0:0:0:
441,47,82632,5,0,0:0:0:0:
262,142,82832,1,0,0:0:0:0:
427,229,83032,1,0,0:0:0:0:
349,13,83232,1,0,0:0:0:0:
212,148,83432,6,0,L|227:262,1,103.500001974106
341,95,83832,1,0,0:0:0:0:
321,263,84032,1,0,0:0:0:0:
178,62,84232,2,0,L|63:53,1,103.500001974106
337,146,84632,1,0,0:0:0:0:
176,211,84832,1,0,0:0:0:0:
318,88,85032,5,0,0:0:0:0:
368,247,85232,1,0,0:0:0:0:
431,88,85432,1,0,0:0:0:0:
244,187,85632,1,0,0:0:0:0:
416,323,85832,2,0,L|436:191,1,103.500001974106
460,57,86232,1,0,0:0:0:0:
273,198,86432,1,0,0:0:0:0:
370,38,86632,5,0,0:0:0:0:
409,238,86832,1,0,0:0:0:0:
409,238,86932,1,0,0:0:0:0:
409,238,87032,1,0,0:0:0:0:
271,117,87232,1,0,0:0:0:0:
191,271,87432,2,0,L|326:243,1,103.500001974106
424,225,87832,1,0,0:0:0:0:
241,167,88032,1,0,0:0:0:0:
428,70,88232,5,0,0:0:0:0:
309,242,88432,1,0,0:0:0:0:
483,166,88632,1,0,0:0:0:0:
314,32,88832,1,0,0:0:0:0:
405,302,89032,5,0,0:0:0:0:
484,47,89232,1,0,0:0:0:0:
319,125,89432,1,0,0:0:0:0:
456,153,89632,1,0,0:0:0:0:
139,49,89832,5,0,0:0:0:0:
135,84,89932,1,0,0:0:0:0:
132,119,90032,1,0,0:0:0:0:
129,154,90132,1,0,0:0:0:0:
125,189,90232,2,0,L|121:255,1,45
256,187,90432,2,0,L|261:113,1,45
368,299,90632,5,0,0:0:0:0:
350,295,90732,1,0,0:0:0:0:
332,292,90832,2,0,L|265:280,1,45
213,162,91032,5,0,0:0:0:0:
231,166,91132,1,0,0:0:0:0:
249,169,91232,2,0,L|316:181,1,45
407,94,91432,5,0,0:0:0:0:
420,127,91532,1,0,0:0:0:0:
408,161,91632,1,0,0:0:0:0:
378,181,91732,1,0,0:0:0:0:
342,174,91832,2,0,L|343:238,1,45
240,124,92032,2,0,L|241:57,1,45
137,238,92232,5,0,0:0:0:0:
171,246,92332,1,0,0:0:0:0:
206,253,92432,1,0,0:0:0:0:
241,261,92532,1,0,0:0:0:0:
266,286,92632,5,0,0:0:0:0:
309,297,92732,1,0,0:0:0:0:
352,308,92832,1,0,0:0:0:0:
396,316,92932,1,0,0:0:0:0:
426,282,93032,5,0,0:0:0:0:
424,264,93132,1,0,0:0:0:0:
422,246,93232,2,0,L|413:173,1,45
331,82,93432,5,0,0:0:0:0:
329,100,93532,1,0,0:0:0:0:
327,118,93632,2,0,L|318:191,1,45
170,258,93832,2,0,L|256:269,3,45
80,136,94232,2,0,L|136:142,1,45
245,67,94432,2,0,L|182:62,1,45
342,87,94632,5,0,0:0:0:0:
359,118,94732,1,0,0:0:0:0:
361,153,94832,1,0,0:0:0:0:
343,184,94932,1,0,0:0:0:0:
310,200,95032,1,0,0:0:0:0:
288,229,95132,1,0,0:0:0:0:
280,264,95232,1,0,0:0:0:0:
289,298,95332,1,0,0:0:0:0:
313,324,95432,6,0,L|386:332,1,45
459,249,95632,2,0,L|380:243,1,45
228,250,95832,5,0,0:0:0:0:
233,205,95932,1,0,0:0:0:0:
242,161,96032,1,0,0:0:0:0:
254,117,96132,1,0,0:0:0:0:
262,72,96232,5,0,0:0:0:0:
278,79,96332,1,0,0:0:0:0:
294,87,96432,2,0,L|364:107,1,45
186,215,96632,5,0,0:0:0:0:
202,208,96732,1,0,0:0:0:0:
218,200,96832,2,0,L|288:180,1,45
401,140,97032,5,0,0:0:0:0:
405,166,97132,1,0,0:0:0:0:
408,192,97232,2,0,L|418:272,1,45
282,110,97432,5,0,0:0:0:0:
286,145,97532,1,0,0:0:0:0:
290,180,97632,2,0,L|300:252,1,45
142,113,97832,5,0,0:0:0:0:
170,90,97932,1,0,0:0:0:0:
205,86,98032,1,0,0:0:0:0:
238,98,98132,1,0,0:0:0:0:
256,128,98232,1,0,0:0:0:0:
278,155,98332,1,0,0:0:0:0:
310,170,98432,1,0,0:0:0:0:
345,170,98532,1,0,0:0:0:0:
377,154,98632,6,0,L|308:137,1,45
235,243,98832,2,0,L|302:261,1,45
249,63,99032,2,0,L|241:122,3,45
136,180,99432,5,0,0:0:0:0:
131,215,99532,1,0,0:0:0:0:
127,250,99632,1,0,0:0:0:0:
121,285,99732,1,0,0:0:0:0:
116,320,99832,6,0,L|192:310,1,45
280,120,100032,5,0,0:0:0:0:
277,155,100132,1,0,0:0:0:0:
274,190,100232,1,0,0:0:0:0:
271,225,100332,1,0,0:0:0:0:
264,260,100432,2,0,L|204:272,1,45
138,49,100632,5,0,0:0:0:0:
171,79,100732,1,0,0:0:0:0:
180,122,100832,1,0,0:0:0:0:
165,164,100932,1,0,0:0:0:0:
126,187,101032,6,0,L|116:259,3,45
248,94,101432,2,0,L|238:155,3,45
315,297,101832,2,0,L|324:230,3,45
228,76,102232,2,0,L|221:139,3,45
420,221,102632,5,0,0:0:0:0:
384,216,102732,1,0,0:0:0:0:
348,210,102832,1,0,0:0:0:0:
312,205,102932,1,0,0:0:0:0:
276,198,103032,2,0,L|295:258,1,45
370,132,103232,2,0,L|391:79,1,45
265,88,103432,2,0,L|252:45,7,45
172,143,104232,5,0,0:0:0:0:
155,175,104332,1,0,0:0:0:0:
173,205,104432,1,0,0:0:0:0:
158,238,104532,1,0,0:0:0:0:
177,267,104632,2,0,L|165:324,1,45
298,271,104832,2,0,L|279:209,1,45
202,109,105032,2,0,L|278:100,3,45
326,162,105432,1,0,0:0:0:0:
320,196,105532,1,0,0:0:0:0:
311,230,105632,2,0,L|301:283,1,45
161,97,105832,5,0,0:0:0:0:
189,75,105932,1,0,0:0:0:0:
224,72,106032,1,0,0:0:0:0:
257,85,106132,1,0,0:0:0:0:
274,116,106232,1,0,0:0:0:0:
305,134,106332,1,0,0:0:0:0:
340,134,106432,1,0,0:0:0:0:
369,113,106532,1,0,0:0:0:0:
403,101,106632,6,0,L|396:152,3,45
212,191,107032,2,0,L|219:269,3,45
131,67,107432,5,0,0:0:0:0:
166,70,107532,1,0,0:0:0:0:
201,74,107632,1,0,0:0:0:0:
236,77,107732,1,0,0:0:0:0:
271,80,107832,1,0,0:0:0:0:
306,83,107932,1,0,0:0:0:0:
341,87,108032,1,0,0:0:0:0:
376,92,108132,1,0,0:0:0:0:
412,92,108232,6,0,L|402:155,3,45
316,185,108632,2,0,L|317:248,1,45
427,236,108832,2,0,L|419:320,1,45
146,277,109032,6,0,L|139:221,15,45
236,144,110632,2,0,L|228:226,15,45
146,74,112232,2,0,L|69:69,11,45
226,42,113432,2,0,L|297:26,1,45
384,102,113632,2,0,L|325:93,1,45
236,194,113832,5,0,0:0:0:0:
236,194,114632,1,0,0:0:0:0:
115,224,116232,6,0,L|195:232,1,72
289,242,116632,1,0,0:0:0:0:
245,134,116832,1,0,0:0:0:0:
360,67,117032,2,0,L|339:164,1,72
384,283,117432,2,0,P|437:254|451:222,1,72
451,110,117832,1,0,0:0:0:0:
336,146,118032,1,0,0:0:0:0:
474,105,118232,1,0,0:0:0:0:
316,53,118432,1,0,0:0:0:0:
403,260,118632,5,0,0:0:0:0:
127,260,119432,6,0,L|142:179,1,72
211,81,119832,2,0,L|225:164,1,72
241,248,120232,2,0,P|310:262|340:254,1,72
406,205,120632,1,0,0:0:0:0:
274,317,120832,2,0,L|266:223,1,72
156,160,121232,2,0,L|162:242,1,72
113,348,121632,1,0,0:0:0:0:
298,163,121832,5,0,0:0:0:0:
265,287,122032,1,0,0:0:0:0:
326,157,122232,1,0,0:0:0:0:
239,302,122432,1,0,0:0:0:0:
357,229,122632,6,0,L|440:234,1,72
317,126,123032,1,0,0:0:0:0:
221,240,123232,1,0,0:0:0:0:
228,54,123432,2,0,L|235:134,1,72
349,38,123832,1,0,0:0:0:0:
271,216,124032,6,0,L|317:205,2,36
172,250,124432,1,0,0:0:0:0:
247,122,124632,1,0,0:0:0:0:
274,313,124832,1,0,0:0:0:0:
342,225,125032,2,0,L|428:213,1,72
189,156,125432,1,0,0:0:0:0:
189,156,125632,1,0,0:0:0:0:
313,50,125832,6,0,L|298:249,1,188.999994232178
403,309,126632,2,0,L|413:172,1,135
285,30,127432,6,0,L|269:220,1,188.999994232178
428,142,129032,6,0,P|397:132|373:130,2,53.9999983520508
291,282,130832,1,0,0:0:0:0:
291,282,131032,1,0,0:0:0:0:
291,282,131232,1,0,0:0:0:0:
291,282,131432,5,0,0:0:0:0:
256,192,131632,12,0,133632,0:0:0:0:
353,56,133832,5,0,0:0:0:0:
300,214,134032,1,0,0:0:0:0:
463,173,134232,1,0,0:0:0:0:
327,46,134432,5,0,0:0:0:0:
314,237,134632,1,0,0:0:0:0:
488,167,134832,1,0,0:0:0:0:
296,65,135032,5,0,0:0:0:0:
339,255,135232,1,0,0:0:0:0:
417,66,135432,5,0,0:0:0:0:
398,235,135632,1,0,0:0:0:0:
264,108,135832,1,0,0:0:0:0:
456,142,136032,5,0,0:0:0:0:
276,205,136232,1,0,0:0:0:0:
325,40,136432,1,0,0:0:0:0:
396,259,136632,5,0,0:0:0:0:
440,52,136832,1,0,0:0:0:0:
265,213,137032,6,0,L|275:323,1,90
358,137,137432,1,0,0:0:0:0:
445,256,137632,2,0,L|432:357,1,90
299,102,138032,5,0,0:0:0:0:
470,62,138232,1,0,0:0:0:0:
355,235,138432,1,0,0:0:0:0:
242,42,138632,5,0,0:0:0:0:
428,142,138832,1,0,0:0:0:0:
183,202,139032,1,0,0:0:0:0:
346,118,139232,5,0,0:0:0:0:
299,283,139432,1,0,0:0:0:0:
241,47,139632,1,0,0:0:0:0:
404,208,139832,5,0,0:0:0:0:
181,240,140032,1,0,0:0:0:0:
181,240,140132,1,0,0:0:0:0:
181,240,140232,5,0,0:0:0:0:
390,178,140432,1,0,0:0:0:0:
286,56,140632,1,0,0:0:0:0:
171,272,140832,5,0,0:0:0:0:
357,206,141032,1,0,0:0:0:0:
249,113,141232,1,0,0:0:0:0:
181,236,141432,5,0,0:0:0:0:
381,185,141632,1,0,0:0:0:0:
344,33,141832,5,0,0:0:0:0:
231,189,142032,1,0,0:0:0:0:
444,230,142232,1,0,0:0:0:0:
226,97,142432,5,0,0:0:0:0:
348,281,142632,1,0,0:0:0:0:
426,115,142832,1,0,0:0:0:0:
263,148,143032,5,0,0:0:0:0:
424,85,143232,1,0,0:0:0:0:
327,304,143432,6,0,L|355:156,1,135.000005149842
388,60,143832,1,0,0:0:0:0:
436,224,144032,1,0,0:0:0:0:
268,100,144232,1,0,0:0:0:0:
414,232,144432,1,0,0:0:0:0:
438,29,144632,1,0,0:0:0:0:
269,248,144832,1,0,0:0:0:0:
371,61,145032,5,0,0:0:0:0:
235,195,145232,1,0,0:0:0:0:
398,244,145432,1,0,0:0:0:0:
258,36,145632,1,0,0:0:0:0:
322,284,145832,1,0,0:0:0:0:
447,162,146032,2,0,L|414:16,1,135.000005149842
278,215,146432,1,0,0:0:0:0:
196,81,146632,5,0,0:0:0:0:
147,251,146832,1,0,0:0:0:0:
300,133,147032,1,0,0:0:0:0:
274,301,147232,5,0,0:0:0:0:
250,51,147432,1,0,0:0:0:0:
134,261,147632,1,0,0:0:0:0:
341,182,147832,5,0,0:0:0:0:
124,100,148032,1,0,0:0:0:0:
248,288,148232,5,0,0:0:0:0:
439,272,148432,1,0,0:0:0:0:
296,75,148632,1,0,0:0:0:0:
193,336,148832,5,0,0:0:0:0:
442,323,149032,1,0,0:0:0:0:
298,166,149232,1,0,0:0:0:0:
349,344,149432,2,0,L|386:184,1,135.000005149842
181,104,149832,5,0,0:0:0:0:
239,256,150032,1,0,0:0:0:0:
333,52,150232,1,0,0:0:0:0:
148,171,150432,1,0,0:0:0:0:
349,207,150632,1,0,0:0:0:0:
203,35,150832,1,0,0:0:0:0:
267,273,151032,1,0,0:0:0:0:
340,92,151232,1,0,0:0:0:0:
92,160,151432,6,0,L|245:185,1,135.000005149842
426,175,151832,1,0,0:0:0:0:
341,304,152032,1,0,0:0:0:0:
335,105,152232,1,0,0:0:0:0:
184,278,152432,1,0,0:0:0:0:
442,328,152632,1,0,0:0:0:0:
265,192,152832,1,0,0:0:0:0:
326,359,153032,6,0,P|351:282|350:206,1,135.000005149842
336,80,153432,1,0,0:0:0:0:
192,210,153632,1,0,0:0:0:0:
406,184,153832,1,0,0:0:0:0:
220,39,154032,1,0,0:0:0:0:
308,227,154232,1,0,0:0:0:0:
438,49,154432,1,0,0:0:0:0:
179,154,154632,6,0,L|146:301,1,135.000005149842
333,357,155032,2,0,L|308:216,1,135.000005149842
93,55,155432,5,0,0:0:0:0:
371,161,155632,1,0,0:0:0:0:
119,252,155832,1,0,0:0:0:0:
253,62,156032,1,0,0:0:0:0:
253,62,156132,1,0,0:0:0:0:
253,62,156232,6,0,L|267:222,1,135.000005149842
398,95,156632,1,0,0:0:0:0:
180,154,156832,1,0,0:0:0:0:
406,222,157032,1,0,0:0:0:0:
275,12,157232,1,0,0:0:0:0:
307,263,157432,1,0,0:0:0:0:
430,101,157632,1,0,0:0:0:0:
208,168,157832,6,0,L|363:162,1,135.000005149842
473,237,158232,2,0,L|321:243,1,135.000005149842
268,132,158632,5,0,0:0:0:0:
309,302,158832,1,0,0:0:0:0:
371,81,159032,1,0,0:0:0:0:
222,235,159232,1,0,0:0:0:0:
426,227,159432,5,0,0:0:0:0:
284,52,159632,1,0,0:0:0:0:
190,224,159832,1,0,0:0:0:0:
414,109,160032,1,0,0:0:0:0:
230,22,160232,5,0,0:0:0:0:
339,303,160432,1,0,0:0:0:0:
418,73,160632,1,0,0:0:0:0:
169,161,160832,1,0,0:0:0:0:
456,193,161032,6,0,L|306:163,1,135.000005149842
155,131,161432,1,0,0:0:0:0:
301,34,161632,1,0,0:0:0:0:
276,269,161832,1,0,0:0:0:0:
66,70,162032,2,0,P|140:46|204:53,1,135.000005149842
341,111,162432,1,0,0:0:0:0:
341,111,162532,1,0,0:0:0:0:
341,111,162632,6,0,P|285:144|197:138,1,135.000005149842
100,74,163032,1,0,0:0:0:0:
141,264,163232,1,0,0:0:0:0:
248,51,163432,1,0,0:0:0:0:
362,233,163632,2,0,L|209:209,1,135.000005149842
63,186,164032,1,0,0:0:0:0:
250,81,164232,5,0,0:0:0:0:
214,243,164432,1,0,0:0:0:0:
173,27,164632,1,0,0:0:0:0:
365,191,164832,1,0,0:0:0:0:
145,293,165032,5,0,0:0:0:0:
278,73,165232,1,0,0:0:0:0:
356,332,165432,1,0,0:0:0:0:
134,146,165632,1,0,0:0:0:0:
383,193,165832,6,0,L|391:311,1,116.999994644165
245,207,166232,2,0,L|238:91,1,116.999994644165
407,209,166632,2,0,L|420:365,1,116.999994644165
313,93,167032,1,0,0:0:0:0:
174,222,167232,1,0,0:0:0:0:
362,189,167432,5,0,0:0:0:0:
238,85,167632,1,0,0:0:0:0:
287,277,167832,1,0,0:0:0:0:
355,95,168032,1,0,0:0:0:0:
196,198,168232,6,0,P|180:258|197:337,1,116.999994644165
366,211,168632,2,0,P|377:152|366:80,1,116.999994644165
257,152,169032,5,0,0:0:0:0:
138,262,169232,1,0,0:0:0:0:
285,333,169432,1,0,0:0:0:0:
194,188,169632,1,0,0:0:0:0:
67,347,169832,2,0,L|201:313,1,116.999994644165
308,283,170232,1,0,0:0:0:0:
150,175,170432,1,0,0:0:0:0:
87,327,170632,6,0,P|186:334|231:305,1,116.999994644165
284,191,171032,1,0,0:0:0:0:
150,115,171232,1,0,0:0:0:0:
288,277,171432,1,0,0:0:0:0:
375,116,171632,1,0,0:0:0:0:
403,309,171832,1,0,0:0:0:0:
465,187,172032,5,0,0:0:0:0:
465,187,172132,1,0,0:0:0:0:
465,187,172232,2,0,L|331:215,1,116.999994644165
221,97,172632,2,0,L|349:68,1,116.999994644165
488,201,173032,2,0,L|365:235,1,116.999994644165
298,80,173432,1,0,0:0:0:0:
264,278,173632,1,0,0:0:0:0:
374,161,173832,5,0,0:0:0:0:
205,202,174032,1,0,0:0:0:0:
367,279,174232,1,0,0:0:0:0:
275,120,174432,1,0,0:0:0:0:
254,299,174632,2,0,P|280:228|338:197,1,116.999994644165
403,340,175032,1,0,0:0:0:0:
365,159,175232,1,0,0:0:0:0:
285,334,175432,5,0,0:0:0:0:
364,135,175632,1,0,0:0:0:0:
419,345,175832,5,0,0:0:0:0:
366,103,176032,1,0,0:0:0:0:
184,258,176232,2,0,L|315:274,1,116.999994644165
486,192,176632,2,0,L|340:171,1,116.999994644165
247,154,177032,5,0,0:0:0:0:
299,328,177232,1,0,0:0:0:0:
349,128,177432,1,0,0:0:0:0:
400,284,177632,1,0,0:0:0:0:
253,155,177832,6,0,L|122:143,1,116.999994644165
286,249,178232,2,0,L|418:260,1,116.999994644165
298,64,178632,5,0,0:0:0:0:
245,147,178832,1,0,0:0:0:0:
396,137,179032,1,0,0:0:0:0:
229,47,179232,1,0,0:0:0:0:
291,217,179432,5,0,0:0:0:0:
359,61,179632,1,0,0:0:0:0:
180,147,179832,1,0,0:0:0:0:
372,193,180032,1,0,0:0:0:0:
278,67,180232,5,0,0:0:0:0:
293,235,180432,1,0,0:0:0:0:
400,46,180632,2,0,L|416:176,1,116.999994644165
434,274,181032,5,0,0:0:0:0:
309,182,181232,1,0,0:0:0:0:
467,76,181432,1,0,0:0:0:0:
395,189,181632,1,0,0:0:0:0:
339,59,181832,6,0,L|211:47,1,116.999994644165
146,182,182232,2,0,L|276:194,1,116.999994644165
413,150,182632,6,0,P|435:241|339:205,1,233.999989288331
258,81,183432,5,0,0:0:0:0:
188,236,183632,1,0,0:0:0:0:
332,152,183832,1,0,0:0:0:0:
173,138,184032,1,0,0:0:0:0:
296,243,184232,6,0,P|330:317|372:217,1,233.999989288331
393,205,184732,1,0,0:0:0:0:
393,205,184832,1,0,0:0:0:0:
194,292,185032,5,0,0:0:0:0:
