osu file format v14

[General]
AudioFilename: audio.mp3
AudioLeadIn: 0
PreviewTime: 10732
Countdown: 0
SampleSet: Soft
StackLeniency: 0.6
Mode: 0
LetterboxInBreaks: 0
WidescreenStoryboard: 1

[Editor]
Bookmarks: 9492,21492,26825,32158,42825,53492,73492,74825,78490,80823,96158,106825,117492,137492,138825,144158,160158,165490,170825,180158,184158,202825
DistanceSpacing: 1
BeatDivisor: 4
GridSize: 16
TimelineZoom: 2.22

[Metadata]
Title:SACRIFICE (Original Mix)
TitleUnicode:SACRIFICE (Original Mix)
Artist:Alstroemeria Records feat. ayame
ArtistUnicode:Alstroemeria Records feat. ayame
Creator:Nuvolina
Version:Normal
Source:東方永夜抄 ~ Imperishable Night.
Tags:アルストロメリアレコーズ japanese video game electronic hardcore touhou project 8 藤原 妹紅 Fujiwara no Mokou 月まで届け、不死の煙 Reach for the Moon, Immortal Smoke STRUCTURED DANCEHALL 上海アリス幻樂団 ZUN Chaos kirylln Myxo Acylica log off now log_off_now Masayoshi Minoshima SOUND VOLTEX IV HEAVENLY HAVEN SDVX 4 j-core
BeatmapID:2423228
BeatmapSetID:1161525

[Difficulty]
HPDrainRate:3
CircleSize:3
OverallDifficulty:4
ApproachRate:6.5
SliderMultiplier:1
SliderTickRate:1

[Events]
//Background and Video events
0,0,"bg01.jpg",0,0
//Break Periods
2,96349,105841
2,138823,143174
2,160349,164508
2,181490,183175
//Storyboard Layer 0 (Background)
//Storyboard Layer 1 (Fail)
//Storyboard Layer 2 (Pass)
//Storyboard Layer 3 (Foreground)
//Storyboard Layer 4 (Overlay)
//Storyboard Sound Samples

[TimingPoints]
150,333.333333333333,4,2,3,70,1,0
10816,-100,4,2,1,85,0,0
21483,-90.9090909090909,4,2,3,90,0,0
26816,-100,4,2,3,80,0,0
29483,-100,4,2,3,85,0,0
32149,-111.111111111111,4,2,3,60,0,0
42816,-100,4,2,3,70,0,0
53483,-100,4,2,3,80,0,0
69483,-100,4,2,3,90,0,0
72149,-100,4,2,3,100,0,0
74483,-100,4,2,1,80,0,0
74649,-100,4,2,0,80,0,0
74816,-83.3333333333333,4,2,1,100,0,1
93483,-83.3333333333333,4,2,1,80,0,1
96149,-83.3333333333333,4,2,1,60,0,0
106816,-100,4,2,1,70,0,0
117483,-100,4,2,3,80,0,0
133483,-100,4,2,3,90,0,0
136149,-100,4,2,3,100,0,0
138816,-100,4,2,1,70,0,0
141816,-100,4,2,1,80,0,0
144149,-83.3333333333333,4,2,1,100,0,1
157483,-83.3333333333333,4,2,1,90,0,1
160149,-83.3333333333333,4,2,3,70,0,0
165483,-100,4,2,3,80,0,0
176149,-100,4,2,3,90,0,0
178816,-100,4,2,3,100,0,0
181483,-100,4,2,1,70,0,0
184149,-83.3333333333333,4,2,1,100,0,1
202816,-83.3333333333333,4,2,1,90,0,0

[Colours]
Combo1 : 174,51,51
Combo2 : 255,40,40
Combo3 : 239,147,44
Combo4 : 243,204,112

[HitObjects]
175,113,10816,6,0,P|96:131|40:74,2,150,4|2|10,1:2|0:3|0:2,0:0:0:0:
87,234,12316,1,2,0:2:0:0:
189,343,12816,1,2,1:2:0:0:
266,279,13149,1,10,0:2:0:0:
353,328,13483,6,0,P|432:346|488:289,1,150,2|2,1:2|0:3,0:0:0:0:
457,157,14483,2,0,P|378:139|322:196,1,150,10|2,0:2|0:2,0:0:0:0:
380,38,15483,1,2,1:2:0:0:
286,3,15816,1,10,0:2:0:0:
215,73,16149,6,0,P|222:147|184:212,2,150,2|2|10,1:2|0:3|0:2,0:0:0:0:
70,113,17649,1,2,0:2:0:0:
169,225,18149,1,2,1:2:0:0:
106,303,18483,1,10,0:2:0:0:
17,256,18816,6,0,P|-5:178|45:115,1,150,2|2,1:2|0:3,0:0:0:0:
181,92,19816,2,0,P|203:170|153:233,1,150,10|2,0:2|0:2,0:0:0:0:
305,164,20816,1,2,1:2:0:0:
348,189,20983,1,2,1:2:0:0:
394,172,21149,2,0,L|449:183,1,50,8|8,0:2|0:2,0:0:0:0:
495,198,21483,6,0,P|493:254|446:304,1,110.000003356934,4|2,1:2|1:2,0:0:0:0:
412,321,21983,1,10,0:2:0:0:
267,241,22483,2,0,P|211:243|161:290,1,110.000003356934,2|0,1:2|1:3,0:0:0:0:
136,318,22983,1,10,0:2:0:0:
165,155,23483,1,2,1:2:0:0:
257,213,23816,1,2,1:2:0:0:
352,158,24149,6,0,P|343:111|270:71,1,110.000003356934,2|0,1:2|1:3,0:0:0:0:
241,69,24649,1,8,0:2:0:0:
145,203,25149,2,0,P|101:171|89:118,1,110.000003356934,2|0,1:2|1:3,0:0:0:0:
90,63,25649,1,10,0:2:0:0:
12,208,26149,1,2,1:2:0:0:
62,305,26483,1,2,1:2:0:0:
169,306,26816,6,0,P|225:282|315:315,2,150,2|10|2,1:2|0:2|1:2,0:0:0:0:
29,361,28316,1,10,0:2:0:0:
161,290,28816,2,0,P|133:249|143:197,1,100,2|2,1:2|1:2,0:0:0:0:
213,132,29483,5,0,1:2:0:0:
274,53,29816,1,0,1:2:0:0:
317,77,29983,1,8,0:2:0:0:
415,63,30316,1,8,0:2:0:0:
451,97,30483,1,0,1:2:0:0:
388,174,30816,1,0,1:3:0:0:
412,217,30983,1,8,3:3:0:0:
286,298,31483,2,0,L|226:286,1,50,0|8,1:3|3:3,0:0:0:0:
213,244,31816,2,0,L|157:249,1,50,0|8,1:3|3:3,0:0:0:0:
125,273,32149,5,4,1:3:0:0:
125,273,32816,1,2,0:2:0:0:
173,348,33149,1,10,0:2:0:0:
255,312,33483,2,0,P|332:318|374:277,1,134.999995880127,2|2,1:2|1:2,0:0:0:0:
402,197,34316,2,0,L|466:208,2,44.999998626709,2|10|2,1:3|0:2|0:3,0:0:0:0:
380,156,34816,6,0,P|341:136|297:142,1,89.9999972534181,2|10,1:2|0:2,0:0:0:0:
225,197,35483,2,0,P|184:196|140:160,1,89.9999972534181,2|10,0:2|0:2,0:0:0:0:
97,92,36149,1,2,1:2:0:0:
155,23,36483,2,0,L|209:24,1,44.999998626709,10|2,0:2|0:3,0:0:0:0:
392,141,37483,5,2,1:2:0:0:
392,141,38149,1,2,0:2:0:0:
452,207,38483,1,10,0:2:0:0:
423,292,38816,2,0,P|356:308|296:270,1,134.999995880127,2|2,1:2|1:2,0:0:0:0:
219,314,39649,2,0,L|243:366,2,44.999998626709,2|10|2,1:3|0:2|0:3,0:0:0:0:
178,294,40149,6,0,P|130:299|82:276,1,89.9999972534181,2|10,1:2|0:2,0:0:0:0:
46,205,40816,2,0,P|41:157|64:109,1,89.9999972534181,2|10,0:2|0:2,0:0:0:0:
108,45,41483,1,2,1:2:0:0:
166,112,41816,2,0,L|227:90,1,44.999998626709,10|2,0:2|1:3,0:0:0:0:
208,96,42816,6,0,L|223:209,1,100,6|8,1:2|0:2,0:0:0:0:
316,225,43483,1,2,0:2:0:0:
265,311,43816,1,10,0:2:0:0:
173,270,44150,2,0,P|91:295|29:251,1,150,2|2,1:2|1:2,0:0:0:0:
45,165,44983,2,0,L|-14:129,2,50,2|0|2,1:2|0:0|1:2,0:0:0:0:
77,127,45483,6,0,P|118:116|172:140,1,100,2|10,0:2|0:2,0:0:0:0:
253,191,46149,2,0,P|294:202|348:178,1,100,2|10,0:2|0:2,0:0:0:0:
415,110,46816,2,0,L|412:58,2,50,2|2|10,1:2|0:2|0:2,0:0:0:0:
456,138,47316,1,2,1:2:0:0:
437,236,47649,5,2,1:2:0:0:
474,269,47816,2,0,L|468:336,1,50,10|2,0:2|1:2,0:0:0:0:
429,349,48149,6,0,P|374:354|323:325,1,100,2|8,1:2|0:2,0:0:0:0:
278,252,48816,1,2,0:2:0:0:
347,179,49150,1,10,0:2:0:0:
293,94,49483,2,0,P|220:72|166:116,1,150,2|2,1:2|0:2,0:0:0:0:
94,183,50316,2,0,L|27:179,2,50,2|8|2,1:2|0:2|0:2,0:0:0:0:
115,228,50816,6,0,P|99:271|121:334,1,100,2|10,1:2|0:2,0:0:0:0:
203,373,51483,2,0,P|219:330|197:267,1,100,2|10,0:2|0:2,0:0:0:0:
263,196,52149,2,0,L|244:128,2,50,2|2|10,1:2|0:2|0:2,0:0:0:0:
307,219,52649,1,2,0:2:0:0:
357,312,52983,5,2,1:2:0:0:
396,342,53149,2,0,L|466:335,1,50,10|2,0:2|1:2,0:0:0:0:
486,306,53483,6,0,P|491:256|450:200,1,100,10|10,0:2|0:2,0:0:0:0:
386,155,54149,2,0,P|381:103|421:57,1,100,10|10,0:2|0:2,0:0:0:0:
309,41,54816,2,0,P|281:48|246:37,1,50,10|2,0:2|0:3,0:0:0:0:
213,28,55149,1,10,0:2:0:0:
167,48,55316,1,2,0:3:0:0:
68,33,55649,1,2,0:3:0:0:
25,59,55816,1,10,0:2:0:0:
75,144,56149,6,0,P|99:186|76:246,1,100,10|10,0:2|0:2,0:0:0:0:
73,333,56816,1,10,0:2:0:0:
122,323,56983,1,2,0:3:0:0:
165,347,57149,1,10,0:2:0:0:
256,307,57483,2,0,L|357:300,3,100,10|10|10|10,0:2|0:2|0:2|0:2,0:0:0:0:
339,201,58816,6,0,P|344:151|303:95,1,100,10|10,0:2|0:2,0:0:0:0:
221,115,59482,2,0,P|216:63|256:17,1,100,10|10,0:2|0:2,0:0:0:0:
340,9,60149,2,0,P|368:16|403:5,1,50,10|0,0:2|0:3,0:0:0:0:
435,28,60482,1,10,0:2:0:0:
481,10,60649,1,2,0:3:0:0:
503,107,60982,1,2,0:3:0:0:
459,131,61149,1,10,0:2:0:0:
359,134,61482,6,0,P|343:188|369:236,1,100,10|10,0:2|0:2,0:0:0:0:
412,311,62149,1,10,0:2:0:0:
374,343,62316,1,2,0:3:0:0:
325,331,62482,1,10,0:2:0:0:
242,273,62816,2,0,L|139:284,3,100,14|10|10|10,0:2|0:2|0:2|0:2,0:0:0:0:
126,185,64149,6,0,L|28:143,3,100,10|10|10|10,0:2|0:2|0:2|0:2,0:0:0:0:
87,60,65483,2,0,L|206:76,1,100,10|10,0:2|0:2,0:0:0:0:
269,18,66149,2,0,L|374:61,1,100,10|10,0:2|0:2,0:0:0:0:
424,133,66816,6,0,L|448:249,1,100,14|10,0:2|0:2,0:0:0:0:
420,328,67483,1,10,0:2:0:0:
323,303,67816,1,10,0:2:0:0:
226,330,68149,2,0,L|115:311,1,100,10|10,0:2|0:2,0:0:0:0:
67,232,68816,1,10,0:2:0:0:
142,166,69149,1,10,0:2:0:0:
241,151,69483,6,0,L|210:32,1,100,14|10,0:2|0:2,0:0:0:0:
176,23,69983,1,0,0:2:0:0:
132,46,70149,1,10,0:2:0:0:
31,48,70483,1,10,0:2:0:0:
61,143,70816,1,14,0:2:0:0:
21,234,71149,1,10,0:2:0:0:
50,274,71316,1,0,0:2:0:0:
37,322,71483,1,10,0:2:0:0:
122,372,71816,1,10,0:2:0:0:
256,192,72149,12,4,73483,1:2:0:0:
122,372,74816,6,0,B|130:335|130:335|114:294|114:294|125:234,1,119.999996337891,6|10,1:2|1:3,0:0:0:0:
23,185,75483,2,0,B|16:147|16:147|32:106|32:106|24:69,1,119.999996337891,2|10,1:2|1:3,0:0:0:0:
126,7,76149,1,2,1:3:0:0:
221,80,76483,2,0,P|256:82|293:62,1,59.9999981689454,10|2,1:3|0:2,0:0:0:0:
342,24,76816,2,0,P|377:22|414:42,1,59.9999981689454,2|2,1:3|0:2,0:0:0:0:
481,52,77149,1,10,1:3:0:0:
497,109,77316,1,2,0:2:0:0:
470,163,77483,5,2,1:3:0:0:
394,256,77816,2,0,P|370:256|335:243,1,59.9999981689454,10|2,1:3|0:2,0:0:0:0:
290,177,78149,2,0,P|266:177|231:190,1,59.9999981689454,2|2,1:3|0:2,0:0:0:0:
177,251,78483,2,0,P|153:251|118:238,1,59.9999981689454,10|2,1:3|0:2,0:0:0:0:
70,173,78816,1,2,1:2:0:0:
24,283,79149,1,10,1:2:0:0:
116,359,79483,1,2,1:2:0:0:
202,275,79816,1,10,1:3:0:0:
291,355,80149,6,0,B|328:363|328:363|369:347|369:347|429:358,1,119.999996337891,6|10,1:2|1:3,0:0:0:0:
458,245,80816,2,0,B|421:237|421:237|380:253|380:253|320:242,1,119.999996337891,2|10,1:2|1:3,0:0:0:0:
227,281,81483,1,2,1:3:0:0:
126,346,81816,1,10,1:2:0:0:
68,362,81983,1,2,0:3:0:0:
17,329,82150,2,0,P|10:302|27:253,1,59.9999981689454,2|2,1:2|0:3,0:0:0:0:
80,225,82483,2,0,P|85:195|78:166,1,59.9999981689454,10|2,1:2|0:3,0:0:0:0:
30,104,82816,5,2,1:3:0:0:
132,41,83149,1,10,1:2:0:0:
188,19,83316,1,2,0:3:0:0:
239,50,83483,2,0,P|244:81|230:117,1,59.9999981689454,2|2,1:2|0:3,0:0:0:0:
164,151,83816,2,0,P|155:179|160:208,1,59.9999981689454,10|2,1:2|0:3,0:0:0:0:
218,265,84149,1,2,1:2:0:0:
330,222,84483,2,0,L|320:148,2,59.9999981689454,10|2|2,1:3|0:3|1:2,0:0:0:0:
392,324,85149,1,10,1:3:0:0:
443,355,85316,1,2,0:2:0:0:
498,331,85483,6,0,B|490:294|490:294|506:253|506:253|495:193,1,119.999996337891,6|10,1:2|1:3,0:0:0:0:
387,171,86150,2,0,B|379:134|379:134|395:93|395:93|384:33,1,119.999996337891,2|10,1:2|1:3,0:0:0:0:
277,7,86817,1,2,1:3:0:0:
173,68,87150,1,10,1:2:0:0:
117,46,87317,1,2,0:3:0:0:
70,84,87484,2,0,P|64:116|83:163,1,59.9999981689454,2|0,1:2|0:0,0:0:0:0:
131,193,87817,2,0,P|136:223|124:251,1,59.9999981689454,10|2,1:2|0:3,0:0:0:0:
72,313,88149,5,2,1:3:0:0:
185,350,88482,1,10,1:2:0:0:
237,379,88649,1,2,0:3:0:0:
292,355,88816,2,0,P|299:328|282:279,1,59.9999981689454,2|2,1:2|0:3,0:0:0:0:
240,237,89149,2,0,P|234:207|241:178,1,59.9999981689454,10|2,1:2|0:3,0:0:0:0:
300,125,89483,1,2,1:2:0:0:
405,182,89816,2,0,L|472:179,2,59.9999981689454,10|2|2,1:2|0:3|1:2,0:0:0:0:
312,104,90483,1,10,1:2:0:0:
263,68,90649,1,2,0:2:0:0:
209,95,90816,6,0,P|153:118|83:93,1,119.999996337891,6|10,1:2|1:3,0:0:0:0:
151,211,91483,2,0,P|204:237|279:215,1,119.999996337891,2|10,1:2|1:3,0:0:0:0:
212,335,92149,2,0,P|156:358|86:333,1,119.999996337891,2|10,1:2|1:3,0:0:0:0:
10,263,92816,1,2,1:2:0:0:
75,162,93149,1,10,1:3:0:0:
26,51,93483,5,8,0:2:0:0:
144,32,93816,2,0,L|217:51,1,59.9999981689454,8|8,0:2|0:2,0:0:0:0:
243,118,94149,2,0,L|316:99,1,59.9999981689454,8|8,0:2|0:2,0:0:0:0:
359,45,94483,1,8,0:2:0:0:
408,78,94649,1,8,0:2:0:0:
256,192,94816,12,6,96149,0:2:0:0:
408,78,106816,6,0,L|426:191,1,100,6|2,1:2|0:3,0:0:0:0:
475,262,107483,1,2,0:2:0:0:
391,316,107816,1,2,0:2:0:0:
311,254,108150,2,0,P|229:229|167:273,1,150,2|2,0:2|0:2,0:0:0:0:
98,321,108983,2,0,L|104:387,2,50,2|0|2,0:2|0:0|0:2,0:0:0:0:
56,293,109483,6,0,P|45:252|69:198,1,100,2|2,0:2|0:2,0:0:0:0:
165,209,110149,2,0,P|176:168|152:114,1,100,2|2,0:2|0:2,0:0:0:0:
64,73,110816,2,0,L|0:97,2,50,2|2|2,0:2|0:2|0:2,0:0:0:0:
85,27,111316,1,2,0:2:0:0:
184,21,111649,5,2,0:2:0:0:
231,37,111816,2,0,L|230:110,1,50,2|2,0:3|0:2,0:0:0:0:
193,121,112149,6,0,P|181:171|217:227,1,100,2|2,0:2|0:3,0:0:0:0:
272,283,112816,1,2,0:2:0:0:
365,248,113150,1,2,0:2:0:0:
451,298,113483,2,0,P|473:225|429:171,1,150,2|2,0:2|0:2,0:0:0:0:
352,109,114316,2,0,L|365:41,2,50,2|0|2,0:2|0:0|0:2,0:0:0:0:
314,142,114816,6,0,P|271:158|208:136,1,100,2|2,0:2|0:2,0:0:0:0:
230,45,115483,2,0,P|187:29|124:51,1,100,2|2,0:2|0:2,0:0:0:0:
37,60,116149,2,0,L|18:-8,2,50,2|0|2,0:2|0:0|0:2,0:0:0:0:
14,104,116649,1,2,0:2:0:0:
57,194,116983,5,2,0:2:0:0:
94,226,117149,2,0,L|72:284,1,50,2|2,0:3|0:2,0:0:0:0:
70,322,117483,6,0,P|115:338|169:313,1,100,12|10,0:2|0:2,0:0:0:0:
205,230,118149,2,0,P|257:225|303:265,1,100,10|10,0:2|0:2,0:0:0:0:
340,340,118816,2,0,P|368:347|403:336,1,50,10|2,0:2|0:3,0:0:0:0:
434,324,119149,1,10,0:2:0:0:
481,340,119316,1,2,0:3:0:0:
479,240,119649,1,2,0:3:0:0:
505,197,119816,1,10,0:2:0:0:
475,101,120149,6,0,P|425:97|381:129,1,100,10|10,0:2|0:2,0:0:0:0:
316,196,120816,1,10,0:2:0:0:
267,206,120983,1,2,0:3:0:0:
224,182,121149,1,10,0:2:0:0:
164,101,121483,2,0,L|63:108,3,100,10|10|10|10,0:2|0:2|0:2|0:2,0:0:0:0:
16,195,122816,6,0,P|11:245|52:301,1,100,10|10,0:2|0:2,0:0:0:0:
128,318,123482,2,0,P|133:266|93:220,1,100,10|10,0:2|0:2,0:0:0:0:
159,142,124149,2,0,P|187:135|222:146,1,50,10|2,0:2|0:3,0:0:0:0:
252,161,124482,1,10,0:2:0:0:
296,138,124649,1,2,0:3:0:0:
372,201,124982,1,2,0:3:0:0:
412,171,125149,1,10,0:2:0:0:
509,150,125482,6,0,P|525:204|499:252,1,100,10|10,0:2|0:2,0:0:0:0:
447,321,126149,1,10,0:2:0:0:
398,307,126316,1,2,0:3:0:0:
359,339,126482,1,10,0:2:0:0:
258,334,126816,2,0,L|155:345,3,100,14|10|14|10,0:2|0:2|0:2|0:2,0:0:0:0:
87,273,128149,6,0,L|65:157,3,100,14|10|10|10,0:2|0:2|0:2|0:2,0:0:0:0:
154,122,129483,2,0,L|268:99,1,100,10|10,0:2|0:2,0:0:0:0:
292,193,130149,2,0,L|400:167,1,100,10|10,0:2|0:2,0:0:0:0:
485,195,130816,6,0,L|461:79,1,100,14|10,0:2|0:2,0:0:0:0:
397,22,131483,1,10,0:2:0:0:
315,79,131816,1,10,0:2:0:0:
216,60,132149,2,0,L|105:41,1,100,10|10,0:2|0:2,0:0:0:0:
29,90,132816,1,10,0:2:0:0:
68,181,133149,1,10,0:2:0:0:
3,257,133483,6,0,L|34:376,1,100,14|10,0:2|0:2,0:0:0:0:
74,372,133983,1,0,0:2:0:0:
117,347,134149,1,10,0:2:0:0:
213,318,134483,1,10,0:2:0:0:
302,361,134816,1,14,0:2:0:0:
385,306,135149,1,10,0:2:0:0:
411,263,135316,1,0,0:2:0:0:
378,224,135483,1,10,0:2:0:0:
278,236,135816,1,10,0:2:0:0:
256,192,136149,12,4,137483,1:2:0:0:
276,236,144149,6,0,B|268:273|268:273|284:314|284:314|273:374,1,119.999996337891,6|10,1:2|1:3,0:0:0:0:
157,365,144816,2,0,B|150:327|150:327|166:286|166:286|158:249,1,119.999996337891,2|10,1:2|1:3,0:0:0:0:
75,162,145482,1,2,1:3:0:0:
145,64,145816,2,0,P|180:62|217:82,1,59.9999981689454,10|2,1:2|0:3,0:0:0:0:
246,136,146149,2,0,P|281:138|318:118,1,59.9999981689454,2|2,1:2|0:3,0:0:0:0:
380,97,146482,1,10,1:2:0:0:
405,151,146649,1,2,0:3:0:0:
370,199,146816,5,2,1:3:0:0:
366,318,147149,2,0,P|342:318|307:305,1,59.9999981689454,10|2,1:2|0:3,0:0:0:0:
278,229,147482,2,0,P|254:229|219:242,1,59.9999981689454,2|2,1:2|0:3,0:0:0:0:
173,309,147816,2,0,P|149:309|114:296,1,59.9999981689454,10|2,1:2|0:3,0:0:0:0:
70,230,148149,1,2,1:2:0:0:
122,121,148483,2,0,L|112:47,2,59.9999981689454,10|2|2,1:2|0:3|1:2,0:0:0:0:
241,106,149149,1,10,1:2:0:0:
293,77,149316,1,2,0:2:0:0:
337,117,149482,6,0,B|329:154|329:154|345:195|345:195|334:255,1,119.999996337891,6|10,1:2|1:3,0:0:0:0:
226,187,150149,2,0,B|234:224|234:224|218:265|218:265|229:325,1,119.999996337891,2|10,1:2|1:3,0:0:0:0:
319,377,150816,1,2,1:3:0:0:
422,316,151149,1,10,1:2:0:0:
460,269,151316,1,2,0:3:0:0:
417,226,151483,2,0,P|410:199|427:150,1,59.9999981689454,2|2,1:2|0:3,0:0:0:0:
482,117,151816,2,0,P|487:87|480:58,1,59.9999981689454,10|2,1:2|0:3,0:0:0:0:
407,19,152149,5,2,1:3:0:0:
316,97,152482,1,10,1:3:0:0:
266,63,152649,1,2,0:2:0:0:
218,99,152816,2,0,P|187:104|151:90,1,59.9999981689454,2|2,1:3|0:2,0:0:0:0:
118,25,153149,2,0,P|90:16|61:21,1,59.9999981689454,10|2,1:3|0:2,0:0:0:0:
8,84,153482,1,2,1:2:0:0:
32,201,153816,2,0,L|22:275,2,59.9999981689454,10|2|2,1:2|0:3|1:2,0:0:0:0:
148,228,154482,1,10,1:2:0:0:
199,258,154649,1,2,0:2:0:0:
251,229,154816,6,0,P|274:285|249:355,1,119.999996337891,6|10,1:2|1:3,0:0:0:0:
352,263,155483,2,0,P|378:210|356:135,1,119.999996337891,2|10,1:2|1:3,0:0:0:0:
465,221,156149,2,0,P|488:277|463:347,1,119.999996337891,2|10,1:2|1:3,0:0:0:0:
361,375,156816,1,2,1:2:0:0:
271,295,157149,1,10,1:3:0:0:
167,356,157483,5,0,1:2:0:0:
50,326,157816,2,0,L|69:262,1,59.9999981689454,0|8,1:2|1:2,0:0:0:0:
138,236,158149,2,0,L|136:165,1,59.9999981689454,0|8,1:2|1:2,0:0:0:0:
80,116,158483,1,0,1:2:0:0:
120,72,158649,1,8,1:2:0:0:
256,192,158816,12,6,160149,0:2:0:0:
122,72,165483,6,0,P|176:67|221:98,1,100,10|8,0:2|0:2,0:0:0:0:
260,178,166150,1,10,0:2:0:0:
352,138,166484,1,10,0:2:0:0:
440,184,166817,2,0,P|462:257|418:311,1,150,10|2,0:2|0:3,0:0:0:0:
320,325,167650,2,0,L|328:378,2,50,2|8|2,0:3|0:2|0:3,0:0:0:0:
289,285,168150,6,0,P|241:276|196:305,1,100,10|8,0:2|0:2,0:0:0:0:
123,367,168816,2,0,P|75:376|30:347,1,100,10|10,0:2|0:2,0:0:0:0:
24,250,169483,2,0,L|5:182,2,50,10|2|10,0:2|0:3|0:2,0:0:0:0:
74,250,169983,1,2,0:3:0:0:
172,229,170317,5,2,3:3:0:0:
215,204,170483,2,0,L|204:145,1,50,10|2,0:2|3:3,0:0:0:0:
183,110,170816,6,0,L|72:102,3,100,14|10|10|10,0:2|0:2|0:2|0:2,0:0:0:0:
35,190,172150,2,0,L|154:206,1,100,10|10,0:2|0:2,0:0:0:0:
120,302,172816,2,0,L|239:286,1,100,10|10,0:2|0:2,0:0:0:0:
323,303,173483,6,0,L|300:189,1,100,14|10,0:2|0:2,0:0:0:0:
235,131,174150,1,10,0:2:0:0:
293,50,174483,1,10,0:2:0:0:
376,105,174816,2,0,L|474:157,1,100,10|10,0:2|0:2,0:0:0:0:
479,250,175483,1,10,0:2:0:0:
418,329,175816,1,10,0:2:0:0:
333,275,176150,6,0,L|215:293,1,100,14|10,0:2|0:2,0:0:0:0:
189,312,176650,1,0,0:2:0:0:
152,278,176816,1,10,0:2:0:0:
67,223,177150,1,10,0:2:0:0:
114,135,177483,1,14,0:2:0:0:
209,163,177816,1,10,0:2:0:0:
256,192,177983,1,0,0:2:0:0:
296,161,178150,1,10,0:2:0:0:
388,198,178483,1,10,0:2:0:0:
256,192,178816,12,4,180150,1:2:0:0:
388,198,184150,5,4,1:2:0:0:
382,78,184483,2,0,P|358:78|323:91,1,59.9999981689454,10|2,1:3|0:2,0:0:0:0:
280,156,184816,2,0,P|256:156|221:143,1,59.9999981689454,2|2,1:3|0:2,0:0:0:0:
177,73,185149,1,10,1:3:0:0:
124,44,185316,1,2,0:2:0:0:
76,80,185483,1,2,1:2:0:0:
31,191,185816,1,10,1:3:0:0:
112,279,186150,1,2,1:2:0:0:
227,245,186483,1,10,1:3:0:0:
335,295,186816,6,0,B|343:258|343:258|327:217|327:217|338:157,1,119.999996337891,6|10,1:2|1:2,0:0:0:0:
225,128,187483,2,0,B|217:165|217:165|233:206|233:206|222:266,1,119.999996337891,2|10,1:2|1:3,0:0:0:0:
253,360,188150,1,2,1:2:0:0:
368,327,188483,1,10,1:2:0:0:
415,363,188650,1,2,0:3:0:0:
468,334,188817,2,0,P|475:307|458:258,1,59.9999981689454,2|0,1:2|0:0,0:0:0:0:
415,216,189150,2,0,P|410:186|417:157,1,59.9999981689454,8|2,1:2|0:3,0:0:0:0:
468,95,189483,5,2,1:3:0:0:
369,26,189816,1,10,1:2:0:0:
320,61,189983,1,2,0:3:0:0:
271,24,190150,2,0,P|240:19|204:33,1,59.9999981689454,2|2,1:2|0:3,0:0:0:0:
169,91,190483,2,0,P|141:100|112:95,1,59.9999981689454,10|2,1:3|0:2,0:0:0:0:
52,41,190816,1,2,1:3:0:0:
20,156,191149,1,10,1:3:0:0:
53,205,191316,1,2,0:2:0:0:
26,259,191483,1,2,1:2:0:0:
91,359,191816,1,14,1:2:0:0:
145,333,191983,1,2,0:3:0:0:
197,362,192149,6,0,B|234:354|234:354|275:370|275:370|335:359,1,119.999996337891,2|10,1:2|1:2,0:0:0:0:
362,253,192817,2,0,B|325:261|325:261|284:245|284:245|224:256,1,119.999996337891,2|10,1:2|1:2,0:0:0:0:
150,179,193484,1,2,1:2:0:0:
194,67,193817,1,10,1:2:0:0:
244,99,193984,1,2,0:3:0:0:
293,64,194149,2,0,P|325:58|372:77,1,59.9999981689454,2|2,1:2|0:3,0:0:0:0:
380,139,194484,2,0,P|410:144|438:132,1,59.9999981689454,8|2,1:2|0:3,0:0:0:0:
494,76,194816,5,2,1:2:0:0:
505,195,195149,1,8,1:2:0:0:
474,246,195316,1,2,0:3:0:0:
470,305,195483,2,0,P|443:312|394:295,1,59.9999981689454,2|2,1:2|0:3,0:0:0:0:
355,248,195816,2,0,P|325:242|296:249,1,59.9999981689454,10|2,1:2|0:3,0:0:0:0:
240,307,196150,1,2,1:2:0:0:
129,352,196483,1,10,1:2:0:0:
78,319,196649,1,2,0:2:0:0:
25,349,196816,1,2,1:2:0:0:
7,229,197150,1,14,1:2:0:0:
56,196,197316,1,2,0:3:0:0:
115,205,197483,6,0,P|171:228|241:203,1,119.999996337891,6|10,1:2|1:3,0:0:0:0:
200,96,198150,2,0,P|258:85|311:111,1,119.999996337891,2|10,1:2|1:3,0:0:0:0:
356,222,198816,2,0,P|413:235|467:213,1,119.999996337891,2|10,1:2|1:3,0:0:0:0:
486,94,199483,1,0,1:2:0:0:
388,24,199816,1,10,1:3:0:0:
301,102,200150,5,0,1:2:0:0:
190,54,200483,2,0,L|169:121,1,59.9999981689454,8|0,1:2|1:2,0:0:0:0:
212,182,200816,2,0,L|191:249,1,59.9999981689454,0|0,1:2|1:2,0:0:0:0:
128,285,201150,1,8,1:2:0:0:
154,338,201316,1,0,1:2:0:0:
256,192,201483,12,0,202816,1:2:0:0:
