osu file format v14

[General]
AudioFilename: audio.mp3
AudioLeadIn: 0
PreviewTime: 10732
Countdown: 0
SampleSet: Soft
StackLeniency: 0.2
Mode: 0
LetterboxInBreaks: 0
WidescreenStoryboard: 0

[Editor]
Bookmarks: 9492,15823,21492,26825,32158,42825,53492,64156,73492,74825,96158,106825,117492,128156,137492,138825,144158,160158,165656,170825,180158,181490,184158,192823,202825
DistanceSpacing: 0.9
BeatDivisor: 8
GridSize: 4
TimelineZoom: 2.166628

[Metadata]
Title:SACRIFICE (Original Mix)
TitleUnicode:SACRIFICE (Original Mix)
Artist:Alstroemeria Records feat. ayame
ArtistUnicode:Alstroemeria Records feat. ayame
Creator:Nuvolina
Version:Extra
Source:東方永夜抄 ~ Imperishable Night.
Tags:アルストロメリアレコーズ japanese video game electronic hardcore touhou project 8 藤原 妹紅 Fujiwara no Mokou 月まで届け、不死の煙 Reach for the Moon, Immortal Smoke STRUCTURED DANCEHALL 上海アリス幻樂団 ZUN Chaos kirylln Myxo Acylica log off now log_off_now Masayoshi Minoshima SOUND VOLTEX IV HEAVENLY HAVEN SDVX 4 j-core
BeatmapID:2423227
BeatmapSetID:1161525

[Difficulty]
HPDrainRate:5
CircleSize:4.5
OverallDifficulty:9.4
ApproachRate:9.6
SliderMultiplier:2
SliderTickRate:1

[Events]
//Background and Video events
0,0,"bg01.jpg",0,0
//Break Periods
//Storyboard Layer 0 (Background)
//Storyboard Layer 1 (Fail)
//Storyboard Layer 2 (Pass)
//Storyboard Layer 3 (Foreground)
//Storyboard Layer 4 (Overlay)
//Storyboard Sound Samples

[TimingPoints]
150,333.333333333333,4,2,3,70,1,0
10149,-66.6666666666667,4,2,3,70,0,0
10316,-100,4,2,3,70,0,0
10816,-83.3333333333333,4,2,1,85,0,0
20816,-50,4,2,1,85,0,0
21483,-71.4285714285714,4,2,3,90,0,0
26816,-133.333333333333,4,2,3,80,0,0
27816,-100,4,2,3,80,0,0
28816,-83.3333333333333,4,2,3,80,0,0
29483,-83.3333333333333,4,2,3,85,0,0
32149,-200,4,2,3,60,0,0
33149,-133.333333333333,4,2,3,60,0,0
33483,-200,4,2,3,60,0,0
35149,-133.333333333333,4,2,3,60,0,0
35483,-100,4,2,3,60,0,0
35816,-100,4,2,3,60,0,0
36149,-200,4,2,3,60,0,0
38483,-133.333333333333,4,2,3,60,0,0
38816,-200,4,2,3,60,0,0
40483,-133.333333333333,4,2,3,60,0,0
40816,-100,4,2,3,60,0,0
42816,-83.3333333333333,4,2,3,70,0,0
47649,-40,4,2,3,70,0,0
48149,-83.3333333333333,4,2,3,70,0,0
52983,-40,4,2,3,70,0,0
53483,-66.6666666666667,4,2,3,80,0,0
57483,-100,4,2,3,80,0,0
58816,-66.6666666666667,4,2,3,80,0,0
62816,-100,4,2,3,80,0,0
64149,-83.3333333333333,4,2,3,80,0,0
65816,-66.6666666666667,4,2,3,80,0,0
66816,-58.8235294117647,4,2,3,80,0,0
68149,-52.6315789473684,4,2,3,80,0,0
69483,-47.6190476190476,4,2,3,90,0,0
70149,-43.4782608695652,4,2,3,90,0,0
70816,-40,4,2,3,90,0,0
71483,-37.037037037037,4,2,3,90,0,0
72149,-34.4827586206897,4,2,3,100,0,0
73483,-34.4827586206897,4,2,3,100,0,0
74483,-34.4827586206897,4,2,1,80,0,0
74649,-34.4827586206897,4,2,0,80,0,0
74816,-66.6666666666667,4,2,1,100,0,1
76483,-50,4,2,1,100,0,1
76649,-111.111111111111,4,2,1,100,0,1
76816,-50,4,2,1,100,0,1
76982,-111.111111111111,4,2,1,100,0,1
77149,-50,4,2,1,100,0,1
77315,-111.111111111111,4,2,1,100,0,1
77483,-66.6666666666666,4,2,1,100,0,1
77816,-50,4,2,1,100,0,1
77982,-111.111111111111,4,2,1,100,0,1
78149,-50,4,2,1,100,0,1
78315,-111.111111111111,4,2,1,100,0,1
78482,-50,4,2,1,100,0,1
78648,-111.111111111111,4,2,1,100,0,1
78816,-66.6666666666666,4,2,1,100,0,1
80149,-50,4,2,1,100,0,1
80483,-111.111111111111,4,2,1,100,0,1
80816,-50,4,2,1,100,0,1
81150,-111.111111111111,4,2,1,100,0,1
81483,-66.6666666666667,4,2,1,100,0,1
81816,-50,4,2,1,100,0,1
81983,-111.111111111111,4,2,1,100,0,1
82149,-50,4,2,1,100,0,1
82316,-111.111111111111,4,2,1,100,0,1
82483,-50,4,2,1,100,0,1
82649,-111.111111111111,4,2,1,100,0,1
82816,-66.6666666666667,4,2,1,100,0,1
83149,-50,4,2,1,100,0,1
83316,-111.111111111111,4,2,1,100,0,1
83483,-50,4,2,1,100,0,1
83649,-111.111111111111,4,2,1,100,0,1
83816,-50,4,2,1,100,0,1
83983,-111.111111111111,4,2,1,100,0,1
84149,-66.6666666666667,4,2,1,100,0,1
85483,-50,4,2,1,100,0,1
85816,-111.111111111111,4,2,1,100,0,1
86149,-50,4,2,1,100,0,1
86483,-111.111111111111,4,2,1,100,0,1
86816,-66.6666666666667,4,2,1,100,0,1
87149,-50,4,2,1,100,0,1
87649,-111.111111111111,4,2,1,100,0,1
87816,-50,4,2,1,100,0,1
87983,-111.111111111111,4,2,1,100,0,1
88149,-66.6666666666667,4,2,1,100,0,1
88483,-50,4,2,1,100,0,1
88983,-111.111111111111,4,2,1,100,0,1
89149,-50,4,2,1,100,0,1
89316,-111.111111111111,4,2,1,100,0,1
89483,-66.6666666666667,4,2,1,100,0,1
90816,-50,4,2,1,100,0,1
91149,-111.111111111111,4,2,1,100,0,1
91483,-50,4,2,1,100,0,1
91816,-111.111111111111,4,2,1,100,0,1
92149,-50,4,2,1,100,0,1
92483,-111.111111111111,4,2,1,100,0,1
92816,-50,4,2,1,100,0,1
93149,-111.111111111111,4,2,1,100,0,1
93483,-111.111111111111,4,2,1,80,0,1
96149,-200,4,2,1,60,0,0
97149,-133.333333333333,4,2,1,60,0,0
97483,-200,4,2,1,60,0,0
99149,-133.333333333333,4,2,1,60,0,0
99483,-100,4,2,1,60,0,0
100649,-200,4,2,1,60,0,0
102483,-133.333333333333,4,2,1,60,0,0
102816,-200,4,2,1,60,0,0
104483,-133.333333333333,4,2,1,60,0,0
104816,-100,4,2,1,60,0,0
106816,-100,4,2,1,70,0,0
111649,-40,4,2,1,70,0,0
112149,-100,4,2,1,70,0,0
116983,-40,4,2,1,70,0,0
117483,-66.6666666666667,4,2,3,80,0,0
121483,-100,4,2,3,80,0,0
122816,-66.6666666666667,4,2,3,80,0,0
126816,-100,4,2,3,80,0,0
128149,-83.3333333333333,4,2,3,80,0,0
129483,-66.6666666666667,4,2,3,80,0,0
130816,-58.8235294117647,4,2,3,80,0,0
132149,-52.6315789473684,4,2,3,80,0,0
133483,-47.6190476190476,4,2,3,90,0,0
134149,-43.4782608695652,4,2,3,90,0,0
134816,-40,4,2,3,90,0,0
135483,-37.037037037037,4,2,3,90,0,0
136149,-34.4827586206897,4,2,3,100,0,0
137483,-34.4827586206897,4,2,3,100,0,0
138816,-83.3333333333333,4,2,1,70,0,0
139149,-100,4,2,1,70,0,0
139483,-83.3333333333333,4,2,1,70,0,0
139816,-100,4,2,1,70,0,0
140149,-83.3333333333333,4,2,1,70,0,0
140649,-100,4,2,1,70,0,0
140816,-83.3333333333333,4,2,1,70,0,0
140983,-100,4,2,1,70,0,0
141816,-83.3333333333333,4,2,1,80,0,0
141983,-100,4,2,1,80,0,0
142149,-83.3333333333333,4,2,1,80,0,0
142316,-100,4,2,1,80,0,0
142816,-83.3333333333333,4,2,1,80,0,0
143149,-133.333333333333,4,2,1,80,0,0
143483,-71.4285714285714,4,2,1,80,0,0
143816,-71.4285714285714,4,2,1,80,0,0
144149,-50,4,2,1,100,0,1
144483,-111.111111111111,4,2,1,100,0,1
144816,-50,4,2,1,100,0,1
145149,-111.111111111111,4,2,1,100,0,1
145483,-66.6666666666667,4,2,1,100,0,1
145816,-50,4,2,1,100,0,1
145983,-111.111111111111,4,2,1,100,0,1
146149,-50,4,2,1,100,0,1
146316,-111.111111111111,4,2,1,100,0,1
146483,-50,4,2,1,100,0,1
146649,-111.111111111111,4,2,1,100,0,1
146816,-66.6666666666667,4,2,1,100,0,1
147149,-50,4,2,1,100,0,1
147316,-111.111111111111,4,2,1,100,0,1
147483,-50,4,2,1,100,0,1
147649,-111.111111111111,4,2,1,100,0,1
147816,-50,4,2,1,100,0,1
147983,-111.111111111111,4,2,1,100,0,1
148149,-66.6666666666667,4,2,1,100,0,1
149483,-50,4,2,1,100,0,1
149816,-111.111111111111,4,2,1,100,0,1
150149,-50,4,2,1,100,0,1
150483,-111.111111111111,4,2,1,100,0,1
150816,-66.6666666666667,4,2,1,100,0,1
151149,-50,4,2,1,100,0,1
151649,-111.111111111111,4,2,1,100,0,1
151816,-50,4,2,1,100,0,1
151983,-111.111111111111,4,2,1,100,0,1
152149,-66.6666666666667,4,2,1,100,0,1
152483,-50,4,2,1,100,0,1
152983,-111.111111111111,4,2,1,100,0,1
153149,-50,4,2,1,100,0,1
153316,-111.111111111111,4,2,1,100,0,1
153483,-66.6666666666667,4,2,1,100,0,1
154816,-50,4,2,1,100,0,1
155149,-111.111111111111,4,2,1,100,0,1
155483,-50,4,2,1,100,0,1
155816,-111.111111111111,4,2,1,100,0,1
156149,-50,4,2,1,100,0,1
156483,-111.111111111111,4,2,1,100,0,1
156816,-50,4,2,1,100,0,1
157149,-111.111111111111,4,2,1,100,0,1
157483,-111.111111111111,4,2,1,90,0,1
160149,-83.3333333333333,4,2,3,70,0,0
161149,-71.4285714285714,4,2,3,70,0,0
161483,-83.3333333333333,4,2,3,70,0,0
162483,-71.4285714285714,4,2,3,70,0,0
163149,-83.3333333333333,4,2,3,70,0,0
163483,-62.5,4,2,3,70,0,0
163816,-62.5,4,2,3,70,0,0
164149,-200,4,2,3,70,0,0
165483,-83.3333333333333,4,2,3,80,0,0
170316,-40,4,2,3,80,0,0
170816,-83.3333333333333,4,2,3,80,0,0
172149,-66.6666666666667,4,2,3,80,0,0
173483,-66.6666666666667,4,2,3,80,0,0
174816,-52.6315789473684,4,2,3,80,0,0
176149,-47.6190476190476,4,2,3,90,0,0
176816,-43.4782608695652,4,2,3,90,0,0
177483,-40,4,2,3,90,0,0
178149,-37.037037037037,4,2,3,90,0,0
178816,-34.4827586206897,4,2,3,100,0,0
180149,-34.4827586206897,4,2,3,100,0,0
181483,-83.3333333333333,4,2,1,70,0,0
181816,-133.333333333333,4,2,1,70,0,0
182150,-83.3333333333333,4,2,1,70,0,0
182483,-133.333333333333,4,2,1,70,0,0
182816,-83.3333333333333,4,2,1,70,0,0
183316,-100,4,2,1,70,0,0
183483,-83.3333333333333,4,2,1,70,0,0
183650,-100,4,2,1,70,0,0
184149,-66.6666666666667,4,2,1,100,0,1
184483,-50,4,2,1,100,0,1
184649,-66.6666666666667,4,2,1,100,0,1
184816,-50,4,2,1,100,0,1
185483,-50,4,2,1,100,0,1
185816,-66.6666666666667,4,2,1,100,0,1
185983,-50,4,2,1,100,0,1
186482,-66.6666666666667,4,2,1,100,0,1
186816,-50,4,2,1,100,0,1
187816,-66.6666666666667,4,2,1,100,0,1
188149,-50,4,2,1,100,0,1
188482,-66.6666666666667,4,2,1,100,0,1
188649,-50,4,2,1,100,0,1
189149,-50,4,2,1,100,0,1
189483,-50,4,2,1,100,0,1
189816,-66.6666666666667,4,2,1,100,0,1
189983,-50,4,2,1,100,0,1
190483,-66.6666666666667,4,2,1,100,0,1
190649,-50,4,2,1,100,0,1
190816,-50,4,2,1,100,0,1
192149,-45.4545454545455,4,2,1,100,0,1
192649,-66.6666666666667,4,2,1,100,0,1
192816,-50,4,2,1,100,0,1
192983,-50,4,2,1,100,0,1
193149,-66.6666666666667,4,2,1,100,0,1
193316,-50,4,2,1,100,0,1
193483,-50,4,2,1,100,0,1
193816,-66.6666666666667,4,2,1,100,0,1
193983,-50,4,2,1,100,0,1
194483,-50,4,2,1,100,0,1
194817,-50,4,2,1,100,0,1
195483,-50,4,2,1,100,0,1
195816,-66.6666666666667,4,2,1,100,0,1
195983,-50,4,2,1,100,0,1
196149,-50,4,2,1,100,0,1
197482,-50,4,2,1,100,0,1
197816,-111.111111111111,4,2,1,100,0,1
198149,-50,4,2,1,100,0,1
198482,-111.111111111111,4,2,1,100,0,1
198816,-50,4,2,1,100,0,1
199149,-111.111111111111,4,2,1,100,0,1
199483,-50,4,2,1,100,0,1
199816,-111.111111111111,4,2,1,100,0,1
202816,-100,4,2,1,90,0,0

[Colours]
Combo1 : 174,51,51
Combo2 : 255,40,40
Combo3 : 239,147,44
Combo4 : 243,204,112

[HitObjects]
38,86,9483,6,0,L|44:150,1,50,4|0,1:2|0:2,0:2:0:0:
52,217,9649,1,8,0:2:0:0:
197,106,9816,2,0,L|251:98,1,50,4|0,1:2|0:2,0:2:0:0:
304,166,9983,1,8,0:2:0:0:
304,166,10066,1,8,0:2:0:0:
304,166,10149,6,0,L|397:159,1,75.0000028610231,4|0,1:2|0:2,0:2:0:0:
432,240,10316,2,0,L|375:232,1,50,2|0,1:2|0:2,0:2:0:0:
459,163,10483,5,10,0:2:0:0:
488,138,10566,1,10,0:2:0:0:
451,82,10649,1,8,1:2:0:0:
304,242,10816,5,4,1:2:0:0:
282,277,10899,1,0,0:3:0:0:
307,310,10983,1,2,0:2:0:0:
151,358,11149,2,0,P|121:370|88:355,1,59.9999981689454,10|0,0:2|0:2,0:2:0:0:
34,312,11316,1,2,0:3:0:0:
121,189,11483,5,2,1:2:0:0:
121,230,11566,1,0,0:3:0:0:
121,271,11649,1,2,0:2:0:0:
41,136,11816,2,0,P|28:85|79:37,1,119.999996337891,10|0,0:2|0:2,0:2:0:0:
144,68,12066,1,0,0:3:0:0:
197,30,12149,5,2,1:2:0:0:
232,52,12233,1,0,0:3:0:0:
269,32,12316,1,2,0:2:0:0:
368,152,12483,2,0,L|357:76,1,59.9999981689454,10|0,0:2|0:2,0:2:0:0:
346,13,12649,1,2,0:3:0:0:
239,250,12816,5,2,1:2:0:0:
285,212,12899,1,0,0:3:0:0:
264,156,12983,1,2,0:2:0:0:
204,159,13066,1,0,0:3:0:0:
188,217,13149,2,0,L|120:227,1,59.9999981689454,10|0,0:2|0:2,0:2:0:0:
108,329,13316,2,0,L|167:320,1,59.9999981689454,2|0,0:3|0:2,0:2:0:0:
241,352,13483,5,2,1:2:0:0:
275,375,13566,1,0,0:3:0:0:
308,350,13650,1,2,0:2:0:0:
488,281,13816,2,0,P|494:248|476:219,1,59.9999981689454,10|0,0:2|0:2,0:2:0:0:
419,175,13983,1,2,0:3:0:0:
312,268,14150,5,2,1:2:0:0:
353,268,14233,1,0,0:3:0:0:
394,268,14316,1,0,0:2:0:0:
252,344,14483,2,0,P|201:357|153:306,1,119.999996337891,10|0,0:2|0:2,0:2:0:0:
150,235,14733,1,0,0:3:0:0:
185,177,14816,5,2,1:2:0:0:
207,142,14900,1,0,0:3:0:0:
187,105,14983,1,2,0:2:0:0:
294,200,15150,2,0,L|366:199,1,59.9999981689454,10|0,0:2|0:2,0:2:0:0:
430,199,15316,1,2,0:3:0:0:
255,38,15483,5,2,1:2:0:0:
206,13,15566,1,0,0:3:0:0:
151,17,15650,1,2,0:2:0:0:
111,53,15733,1,0,0:3:0:0:
87,101,15816,2,0,L|59:41,1,59.9999981689454,10|0,0:2|0:2,0:2:0:0:
0,190,15983,2,0,L|17:123,1,59.9999981689454,2|0,0:3|0:2,0:2:0:0:
96,197,16149,5,2,1:2:0:0:
79,235,16232,1,0,0:3:0:0:
96,273,16316,1,2,0:2:0:0:
223,350,16482,2,0,P|256:356|285:338,1,59.9999981689454,10|0,0:2|0:2,0:2:0:0:
341,294,16649,1,2,0:3:0:0:
249,173,16816,5,2,1:2:0:0:
249,214,16899,1,0,0:3:0:0:
249,255,16982,1,2,0:2:0:0:
332,125,17149,2,0,P|306:78|349:22,1,119.999996337891,10|0,0:2|0:2,0:2:0:0:
414,5,17399,1,0,0:3:0:0:
474,43,17482,5,2,1:2:0:0:
498,77,17566,1,0,0:3:0:0:
480,115,17649,1,2,0:2:0:0:
410,322,17816,2,0,L|411:250,1,59.9999981689454,10|0,0:2|0:2,0:2:0:0:
411,181,17982,1,2,0:3:0:0:
223,227,18149,5,2,1:2:0:0:
185,273,18232,1,0,0:3:0:0:
129,252,18316,1,2,0:2:0:0:
132,192,18399,1,0,0:3:0:0:
190,176,18482,2,0,L|200:108,1,59.9999981689454,10|0,0:2|0:2,0:2:0:0:
302,96,18649,2,0,L|293:155,1,59.9999981689454,2|0,0:3|0:2,0:2:0:0:
237,45,18816,5,2,1:2:0:0:
201,23,18899,1,0,0:3:0:0:
164,43,18983,1,2,0:2:0:0:
8,180,19149,2,0,P|39:180|78:160,1,59.9999981689454,10|0,0:2|0:2,0:2:0:0:
116,108,19316,1,2,0:3:0:0:
21,1,19483,5,2,1:2:0:0:
21,42,19566,1,0,0:3:0:0:
21,83,19649,1,2,0:2:0:0:
159,195,19816,2,0,P|111:236|116:300,1,119.999996337891,10|2,0:2|0:3,0:2:0:0:
161,352,20066,1,0,0:3:0:0:
223,315,20149,5,2,1:2:0:0:
261,299,20233,1,0,0:3:0:0:
299,316,20316,1,2,0:2:0:0:
467,370,20483,2,0,L|465:302,1,59.9999981689454,10|0,0:2|0:2,0:2:0:0:
464,231,20649,1,2,0:3:0:0:
255,194,20816,6,0,L|355:188,1,100,2|0,1:2|0:2,0:2:0:0:
256,113,20983,2,0,L|356:119,1,100,2|0,1:2|0:2,0:2:0:0:
185,157,21149,1,8,0:2:0:0:
185,157,21233,1,8,0:2:0:0:
122,108,21316,1,8,0:2:0:0:
122,108,21399,1,8,0:2:0:0:
70,159,21483,6,0,P|31:214|76:265,1,139.999995727539,4|8,1:2|0:2,0:2:0:0:
198,310,21816,1,2,1:2:0:0:
239,334,21899,1,0,0:3:0:0:
284,315,21983,2,0,P|323:261|278:209,1,139.999995727539,10|0,0:2|1:2,0:2:0:0:
386,344,22316,1,8,0:2:0:0:
207,175,22483,6,0,L|248:24,1,139.999995727539,2|8,1:2|0:2,0:2:0:0:
375,123,22816,2,0,L|462:212,1,69.9999978637696,0|0,1:3|0:2,0:2:0:0:
477,227,22983,2,0,P|400:208|386:262,1,139.999995727539,10|0,0:2|1:2,0:2:0:0:
510,381,23316,1,8,0:2:0:0:
322,312,23483,6,0,B|262:328|224:278|224:278|187:229|126:244,1,209.999993591309,2|0,1:2|0:2,0:2:0:0:
140,334,23816,2,0,B|199:335|224:277|224:277|249:220|311:221,1,209.999993591309,2|0,1:2|0:2,0:2:0:0:
44,287,24149,6,0,P|5:232|50:181,1,139.999995727539,2|8,1:2|0:2,0:2:0:0:
128,52,24483,1,0,1:3:0:0:
169,28,24565,1,0,0:3:0:0:
214,47,24649,2,0,P|253:101|208:153,1,139.999995727539,8|0,0:2|1:2,0:2:0:0:
310,0,24983,1,8,0:2:0:0:
424,215,25149,6,0,L|331:98,1,139.999995727539,2|8,1:2|0:2,0:2:0:0:
205,279,25483,2,0,L|292:190,1,69.9999978637696,0|0,1:3|0:2,0:2:0:0:
307,174,25650,2,0,P|249:204|213:151,1,139.999995727539,10|0,0:2|1:2,0:2:0:0:
0,204,25983,5,8,0:2:0:0:
43,226,26066,1,8,0:2:0:0:
85,203,26149,2,0,P|32:281|116:348,1,209.999993591309,2|0,1:2|0:2,0:2:0:0:
173,295,26483,2,0,P|68:270|19:350,1,209.999993591309,2|0,1:2|0:2,0:2:0:0:
103,348,26816,6,0,L|177:376,1,75.0000028610231,2|8,1:2|0:2,0:2:0:0:
280,325,27149,1,0,1:2:0:0:
457,348,27316,2,0,L|383:376,1,75.0000028610231,10|0,0:2|1:2,0:2:0:0:
280,325,27649,1,8,0:2:0:0:
201,206,27816,6,0,L|97:169,1,100,2|8,1:2|0:2,0:2:0:0:
280,325,28149,1,0,1:2:0:0:
367,209,28316,2,0,L|471:172,1,100,10|0,0:2|1:2,0:2:0:0:
280,325,28649,1,8,0:2:0:0:
321,158,28816,6,0,B|334:107|292:75|292:75|251:44|263:-7,1,179.999994506836,2|0,1:2|0:2,0:2:0:0:
339,4,29149,2,0,B|339:53|291:74|291:74|243:95|243:147,1,179.999994506836,2|0,1:2|0:2,0:2:0:0:
287,237,29483,5,0,1:2:0:0:
425,88,29649,1,8,0:2:0:0:
325,354,29816,5,0,1:2:0:0:
151,197,29983,1,8,0:2:0:0:
445,248,30149,5,0,1:2:0:0:
369,44,30316,1,8,0:2:0:0:
229,319,30483,5,0,1:2:0:0:
148,92,30649,1,8,0:2:0:0:
484,285,30816,5,0,1:3:0:0:
484,231,30899,1,0,3:3:0:0:
455,184,30983,1,8,3:3:0:0:
403,169,31066,1,0,3:3:0:0:
352,207,31149,5,0,1:3:0:0:
293,221,31233,1,0,3:3:0:0:
234,208,31316,1,8,3:3:0:0:
191,165,31399,1,8,3:3:0:0:
179,105,31483,5,0,1:3:0:0:
197,48,31566,1,0,3:3:0:0:
247,12,31649,1,8,3:3:0:0:
307,8,31733,1,0,3:3:0:0:
367,33,31816,5,0,1:3:0:0:
400,89,31899,1,0,3:3:0:0:
402,155,31983,1,8,3:3:0:0:
356,202,32066,1,0,3:3:0:0:
293,221,32149,6,0,L|296:319,1,75,4|0,1:3|0:2,0:2:0:0:
297,323,32483,1,8,0:2:0:0:
132,281,32816,5,2,0:2:0:0:
68,341,32983,1,2,1:3:0:0:
36,155,33149,2,0,P|19:206|55:259,1,112.500004291535,10|0,0:2|0:2,0:2:0:0:
193,198,33483,2,0,L|118:198,1,75,2|0,1:2|0:2,0:2:0:0:
90,199,33816,1,10,0:2:0:0:
154,102,33983,1,2,1:2:0:0:
323,343,34316,5,2,1:3:0:0:
356,165,34483,1,10,0:2:0:0:
492,284,34649,1,2,0:3:0:0:
391,261,34816,6,0,L|426:219,1,50,2|0,1:2|0:2,0:2:0:0:
464,103,35149,2,0,L|411:40,1,75.0000028610231,10|0,0:2|1:2,0:2:0:0:
195,125,35483,2,0,P|252:116|281:146,1,100,2|0,0:2|1:2,0:2:0:0:
124,313,35816,2,0,P|66:321|37:291,1,100,10|0,0:2|0:2,0:2:0:0:
262,281,36149,5,2,1:2:0:0:
270,379,36316,1,2,0:3:0:0:
349,328,36483,1,10,0:2:0:0:
354,143,36649,2,0,L|337:248,1,100,2|0,0:3|1:2,0:2:0:0:
338,241,37149,1,8,0:2:0:0:
51,69,37483,6,0,L|144:60,1,75,2|0,1:2|0:2,0:2:0:0:
152,57,37817,1,8,0:2:0:0:
276,181,38149,5,2,0:2:0:0:
340,241,38316,1,2,1:3:0:0:
372,55,38483,2,0,P|389:106|353:159,1,112.500004291535,10|0,0:2|0:2,0:2:0:0:
215,98,38816,2,0,L|290:98,1,75,2|0,1:2|0:2,0:2:0:0:
318,98,39149,1,8,0:2:0:0:
254,2,39316,1,2,1:2:0:0:
171,298,39649,5,2,1:3:0:0:
138,120,39816,1,10,0:2:0:0:
2,239,39982,1,2,0:3:0:0:
103,216,40149,6,0,L|68:174,1,50,2|0,1:2|0:2,0:2:0:0:
30,58,40483,2,0,L|82:0,1,75.0000028610231,10|0,0:2|1:2,0:2:0:0:
299,80,40816,2,0,P|242:71|213:101,1,100,2|0,0:2|1:2,0:2:0:0:
368,253,41149,2,0,P|426:261|455:231,1,100,10|0,0:2|0:2,0:2:0:0:
232,236,41482,5,2,1:2:0:0:
224,334,41649,1,2,0:3:0:0:
145,283,41816,1,10,0:2:0:0:
138,97,41982,2,0,L|155:207,1,100,2|0,1:3|0:2,0:2:0:0:
154,196,42316,5,2,1:2:0:0:
224,137,42483,1,8,0:2:0:0:
293,196,42649,1,2,0:2:0:0:
224,358,42816,5,6,1:2:0:0:
432,301,42983,2,0,L|287:298,1,119.999996337891,2|8,0:3|0:2,0:2:0:0:
438,220,43316,1,2,1:3:0:0:
371,379,43483,1,2,0:2:0:0:
285,219,43649,1,2,1:2:0:0:
409,28,43816,2,0,P|418:83|483:116,1,119.999996337891,10|0,0:2|0:2,0:2:0:0:
262,60,44149,5,2,1:2:0:0:
97,24,44316,2,0,P|71:77|98:138,1,119.999996337891,2|8,0:3|0:2,0:2:0:0:
234,222,44649,2,0,P|247:162|207:113,1,119.999996337891,2|0,1:2|0:2,0:2:0:0:
160,290,44983,2,0,P|245:325|311:271,1,179.999994506836,2|0,1:2|0:2,0:2:0:0:
313,259,45316,1,2,1:2:0:0:
169,39,45483,5,2,0:2:0:0:
276,172,45649,2,0,L|136:161,1,119.999996337891,2|10,1:3|0:2,0:2:0:0:
322,111,45983,1,2,1:3:0:0:
207,256,46149,1,2,0:2:0:0:
116,90,46315,1,2,1:3:0:0:
306,347,46483,6,0,P|305:303|388:284,1,119.999996337891,10|0,0:2|1:2,0:2:0:0:
160,204,46816,1,2,1:2:0:0:
348,137,46983,1,2,0:2:0:0:
173,18,47149,1,10,0:2:0:0:
249,193,47316,2,0,L|260:54,1,119.999996337891,2|0,1:2|0:2,0:2:0:0:
140,89,47649,6,0,B|100:95|88:65|88:65|111:45|145:66,1,125,2|0,1:2|0:2,0:2:0:0:
367,154,47816,6,0,B|402:173|424:148|424:148|409:121|370:130,1,125,10|0,0:2|0:2,0:2:0:0:
229,230,47983,6,0,B|209:265|234:287|234:287|261:272|253:233,1,125,2|0,1:2|0:2,0:2:0:0:
294,362,48149,5,2,1:2:0:0:
90,227,48316,2,0,L|106:371,1,119.999996337891,2|8,0:3|0:2,0:2:0:0:
169,211,48649,1,2,0:3:0:0:
13,300,48816,1,2,0:2:0:0:
185,369,48983,1,2,1:2:0:0:
79,135,49149,2,0,P|24:153|15:224,1,119.999996337891,10|0,0:2|0:2,0:2:0:0:
237,155,49482,5,2,1:2:0:0:
331,52,49649,2,0,P|379:32|454:66,1,119.999996337891,2|8,0:3|0:2,0:2:0:0:
387,217,49983,2,0,P|408:163|368:96,1,119.999996337891,2|0,0:2|0:2,0:2:0:0:
438,293,50316,2,0,P|385:312|320:277,1,119.999996337891,2|8,1:2|0:2,0:2:0:0:
261,156,50649,1,2,0:2:0:0:
174,358,50816,5,2,1:2:0:0:
43,243,50982,2,0,L|183:232,1,119.999996337891,2|10,0:3|0:2,0:2:0:0:
0,178,51315,1,2,0:3:0:0:
109,331,51482,1,2,0:2:0:0:
206,169,51648,1,2,1:3:0:0:
340,344,51816,6,0,P|368:301|357:228,1,119.999996337891,10|0,0:2|0:2,0:2:0:0:
196,265,52149,1,2,1:2:0:0:
18,161,52316,1,2,0:2:0:0:
212,80,52483,1,10,0:2:0:0:
110,239,52649,2,0,L|123:99,1,119.999996337891,2|0,0:2|0:2,0:2:0:0:
402,78,52983,6,0,B|355:66|361:27|361:27|397:26|405:55,1,125,2|0,1:2|0:2,0:2:0:0:
468,286,53149,6,0,B|516:291|524:253|524:253|490:239|473:263,1,125,10|0,0:2|0:2,0:2:0:0:
265,259,53316,6,0,B|217:247|223:208|223:208|259:207|267:236,1,125,2|0,1:2|0:2,0:2:0:0:
378,192,53483,5,10,0:2:0:0:
347,321,53649,1,2,0:3:0:0:
166,147,53816,2,0,P|110:199|124:266,1,150.000005722046,10|0,0:2|0:2,0:2:0:0:
127,76,54149,5,10,0:2:0:0:
192,222,54316,1,2,0:3:0:0:
410,124,54483,2,0,P|351:78|283:100,1,150.000005722046,10|0,0:2|0:2,0:2:0:0:
315,244,54816,5,10,0:2:0:0:
320,227,54899,1,0,0:2:0:0:
326,213,54983,1,2,0:3:0:0:
385,326,55149,1,10,0:2:0:0:
111,336,55316,2,0,P|198:331|233:271,1,150.000005722046,2|8,0:3|0:2,0:2:0:0:
74,129,55649,1,2,0:3:0:0:
99,166,55733,1,0,0:2:0:0:
123,203,55816,1,10,0:2:0:0:
133,208,56149,5,10,0:2:0:0:
245,115,56316,1,2,0:3:0:0:
434,295,56483,2,0,P|361:314|308:271,1,150.000005722046,10|0,0:2|0:2,0:2:0:0:
386,165,56816,1,10,0:2:0:0:
383,178,56899,1,0,0:2:0:0:
381,190,56983,1,2,0:3:0:0:
262,21,57149,1,10,0:2:0:0:
500,33,57316,1,2,0:3:0:0:
371,223,57483,6,0,P|335:201|355:132,1,100,10|0,0:2|0:2,0:2:0:0:
191,125,57816,2,0,P|181:171|135:185,1,100,10|0,0:2|0:2,0:2:0:0:
124,47,58149,2,0,B|179:64|169:28|221:43,1,100,10|0,0:2|0:2,0:2:0:0:
439,97,58483,2,0,B|382:96|401:65|348:63,1,100,10|0,0:2|0:2,0:2:0:0:
252,225,58816,5,10,0:2:0:0:
289,355,58982,1,2,0:3:0:0:
470,181,59149,2,0,P|526:233|512:300,1,150.000005722046,10|0,0:2|0:2,0:2:0:0:
509,110,59482,1,10,0:2:0:0:
444,256,59649,1,2,0:3:0:0:
226,158,59816,2,0,P|285:112|353:134,1,150.000005722046,10|0,0:2|0:2,0:2:0:0:
321,278,60149,5,10,0:2:0:0:
316,261,60232,1,0,0:2:0:0:
310,247,60316,1,0,0:3:0:0:
213,356,60482,1,10,0:2:0:0:
82,159,60649,2,0,P|169:164|204:224,1,150.000005722046,2|8,0:3|0:2,0:2:0:0:
65,344,60982,1,2,0:3:0:0:
90,307,61066,1,0,0:2:0:0:
114,270,61149,1,10,0:2:0:0:
124,265,61482,5,10,0:2:0:0:
225,349,61649,1,2,0:3:0:0:
304,81,61816,2,0,P|241:127|236:203,1,150.000005722046,10|0,0:2|0:2,0:2:0:0:
360,187,62149,1,10,0:2:0:0:
348,185,62233,1,0,0:2:0:0:
335,182,62316,5,2,0:3:0:0:
512,267,62482,1,10,0:2:0:0:
492,75,62649,1,2,0:3:0:0:
210,117,62816,6,0,P|153:112|107:56,1,100,14|0,0:2|0:2,0:2:0:0:
333,136,63149,2,0,P|388:149|450:110,1,100,10|0,0:2|0:2,0:2:0:0:
172,296,63483,2,0,B|152:259|118:252|110:201,1,100,10|0,0:2|0:2,0:2:0:0:
307,317,63816,2,0,B|337:289|371:292|395:246,1,100,10|0,0:2|0:2,0:2:0:0:
162,79,64149,6,0,P|104:64|19:85,1,119.999996337891,10|0,0:2|0:2,0:2:0:0:
391,115,64483,2,0,P|449:119|524:165,1,119.999996337891,10|0,0:2|0:2,0:2:0:0:
48,324,64816,2,0,B|68:287|27:238|83:189,1,119.999996337891,10|0,0:2|0:2,0:2:0:0:
423,383,65149,2,0,B|415:342|469:309|431:244,1,119.999996337891,10|0,0:2|0:2,0:2:0:0:
162,92,65483,5,10,0:2:0:0:
179,123,65566,1,0,0:3:0:0:
197,153,65649,1,0,0:3:0:0:
409,21,65816,2,0,P|341:12|271:68,1,150.000005722046,10|0,0:2|0:2,0:2:0:0:
479,118,66149,1,10,0:2:0:0:
325,237,66316,1,0,0:2:0:0:
325,237,66399,1,0,0:2:0:0:
325,237,66483,2,0,L|283:158,1,75.0000028610231,10|0,0:2|0:2,0:2:0:0:
436,227,66649,2,0,L|472:292,1,75.0000028610231,0|0,0:2|0:2,0:2:0:0:
344,342,66816,6,0,B|304:363|304:363|324:329,1,85.0000016212464,14|0,0:2|0:2,0:2:0:0:
241,276,66983,2,0,B|203:260|203:260|223:298,1,85.0000016212464,0|0,0:2|0:2,0:2:0:0:
142,360,67149,2,0,B|95:374|95:374|115:340,1,85.0000016212464,10|0,0:2|0:2,0:2:0:0:
39,283,67316,2,0,B|1:267|1:267|21:305,1,85.0000016212464,0|0,0:2|0:2,0:2:0:0:
142,360,67483,6,0,B|95:374|95:374|113:343,1,85.0000016212464,10|0,0:2|0:2,0:2:0:0:
241,276,67649,2,0,B|203:260|203:260|223:298,1,85.0000016212464,0|0,0:2|0:2,0:2:0:0:
344,342,67816,2,0,B|304:363|304:363|324:329,1,85.0000016212464,10|0,0:2|0:2,0:2:0:0:
451,261,67983,2,0,B|413:245|413:245|433:283,1,85.0000016212464,0|0,0:2|0:2,0:2:0:0:
305,190,68149,6,0,B|271:192|257:168|257:168|266:145|290:148,1,94.9999974632264,10|0,0:2|0:2,0:2:0:0:
404,119,68316,2,0,B|438:121|452:97|452:97|443:74|419:77,1,94.9999974632264,0|0,0:2|0:2,0:2:0:0:
337,7,68483,2,0,B|339:41|315:55|315:55|292:46|295:22,1,94.9999974632264,10|0,0:2|0:2,0:2:0:0:
213,86,68649,2,0,B|179:88|165:64|165:64|174:41|198:44,1,94.9999974632264,0|0,0:2|0:2,0:2:0:0:
107,217,68816,6,0,B|109:251|85:265|85:265|62:256|65:232,1,94.9999974632264,10|0,0:2|0:2,0:2:0:0:
42,139,68983,2,0,B|40:105|64:91|64:91|87:100|84:124,1,94.9999974632264,0|0,0:2|0:2,0:2:0:0:
248,211,69149,2,0,B|246:245|270:259|270:259|293:250|290:226,1,94.9999974632264,10|0,0:2|0:2,0:2:0:0:
209,119,69316,2,0,B|211:85|187:71|187:71|164:80|167:104,1,94.9999974632264,0|0,0:2|0:2,0:2:0:0:
400,137,69483,6,0,P|438:120|436:169,1,104.999996795654,14|0,0:2|0:2,0:2:0:0:
417,293,69649,2,0,P|379:310|381:261,1,104.999996795654,0|0,0:2|0:2,0:2:0:0:
410,135,69816,6,0,P|448:118|446:167,1,104.999996795654,10|0,0:2|0:2,0:2:0:0:
427,291,69982,2,0,P|389:308|391:259,1,104.999996795654,0|0,0:2|0:2,0:2:0:0:
230,216,70149,6,0,P|192:199|196:257,1,115.000002193451,10|0,0:2|0:2,0:2:0:0:
213,372,70315,2,0,P|251:389|250:332,1,115.000002193451,0|0,0:2|0:2,0:2:0:0:
220,214,70482,6,0,P|182:197|188:255,1,115.000002193451,10|0,0:2|0:2,0:2:0:0:
203,370,70649,2,0,P|241:387|238:328,1,115.000002193451,0|0,0:2|0:2,0:2:0:0:
48,158,70816,6,0,P|39:104|94:53,1,125,14|0,0:2|0:2,0:2:0:0:
188,36,70983,2,0,P|197:90|142:141,1,125,0|0,0:2|0:2,0:2:0:0:
56,242,71149,6,0,P|47:296|102:347,1,125,10|0,0:2|0:2,0:2:0:0:
196,364,71316,2,0,P|205:310|150:259,1,125,0|0,0:2|0:2,0:2:0:0:
216,102,71483,6,0,P|269:144|341:148,1,135.000000514984,10|0,0:2|0:2,0:2:0:0:
377,71,71649,2,0,P|443:77|495:118,1,135.000000514984,0|0,0:2|0:2,0:2:0:0:
496,282,71816,6,0,P|443:324|371:328,1,135.000000514984,10|0,0:2|0:2,0:2:0:0:
335,251,71982,2,0,P|268:257|216:298,1,135.000000514984,0|0,0:3|0:2,0:2:0:0:
33,153,72149,6,0,L|182:202,1,145.000004425049,14|0,0:2|0:2,0:2:0:0:
271,190,72315,6,0,L|119:163,1,145.000004425049,2|0,0:3|0:2,0:2:0:0:
25,115,72483,6,0,L|174:165,1,145.000004425049,10|0,0:2|0:2,0:2:0:0:
262,148,72649,6,0,L|110:120,1,145.000004425049,2|0,0:3|0:2,0:2:0:0:
39,76,72816,6,0,L|188:126,1,145.000004425049,10|0,0:2|0:2,0:2:0:0:
291,111,72982,6,0,L|139:84,1,145.000004425049,2|0,0:3|0:2,0:2:0:0:
28,23,73150,6,0,L|178:72,1,145.000004425049,10|0,0:2|0:2,0:2:0:0:
311,50,73316,6,0,L|159:23,1,145.000004425049,2|0,0:3|0:2,0:2:0:0:
77,0,73483,5,4,1:2:0:0:
117,173,74483,5,8,0:2:0:0:
115,145,74566,1,8,0:2:0:0:
115,106,74649,1,8,0:3:0:0:
113,60,74733,1,4,0:3:0:0:
111,0,74816,6,0,L|119:233,1,225.000008583069,6|0,1:2|0:2,0:2:0:0:
173,384,75149,2,0,L|181:296,1,75.0000028610231,10|0,1:3|0:2,0:2:0:0:
200,142,75316,1,0,0:2:0:0:
200,142,75399,1,0,0:2:0:0:
200,142,75483,6,0,P|270:98|262:216,1,225.000008583069,2|0,1:2|0:2,0:2:0:0:
242,264,75816,2,0,B|282:283|282:283|417:259,1,150.000005722046,10|0,1:3|0:2,0:2:0:0:
482,329,76066,1,0,0:2:0:0:
482,329,76149,6,0,L|458:93,1,225.000008583069,2|0,1:3|0:2,0:2:0:0:
313,103,76483,6,0,L|192:92,1,100,10|0,1:3|0:2,0:2:0:0:
11,105,76649,2,0,L|58:101,1,44.999998626709,2|0,0:2|0:2,0:2:0:0:
325,118,76816,2,0,L|204:107,1,100,2|0,1:3|0:2,0:2:0:0:
23,120,76983,2,0,L|70:116,1,44.999998626709,2|0,0:2|0:2,0:2:0:0:
339,134,77149,2,0,L|218:123,1,100,10|0,1:3|0:2,0:2:0:0:
37,136,77316,2,0,L|84:132,1,44.999998626709,2|0,0:2|0:2,0:2:0:0:
158,31,77483,6,0,B|174:82|174:82|135:194|135:194|161:253,1,225.000008583069,2|0,1:3|0:2,0:2:0:0:
240,318,77816,6,0,L|217:202,1,100,10|0,1:3|0:2,0:2:0:0:
157,340,77983,2,0,L|147:388,1,44.999998626709,2|0,0:2|0:2,0:2:0:0:
301,222,78149,2,0,L|320:106,1,100,2|0,1:3|0:2,0:2:0:0:
374,271,78316,2,0,L|384:319,1,44.999998626709,2|0,0:2|0:2,0:2:0:0:
179,138,78483,2,0,L|158:24,1,100,10|0,1:3|0:2,0:2:0:0:
109,192,78650,2,0,L|99:240,1,44.999998626709,2|0,0:2|0:2,0:2:0:0:
344,38,78816,6,0,P|379:26|338:113,1,225.000008583069,2|0,1:2|0:2,0:2:0:0:
204,77,79149,2,0,L|284:87,1,75.0000028610231,10|2,1:2|0:3,0:2:0:0:
411,209,79316,1,2,0:3:0:0:
408,232,79399,1,2,0:3:0:0:
320,306,79483,6,0,P|355:317|314:231,1,225.000008583069,2|0,1:2|0:2,0:2:0:0:
172,334,79816,5,10,1:3:0:0:
137,276,79899,1,2,0:2:0:0:
162,212,79983,1,2,0:2:0:0:
162,144,80066,1,2,0:2:0:0:
126,86,80149,6,0,L|427:130,1,300,6|0,1:2|0:2,0:2:0:0:
447,112,80483,6,0,L|300:89,1,134.999995880127,10|0,1:3|0:2,0:2:0:0:
0,177,80816,6,0,L|297:222,1,300,2|0,1:2|0:2,0:2:0:0:
326,202,81150,6,0,L|179:179,1,134.999995880127,10|0,1:3|0:2,0:2:0:0:
453,333,81483,6,0,L|217:309,1,225.000008583069,2|0,1:3|0:2,0:2:0:0:
77,185,81816,6,0,L|61:74,1,100,10|0,1:2|0:2,0:2:0:0:
148,251,81983,1,2,0:3:0:0:
145,274,82066,1,0,0:2:0:0:
141,298,82149,2,0,L|192:207,1,100,2|0,1:2|0:2,0:2:0:0:
334,177,82316,2,0,L|379:216,1,44.999998626709,2|0,0:3|0:2,0:2:0:0:
237,93,82483,2,0,L|191:-3,1,100,10|2,1:2|0:2,0:2:0:0:
285,302,82649,2,0,L|330:341,1,44.999998626709,2|0,0:3|0:2,0:2:0:0:
457,269,82816,6,0,B|473:218|473:218|434:106|434:106|460:47,1,225.000008583069,2|0,1:3|0:2,0:2:0:0:
300,76,83149,6,0,L|179:57,1,100,10|0,1:2|0:2,0:2:0:0:
58,175,83316,1,2,0:3:0:0:
36,192,83399,1,0,0:2:0:0:
15,210,83483,2,0,L|113:225,1,100,2|0,1:2|0:2,0:2:0:0:
367,174,83649,2,0,L|307:185,1,44.999998626709,2|0,0:3|0:2,0:2:0:0:
40,347,83816,2,0,L|161:328,1,100,10|0,1:2|0:2,0:2:0:0:
351,316,83983,2,0,L|292:307,1,44.999998626709,2|0,0:3|0:2,0:2:0:0:
232,140,84149,6,0,L|212:386,1,225.000008583069,2|0,1:2|0:2,0:2:0:0:
391,352,84483,2,0,L|316:342,1,75.0000028610231,10|2,1:3|0:3,0:2:0:0:
343,154,84650,1,2,0:3:0:0:
352,135,84733,1,2,0:3:0:0:
433,98,84817,6,0,P|353:143|437:181,1,225.000008583069,2|0,1:2|0:2,0:2:0:0:
256,99,85150,5,10,1:3:0:0:
198,64,85233,1,2,0:2:0:0:
134,89,85317,1,2,0:2:0:0:
66,89,85400,1,2,0:2:0:0:
8,53,85483,6,0,L|52:354,1,300,6|0,1:2|0:2,0:2:0:0:
72,283,85817,6,0,L|49:136,1,134.999995880127,10|0,1:3|0:2,0:2:0:0:
243,32,86150,6,0,L|198:329,1,300,2|0,1:2|0:2,0:2:0:0:
181,251,86483,6,0,L|204:104,1,134.999995880127,10|0,1:3|0:2,0:2:0:0:
379,105,86816,6,0,L|335:391,1,225.000008583069,2|0,1:3|0:2,0:2:0:0:
286,155,87149,6,0,L|272:45,1,100,10|0,1:2|0:2,0:2:0:0:
411,219,87316,1,2,0:3:0:0:
427,247,87399,1,2,0:3:0:0:
442,271,87483,2,0,L|456:161,1,100,2|0,1:2|0:2,0:2:0:0:
390,48,87649,2,0,L|383:93,1,44.999998626709,2|0,0:3|0:2,0:2:0:0:
225,326,87816,2,0,L|211:216,1,100,10|0,1:2|0:2,0:2:0:0:
290,119,87983,2,0,L|298:164,1,44.999998626709,2|0,0:3|0:2,0:2:0:0:
58,152,88149,6,0,B|36:200|36:200|75:312|75:312|59:363,1,225.000008583069,2|0,1:3|0:2,0:2:0:0:
197,316,88483,6,0,L|308:303,1,100,10|0,1:2|0:2,0:2:0:0:
171,189,88649,1,2,0:3:0:0:
141,155,88733,1,2,0:3:0:0:
162,120,88816,2,0,L|273:107,1,100,2|0,1:2|0:2,0:2:0:0:
351,197,88983,2,0,L|415:201,1,44.999998626709,2|0,0:3|0:2,0:2:0:0:
192,342,89149,2,0,L|303:329,1,100,10|0,1:2|0:2,0:2:0:0:
346,223,89316,2,0,L|410:227,1,44.999998626709,2|0,0:3|0:2,0:2:0:0:
496,348,89483,6,0,L|488:115,1,225.000008583069,2|0,1:2|0:2,0:2:0:0:
403,15,89816,2,0,L|395:103,1,75.0000028610231,10|2,1:2|0:3,0:2:0:0:
335,256,89983,1,2,0:3:0:0:
335,256,90066,1,2,0:3:0:0:
335,256,90149,6,0,P|265:300|273:182,1,225.000008583069,2|0,1:2|0:2,0:2:0:0:
287,53,90483,5,10,1:2:0:0:
229,18,90566,1,2,0:2:0:0:
165,43,90650,1,2,0:2:0:0:
97,43,90733,1,2,0:2:0:0:
39,7,90816,6,0,L|83:308,1,300,6|0,1:2|0:2,0:2:0:0:
115,323,91149,6,0,L|92:176,1,134.999995880127,10|0,1:3|0:2,0:2:0:0:
254,355,91483,6,0,L|492:166,1,300,2|0,1:2|0:2,0:2:0:0:
404,196,91816,6,0,L|288:289,1,134.999995880127,10|0,1:3|0:2,0:2:0:0:
407,118,92149,6,0,L|124:6,1,300,2|0,1:2|0:2,0:2:0:0:
157,155,92483,6,0,L|295:208,1,134.999995880127,10|0,1:3|0:2,0:2:0:0:
6,64,92816,6,0,L|50:364,1,300,2|0,1:2|0:2,0:2:0:0:
232,263,93150,6,0,L|209:116,1,134.999995880127,10|0,1:3|0:2,0:2:0:0:
404,347,93483,5,8,0:2:0:0:
109,231,93649,1,8,0:2:0:0:
378,257,93816,5,8,0:2:0:0:
139,342,93983,1,8,0:2:0:0:
450,169,94150,5,8,0:2:0:0:
99,85,94317,1,8,0:2:0:0:
438,75,94483,5,8,0:2:0:0:
87,194,94650,1,8,0:2:0:0:
417,348,94817,5,8,0:2:0:0:
379,324,94900,1,8,0:2:0:0:
360,284,94983,1,8,0:2:0:0:
363,240,95067,1,8,0:2:0:0:
390,203,95150,1,8,0:2:0:0:
431,186,95233,1,8,0:2:0:0:
476,193,95317,1,8,0:2:0:0:
507,225,95400,1,8,0:2:0:0:
512,285,95483,5,8,0:2:0:0:
467,231,95567,1,8,0:2:0:0:
402,201,95650,1,8,0:2:0:0:
332,204,95733,1,8,0:2:0:0:
269,238,95817,1,8,0:2:0:0:
226,293,95900,1,8,0:2:0:0:
160,322,95983,1,8,0:2:0:0:
90,319,96067,1,8,0:2:0:0:
27,285,96149,6,0,L|44:209,1,75,6|0,0:2|0:2,0:2:0:0:
51,184,96483,1,0,0:2:0:0:
229,273,96816,5,2,0:2:0:0:
301,338,96983,1,2,0:3:0:0:
339,163,97149,2,0,L|370:271,1,112.500004291535,2|0,0:2|0:2,0:2:0:0:
445,328,97483,2,0,P|481:311|501:268,1,75,2|0,0:2|0:2,0:2:0:0:
499,259,97816,1,0,0:2:0:0:
430,195,97983,1,2,0:3:0:0:
239,187,98316,5,2,0:2:0:0:
77,244,98483,1,2,0:3:0:0:
215,348,98649,1,2,0:2:0:0:
176,265,98816,6,0,P|163:243|158:202,1,50,2|0,0:2|0:2,0:2:0:0:
160,104,99149,2,0,P|154:63|133:34,1,75.0000028610231,2|0,0:2|0:2,0:2:0:0:
316,205,99483,2,0,L|355:112,1,100,2|0,0:2|0:2,0:2:0:0:
215,356,99816,2,0,L|175:264,1,100,2|0,0:2|0:2,0:2:0:0:
381,286,100149,5,2,0:2:0:0:
389,384,100316,1,2,0:3:0:0:
468,333,100483,1,2,0:2:0:0:
477,155,100649,2,0,P|451:202|464:261,1,100,2|0,0:2|0:2,0:2:0:0:
457,246,101149,1,0,0:2:0:0:
275,328,101483,6,0,L|182:319,1,75,2|0,0:2|0:2,0:2:0:0:
174,316,101817,1,0,0:2:0:0:
61,91,102149,5,2,0:2:0:0:
125,31,102316,1,2,0:3:0:0:
158,203,102483,2,0,L|180:93,1,112.500004291535,2|0,0:2|0:2,0:2:0:0:
264,32,102816,2,0,L|338:38,1,75,2|0,0:2|0:2,0:2:0:0:
366,40,103149,1,0,0:2:0:0:
294,131,103316,1,2,0:2:0:0:
466,327,103649,5,2,0:2:0:0:
438,166,103816,1,2,0:3:0:0:
313,284,103983,1,2,0:2:0:0:
407,259,104149,6,0,P|383:235|355:226,1,50,2|0,0:2|0:2,0:2:0:0:
260,363,104483,2,0,P|294:380|331:368,1,75.0000028610231,2|0,0:2|0:2,0:2:0:0:
208,244,104816,2,0,L|108:256,1,100,2|0,0:2|0:2,0:2:0:0:
312,92,105149,2,0,L|212:80,1,100,2|0,0:2|0:2,0:2:0:0:
479,242,105483,5,2,0:2:0:0:
392,195,105649,1,2,0:3:0:0:
400,293,105816,1,2,0:2:0:0:
453,57,105983,2,0,L|471:164,1,100,2|0,0:3|0:2,0:2:0:0:
470,155,106316,5,2,0:3:0:0:
386,122,106483,1,2,0:3:0:0:
317,181,106649,1,2,0:3:0:0:
462,334,106816,6,0,L|256:314,1,200,6|2,1:2|0:3,0:2:0:0:
115,195,107316,1,2,0:3:0:0:
220,384,107483,1,2,0:2:0:0:
293,211,107649,2,0,L|398:221,1,100,2|2,0:2|0:2,0:2:0:0:
201,273,107983,1,2,0:3:0:0:
98,359,108149,5,2,0:2:0:0:
15,199,108316,2,0,P|34:146|71:123,1,100,2|0,0:3|0:2,0:2:0:0:
254,217,108649,2,0,P|208:186|205:136,1,100,2|0,0:2|0:2,0:2:0:0:
224,18,108983,2,0,P|151:46|72:19,1,150,2|0,0:2|0:2,0:2:0:0:
60,13,109316,1,2,0:2:0:0:
283,95,109483,6,0,L|493:110,1,200,2|2,0:2|0:2,0:2:0:0:
397,202,109982,1,2,0:3:0:0:
354,8,110149,1,2,0:2:0:0:
200,120,110316,2,0,P|195:170|218:224,1,100,2|2,0:3|0:2,0:2:0:0:
299,344,110648,5,2,0:3:0:0:
366,246,110816,1,2,0:2:0:0:
467,361,110983,1,2,0:2:0:0:
484,175,111149,1,2,0:2:0:0:
293,69,111316,2,0,L|302:171,1,100,2|0,0:2|0:2,0:2:0:0:
168,135,111649,6,0,B|136:125|136:125|133:96|133:96|160:84|160:84|183:107,1,125,2|0,0:2|0:2,0:2:0:0:
418,105,111816,6,0,B|449:95|449:95|452:66|452:66|425:54|425:54|402:77,1,125,2|0,0:3|0:2,0:2:0:0:
310,302,111983,6,0,B|312:334|312:334|340:343|340:343|357:320|357:320|340:292,1,125,2|0,0:2|0:2,0:2:0:0:
240,222,112149,6,0,L|35:234,1,200,2|2,0:2|0:3,0:2:0:0:
179,122,112649,1,2,0:3:0:0:
107,326,112816,1,2,0:2:0:0:
23,136,112983,2,0,L|55:26,1,100,2|2,0:2|0:2,0:2:0:0:
104,213,113315,1,2,0:2:0:0:
194,112,113482,5,2,0:2:0:0:
266,355,113649,2,0,P|245:299|205:272,1,100,2|0,0:3|0:2,0:2:0:0:
349,324,113983,2,0,P|383:275|429:253,1,100,2|0,0:2|0:2,0:2:0:0:
305,193,114316,2,0,P|289:105|338:49,1,150,2|0,0:2|0:2,0:2:0:0:
346,47,114649,1,2,0:2:0:0:
112,149,114816,6,0,L|129:252,1,100,2|0,0:2|0:2,0:2:0:0:
214,356,115149,1,2,0:2:0:0:
345,245,115315,1,2,0:3:0:0:
312,354,115482,1,2,0:2:0:0:
227,237,115648,1,2,0:3:0:0:
408,330,115816,2,0,L|445:220,1,100,2|0,0:2|0:2,0:2:0:0:
486,363,116149,5,2,0:2:0:0:
486,363,116482,1,2,0:2:0:0:
317,274,116649,2,0,L|196:261,1,100,2|0,0:2|0:2,0:2:0:0:
382,195,116983,6,0,P|376:161|372:183,1,125,2|0,0:2|0:2,0:2:0:0:
154,173,117149,6,0,P|166:140|166:163,1,125,2|0,0:3|0:2,0:2:0:0:
230,351,117316,6,0,P|265:345|242:341,1,125,2|0,0:2|0:2,0:2:0:0:
252,220,117483,5,12,0:2:0:0:
186,82,117649,1,2,0:3:0:0:
450,104,117816,6,0,P|374:92|307:138,1,150.000005722046,10|0,0:2|0:2,0:2:0:0:
512,264,118149,1,10,0:2:0:0:
394,193,118316,1,2,0:3:0:0:
298,351,118482,2,0,P|235:344|180:267,1,150.000005722046,10|0,0:2|0:2,0:2:0:0:
295,205,118816,5,10,0:2:0:0:
289,221,118899,1,0,0:2:0:0:
285,237,118983,1,2,0:3:0:0:
169,167,119149,1,10,0:2:0:0:
63,332,119316,2,0,P|150:327|185:267,1,150.000005722046,2|8,0:3|0:2,0:2:0:0:
38,151,119649,1,2,0:3:0:0:
63,188,119733,1,0,0:2:0:0:
87,225,119816,1,10,0:2:0:0:
100,230,120149,5,10,0:2:0:0:
220,146,120316,1,2,0:3:0:0:
36,16,120483,2,0,P|104:6|184:48,1,150.000005722046,10|0,0:2|0:2,0:2:0:0:
79,153,120816,1,10,0:2:0:0:
82,140,120899,1,0,0:2:0:0:
84,128,120983,1,2,0:3:0:0:
177,248,121149,1,10,0:2:0:0:
257,129,121316,1,2,0:3:0:0:
160,258,121483,6,0,P|107:259|66:223,1,100,10|0,0:2|0:2,0:2:0:0:
252,275,121816,2,0,P|296:295|344:283,1,100,10|0,0:2|0:2,0:2:0:0:
301,119,122149,2,0,B|282:172|318:164|301:215,1,100,10|0,0:2|0:2,0:2:0:0:
172,96,122483,2,0,B|169:152|138:132|135:185,1,100,10|0,0:2|0:2,0:2:0:0:
246,47,122816,5,10,0:2:0:0:
221,210,122983,1,2,0:3:0:0:
385,101,123149,2,0,P|437:157|504:143,1,150.000005722046,10|0,0:2|0:2,0:2:0:0:
314,140,123482,1,10,0:2:0:0:
460,75,123649,1,2,0:3:0:0:
253,27,123816,2,0,P|181:17|119:63,1,150.000005722046,10|0,0:2|0:2,0:2:0:0:
216,177,124149,5,10,0:2:0:0:
211,160,124232,1,0,0:2:0:0:
208,145,124316,1,2,0:3:0:0:
88,184,124482,1,10,0:2:0:0:
223,356,124649,2,0,P|310:351|345:291,1,150.000005722046,2|8,0:3|0:2,0:2:0:0:
216,177,124982,1,2,0:3:0:0:
234,216,125066,1,0,0:2:0:0:
254,254,125149,1,10,0:2:0:0:
263,259,125482,5,10,0:2:0:0:
407,254,125649,1,2,0:3:0:0:
363,33,125816,2,0,P|300:79|295:155,1,150.000005722046,10|0,0:2|0:2,0:2:0:0:
437,137,126149,1,10,0:2:0:0:
425,135,126233,1,0,0:2:0:0:
412,132,126316,1,2,0:3:0:0:
509,233,126482,1,10,0:2:0:0:
349,200,126649,1,2,0:3:0:0:
205,364,126816,6,0,P|144:331|116:274,1,100,14|0,0:2|0:2,0:2:0:0:
86,20,127149,2,0,P|146:52|174:109,1,100,10|0,0:2|0:2,0:2:0:0:
42,226,127483,2,0,B|46:184|42:144|84:117,1,100,14|0,0:2|0:2,0:2:0:0:
236,173,127816,2,0,B|231:214|235:254|193:281,1,100,10|0,0:2|0:2,0:2:0:0:
427,48,128149,6,0,B|387:98|387:98|380:152,1,119.999996337891,14|0,0:2|0:2,0:2:0:0:
377,366,128483,2,0,B|355:305|355:305|365:248,1,119.999996337891,10|0,0:2|0:2,0:2:0:0:
221,71,128816,2,0,B|171:9|151:69|80:33,1,119.999996337891,10|0,0:2|0:2,0:2:0:0:
213,281,129149,2,0,B|146:324|146:261|67:273,1,119.999996337891,10|0,0:2|0:2,0:2:0:0:
370,159,129483,5,10,0:2:0:0:
353,128,129566,1,0,0:2:0:0:
335,98,129649,1,0,0:2:0:0:
461,202,129816,2,0,P|399:261|334:251,1,150.000005722046,10|0,0:2|0:2,0:2:0:0:
232,114,130149,1,10,0:2:0:0:
192,246,130316,1,0,0:2:0:0:
192,246,130399,1,0,0:2:0:0:
192,246,130483,2,0,L|208:333,1,75.0000028610231,10|0,0:2|0:2,0:2:0:0:
84,285,130649,2,0,L|70:211,1,75.0000028610231,0|0,0:2|0:2,0:2:0:0:
110,93,130816,6,0,P|123:64|127:96,1,85.0000016212464,14|0,0:2|0:2,0:2:0:0:
216,148,130983,2,0,P|229:177|233:145,1,85.0000016212464,0|0,0:2|0:2,0:2:0:0:
318,86,131149,2,0,P|331:57|335:89,1,85.0000016212464,10|0,0:2|0:2,0:2:0:0:
424,141,131316,2,0,P|437:170|441:138,1,85.0000016212464,0|0,0:2|0:2,0:2:0:0:
335,235,131483,6,0,P|306:248|338:252,1,85.0000016212464,10|0,0:2|0:2,0:2:0:0:
216,148,131649,2,0,P|229:177|233:145,1,85.0000016212464,0|0,0:2|0:2,0:2:0:0:
117,209,131816,2,0,P|113:240|99:211,1,85.0000016212464,10|0,0:2|0:2,0:2:0:0:
221,316,131982,2,0,P|189:312|218:298,1,85.0000016212464,0|0,0:2|0:2,0:2:0:0:
349,223,132149,6,0,B|368:227|368:227|381:249|381:249|359:263|359:263|338:252,1,94.9999974632264,10|0,0:2|0:2,0:2:0:0:
458,176,132316,2,0,B|477:172|477:172|490:150|490:150|468:136|468:136|447:147,1,94.9999974632264,0|0,0:2|0:2,0:2:0:0:
495,271,132483,2,0,B|516:260|516:260|538:274|538:274|525:296|525:296|506:300,1,94.9999974632264,10|0,0:2|0:2,0:2:0:0:
386,376,132650,2,0,B|407:387|407:387|429:373|429:373|416:351|416:351|397:347,1,94.9999974632264,0|0,0:2|0:2,0:2:0:0:
313,293,132816,6,0,B|294:289|294:289|281:267|281:267|303:253|303:253|324:264,1,94.9999974632264,10|0,0:2|0:2,0:2:0:0:
209,194,132983,2,0,B|228:190|228:190|241:168|241:168|219:154|219:154|198:165,1,94.9999974632264,0|0,0:2|0:2,0:2:0:0:
126,281,133149,2,0,B|107:277|107:277|94:255|94:255|116:241|116:241|137:252,1,94.9999974632264,10|0,0:2|0:2,0:2:0:0:
22,182,133316,2,0,B|41:178|41:178|54:156|54:156|32:142|32:142|11:153,1,94.9999974632264,0|0,0:2|0:2,0:2:0:0:
123,82,133483,6,0,B|173:20|193:80|238:53,1,104.999996795654,14|0,0:2|0:2,0:2:0:0:
379,106,133649,2,0,B|330:167|310:107|287:127,1,104.999996795654,0|0,0:2|0:2,0:2:0:0:
118,64,133816,6,0,B|168:2|188:62|233:35,1,104.999996795654,10|0,0:2|0:2,0:2:0:0:
374,88,133982,2,0,B|324:148|304:88|281:108,1,104.999996795654,0|0,0:2|0:2,0:2:0:0:
196,182,134149,6,0,B|158:252|221:247|214:299,1,115.000002193451,10|0,0:2|0:2,0:2:0:0:
328,376,134315,2,0,B|366:305|303:310|313:273,1,115.000002193451,0|0,0:2|0:2,0:2:0:0:
183,170,134483,6,0,B|145:240|208:235|201:287,1,115.000002193451,10|0,0:2|0:2,0:2:0:0:
315,364,134649,2,0,B|352:293|289:298|299:260,1,115.000002193451,0|0,0:2|0:2,0:2:0:0:
240,67,134816,6,0,P|288:43|353:63,1,125,14|0,0:2|0:2,0:2:0:0:
433,140,134983,2,0,P|458:84|445:24,1,125,0|0,0:2|0:2,0:2:0:0:
477,229,135149,6,0,P|416:237|365:203,1,125,10|0,0:2|0:2,0:2:0:0:
286,143,135316,2,0,P|273:202|298:258,1,125,0|0,0:2|0:2,0:2:0:0:
383,363,135483,6,0,P|326:334|252:364,1,135.000000514984,10|0,0:2|0:2,0:2:0:0:
155,375,135649,2,0,P|131:327|156:244,1,135.000000514984,0|0,0:2|0:2,0:2:0:0:
205,157,135816,6,0,P|157:133|74:158,1,135.000000514984,10|0,0:2|0:2,0:2:0:0:
10,235,135982,2,0,P|-15:174|5:112,1,135.000000514984,0|0,0:2|0:2,0:2:0:0:
126,54,136149,6,0,L|148:197,1,145.000004425049,14|0,0:2|0:2,0:2:0:0:
190,274,136316,6,0,L|168:131,1,145.000004425049,2|0,0:3|0:2,0:2:0:0:
205,69,136483,6,0,L|227:212,1,145.000004425049,10|0,0:2|0:2,0:2:0:0:
277,273,136650,6,0,L|254:129,1,145.000004425049,2|0,0:3|0:2,0:2:0:0:
288,62,136816,6,0,L|310:205,1,145.000004425049,10|0,0:2|0:2,0:2:0:0:
390,280,136983,6,0,L|367:136,1,145.000004425049,2|0,0:3|0:2,0:2:0:0:
398,44,137149,6,0,L|420:187,1,145.000004425049,10|0,0:2|0:2,0:2:0:0:
503,243,137316,6,0,L|481:100,1,145.000004425049,2|0,0:3|0:2,0:2:0:0:
503,0,137483,5,4,1:2:0:0:
503,49,138816,6,0,P|430:24|385:104,1,179.999994506836,2|0,1:2|0:2,0:2:0:0:
512,48,139150,6,0,P|456:12|390:51,1,150,2|0,0:3|0:2,0:2:0:0:
414,212,139483,6,0,P|341:237|296:157,1,179.999994506836,2|0,1:2|0:2,0:2:0:0:
423,213,139817,6,0,P|367:249|301:210,1,150,2|0,0:3|0:2,0:2:0:0:
496,143,140149,6,0,B|529:171|529:209|480:236|480:266|517:322,1,179.999994506836,2|0,1:3|0:2,0:2:0:0:
291,290,140483,6,0,L|308:210,1,59.9999981689454,2|0,0:2|0:2,0:2:0:0:
374,312,140650,2,0,L|385:375,1,50,2|0,0:3|0:2,0:2:0:0:
230,194,140816,2,0,L|217:118,1,59.9999981689454,2|0,1:2|0:2,0:2:0:0:
157,243,140983,2,0,L|145:300,1,50,2|0,0:3|0:2,0:2:0:0:
63,201,141149,5,2,0:3:0:0:
62,177,141233,1,2,0:3:0:0:
60,152,141315,1,2,0:2:0:0:
60,126,141399,1,2,0:2:0:0:
58,101,141482,6,0,L|66:273,1,150,2|0,1:3|0:2,0:2:0:0:
208,266,141816,6,0,L|277:260,1,59.9999981689454,2|0,1:3|0:2,0:2:0:0:
353,155,141983,2,0,L|415:161,1,50,2|0,0:2|0:2,0:2:0:0:
206,95,142149,2,0,L|281:102,1,59.9999981689454,2|0,1:3|0:2,0:2:0:0:
346,186,142316,2,0,L|402:190,1,50,2|0,0:2|0:2,0:2:0:0:
397,71,142483,5,2,1:3:0:0:
421,75,142566,1,2,0:3:0:0:
445,80,142649,1,2,0:2:0:0:
469,84,142733,1,2,0:2:0:0:
498,89,142816,6,0,L|310:55,1,179.999994506836,2|0,1:2|0:2,0:2:0:0:
356,32,143150,6,0,L|479:54,1,112.500004291535,2|0,1:3|0:2,0:2:0:0:
339,173,143483,5,2,1:2:0:0:
342,201,143566,1,0,1:2:0:0:
345,240,143649,1,0,1:2:0:0:
350,286,143733,1,0,1:2:0:0:
357,346,143816,6,0,L|332:117,1,209.999993591309,2|0,0:3|0:2,0:2:0:0:
238,47,144149,6,0,B|162:19|120:62|133:158|81:196|-3:145,1,300,6|0,1:2|0:2,0:2:0:0:
28,25,144483,2,0,L|44:83,1,44.999998626709,10|0,1:3|0:2,0:2:0:0:
139,236,144649,1,0,0:2:0:0:
132,272,144733,1,0,0:2:0:0:
119,317,144816,6,0,B|182:367|235:339|253:243|314:223|378:298,1,300,2|0,1:2|0:2,0:2:0:0:
492,206,145149,2,0,L|502:91,1,89.9999972534181,10|0,1:3|0:2,0:2:0:0:
429,7,145399,1,0,0:2:0:0:
406,26,145483,6,0,L|164:32,1,225.000008583069,2|0,1:3|0:2,0:2:0:0:
42,210,145816,6,0,L|26:94,1,100,10|0,1:2|0:2,0:2:0:0:
185,123,145983,1,2,0:3:0:0:
175,151,146066,1,2,0:3:0:0:
166,180,146149,2,0,L|282:193,1,100,2|0,1:2|0:2,0:2:0:0:
438,275,146316,2,0,L|510:270,1,44.999998626709,2|0,0:3|0:2,0:2:0:0:
260,223,146483,2,0,L|160:211,1,100,10|0,1:2|0:2,0:2:0:0:
437,298,146649,2,0,L|509:303,1,44.999998626709,2|0,0:3|0:2,0:2:0:0:
347,367,146816,6,0,B|331:316|331:316|370:204|370:204|344:145,1,225.000008583069,2|0,1:3|0:2,0:2:0:0:
258,38,147149,6,0,L|138:23,1,100,10|0,1:2|0:2,0:2:0:0:
58,142,147316,1,2,0:3:0:0:
41,164,147399,1,2,0:3:0:0:
23,185,147483,2,0,L|8:87,1,100,2|0,1:2|0:2,0:2:0:0:
192,176,147649,2,0,L|200:120,1,44.999998626709,2|0,0:3|0:2,0:2:0:0:
139,283,147816,2,0,L|238:270,1,100,10|0,1:2|0:2,0:2:0:0:
161,174,147983,2,0,L|169:118,1,44.999998626709,2|0,0:3|0:2,0:2:0:0:
399,357,148149,6,0,L|358:109,1,225.000008583069,2|0,1:2|0:2,0:2:0:0:
276,18,148483,5,10,1:2:0:0:
242,0,148566,1,2,0:3:0:0:
202,6,148649,1,2,0:3:0:0:
183,39,148732,1,2,0:3:0:0:
249,99,148816,6,0,P|186:31|278:21,1,225.000008583069,2|0,1:2|0:2,0:2:0:0:
279,239,149149,5,10,1:2:0:0:
221,204,149232,1,2,0:2:0:0:
155,239,149316,1,2,0:2:0:0:
81,227,149399,1,2,0:2:0:0:
1,251,149483,6,0,L|300:226,1,300,6|0,1:2|0:2,0:2:0:0:
216,204,149816,6,0,L|67:216,1,134.999995880127,10|0,1:3|0:2,0:2:0:0:
214,352,150149,6,0,L|513:327,1,300,2|0,1:2|0:2,0:2:0:0:
427,304,150483,6,0,L|275:317,1,134.999995880127,10|0,1:3|0:2,0:2:0:0:
66,112,150816,6,0,L|302:128,1,225.000008583069,2|0,1:3|0:2,0:2:0:0:
473,209,151149,6,0,L|489:98,1,100,10|0,1:2|0:2,0:2:0:0:
366,248,151316,1,2,0:3:0:0:
369,271,151399,1,2,0:3:0:0:
373,295,151483,2,0,L|322:204,1,100,2|0,1:2|0:2,0:2:0:0:
180,174,151649,2,0,L|135:213,1,44.999998626709,2|0,0:3|0:2,0:2:0:0:
277,90,151816,2,0,L|323:-6,1,100,10|0,1:2|0:2,0:2:0:0:
229,299,151983,2,0,L|184:338,1,44.999998626709,2|0,0:3|0:2,0:2:0:0:
25,383,152149,6,0,B|-10:337|-8:295|53:274|68:226|24:175,1,225.000008583069,2|0,1:3|0:2,0:2:0:0:
85,26,152483,6,0,L|196:13,1,100,10|0,1:3|0:2,0:2:0:0:
315,83,152649,1,2,0:2:0:0:
285,117,152733,1,2,0:2:0:0:
306,152,152816,2,0,L|417:165,1,100,2|0,1:3|0:2,0:2:0:0:
188,209,152983,2,0,L|124:213,1,44.999998626709,2|0,0:2|0:2,0:2:0:0:
307,313,153149,2,0,L|418:300,1,100,10|0,1:3|0:2,0:2:0:0:
193,235,153316,2,0,L|129:239,1,44.999998626709,2|0,0:2|0:2,0:2:0:0:
30,351,153483,6,0,B|-12:297|-9:259|48:224|55:190|31:134,1,225.000008583069,2|0,1:2|0:2,0:2:0:0:
136,99,153816,5,10,1:2:0:0:
170,118,153899,1,2,0:3:0:0:
209,113,153982,1,2,0:3:0:0:
230,80,154065,1,2,0:3:0:0:
161,16,154149,6,0,P|224:82|134:99,1,225.000008583069,2|0,1:2|0:2,0:2:0:0:
237,204,154483,5,10,1:2:0:0:
295,239,154566,1,2,0:2:0:0:
359,214,154650,1,2,0:2:0:0:
427,214,154733,1,2,0:2:0:0:
485,250,154816,6,0,L|190:167,1,300,6|0,1:2|0:2,0:2:0:0:
275,161,155149,6,0,L|414:198,1,134.999995880127,10|0,1:3|0:2,0:2:0:0:
0,150,155483,6,0,L|189:388,1,300,2|0,1:2|0:2,0:2:0:0:
159,300,155816,6,0,L|66:184,1,134.999995880127,10|0,1:3|0:2,0:2:0:0:
368,378,156149,6,0,L|480:95,1,300,2|0,1:2|0:2,0:2:0:0:
331,128,156483,6,0,L|278:266,1,134.999995880127,10|0,1:3|0:2,0:2:0:0:
303,39,156816,6,0,L|8:122,1,300,2|0,1:2|0:2,0:2:0:0:
144,284,157149,6,0,L|283:247,1,134.999995880127,10|0,1:3|0:2,0:2:0:0:
450,79,157483,5,0,1:2:0:0:
367,310,157649,1,8,1:2:0:0:
333,61,157816,5,0,1:2:0:0:
445,344,157983,1,8,1:2:0:0:
241,50,158150,5,0,1:2:0:0:
93,350,158317,1,8,1:2:0:0:
88,27,158483,5,0,1:2:0:0:
257,366,158650,1,8,1:2:0:0:
423,19,158816,5,0,1:2:0:0:
384,15,158899,1,0,1:2:0:0:
346,36,158982,1,8,1:2:0:0:
330,74,159066,1,0,1:2:0:0:
334,113,159149,1,0,1:2:0:0:
366,143,159232,1,0,1:2:0:0:
404,152,159316,1,8,1:2:0:0:
442,138,159399,1,0,1:2:0:0:
389,182,159482,5,0,1:2:0:0:
349,247,159566,1,0,1:2:0:0:
354,324,159649,1,8,1:2:0:0:
301,380,159732,1,0,1:2:0:0:
223,378,159816,1,0,1:2:0:0:
173,321,159899,1,0,1:2:0:0:
173,246,159982,1,8,1:2:0:0:
230,195,160066,1,0,1:2:0:0:
304,194,160149,5,6,0:2:0:0:
68,77,160483,2,0,L|103:207,1,119.999996337891,8|0,0:2|3:2,0:2:0:0:
203,28,160816,5,10,0:2:0:0:
223,170,160983,1,2,3:2:0:0:
407,149,161149,2,0,L|299:246,1,139.999995727539,10|0,0:2|3:2,0:2:0:0:
374,50,161483,6,0,P|413:46|484:113,1,119.999996337891,8|0,0:2|3:2,0:2:0:0:
477,101,161816,1,8,0:2:0:0:
433,320,161983,2,0,L|372:195,1,119.999996337891,2|8,3:2|0:2,0:2:0:0:
291,50,162316,5,2,3:2:0:0:
291,50,162399,1,0,3:2:0:0:
291,50,162483,2,0,L|279:141,1,69.9999978637696,10|0,0:2|0:2,0:2:0:0:
213,237,162649,2,0,L|201:146,1,69.9999978637696,2|0,3:2|0:2,0:2:0:0:
120,69,162816,6,0,L|102:223,1,139.999995727539,10|0,0:2|3:2,0:2:0:0:
219,365,163149,2,0,L|202:232,1,119.999996337891,10|0,0:2|3:2,0:2:0:0:
449,277,163483,2,0,L|278:291,1,160,10|0,0:2|3:2,0:2:0:0:
337,27,163816,2,0,L|360:211,1,160,10|0,0:2|3:2,0:2:0:0:
376,365,164149,5,10,0:2:0:0:
468,276,164316,1,2,3:2:0:0:
368,192,164483,1,10,0:2:0:0:
192,267,164649,2,0,L|297:284,1,100,2|0,3:2|3:2,0:2:0:0:
290,282,165149,1,8,0:2:0:0:
35,351,165483,5,10,0:2:0:0:
195,259,165650,2,0,L|50:271,1,119.999996337891,2|8,0:3|0:2,0:2:0:0:
203,154,165983,1,2,0:3:0:0:
136,359,166149,1,10,0:2:0:0:
29,160,166316,1,2,0:3:0:0:
206,268,166483,2,0,P|255:276|324:236,1,119.999996337891,10|0,0:2|0:2,0:2:0:0:
225,115,166816,5,10,0:2:0:0:
425,234,166983,2,0,P|447:178|496:145,1,119.999996337891,2|8,0:3|0:2,0:2:0:0:
310,135,167316,2,0,P|287:68|238:33,1,119.999996337891,2|8,0:3|0:2,0:2:0:0:
277,309,167650,2,0,P|347:368|426:337,1,179.999994506836,2|0,0:3|0:2,0:2:0:0:
432,326,167983,1,2,0:3:0:0:
251,172,168150,5,10,0:2:0:0:
112,285,168316,2,0,L|123:145,1,119.999996337891,2|8,0:3|0:2,0:2:0:0:
209,365,168649,1,2,0:3:0:0:
0,211,168816,1,10,0:2:0:0:
251,172,168982,1,2,0:3:0:0:
382,347,169149,6,0,P|445:350|501:300,1,119.999996337891,10|0,0:2|0:2,0:2:0:0:
327,230,169483,1,10,0:2:0:0:
512,124,169649,1,2,0:3:0:0:
322,34,169816,1,10,0:2:0:0:
423,178,169983,2,0,L|412:39,1,119.999996337891,2|8,0:3|0:2,0:2:0:0:
248,349,170316,6,0,B|210:335|213:301|213:301|243:295|263:329,1,125,2|0,3:3|0:2,0:2:0:0:
467,384,170483,6,0,B|429:370|432:336|432:336|462:330|482:364,1,125,10|0,0:2|0:2,0:2:0:0:
420,171,170649,6,0,B|389:146|401:118|401:118|435:121|442:160,1,125,2|0,3:3|0:2,0:2:0:0:
250,156,170816,6,0,L|215:41,1,119.999996337891,14|0,0:2|0:2,0:2:0:0:
104,319,171149,2,0,L|139:204,1,119.999996337891,10|0,0:2|0:2,0:2:0:0:
344,326,171483,2,0,L|227:272,1,119.999996337891,10|0,0:2|0:2,0:2:0:0:
28,52,171816,2,0,L|145:106,1,119.999996337891,10|0,0:2|0:2,0:2:0:0:
430,128,172149,6,0,P|382:54|407:-7,1,150.000005722046,10|0,0:2|0:2,0:2:0:0:
512,185,172483,2,0,P|439:231|377:208,1,150.000005722046,10|0,0:2|0:2,0:2:0:0:
276,114,172815,1,10,0:2:0:0:
188,259,172982,1,0,0:2:0:0:
188,259,173065,1,0,0:2:0:0:
188,259,173149,2,0,L|204:172,1,75.0000028610231,10|0,0:2|0:2,0:2:0:0:
318,319,173315,2,0,L|304:245,1,75.0000028610231,0|0,0:2|0:2,0:2:0:0:
234,38,173483,6,0,B|216:70|216:70|244:41,1,75.0000028610231,14|0,0:2|0:2,0:2:0:0:
137,48,173649,2,0,B|119:80|119:80|147:51,1,75.0000028610231,0|0,0:2|0:2,0:2:0:0:
128,150,173816,2,0,B|110:182|110:182|138:153,1,75.0000028610231,10|0,0:2|0:2,0:2:0:0:
31,160,173982,2,0,B|13:192|13:192|41:163,1,75.0000028610231,0|0,0:2|0:2,0:2:0:0:
128,150,174149,6,0,B|110:182|110:182|136:154,1,75.0000028610231,10|0,0:2|0:2,0:2:0:0:
137,48,174316,2,0,B|119:80|119:80|145:52,1,75.0000028610231,0|0,0:2|0:2,0:2:0:0:
234,38,174482,2,0,B|216:70|216:70|242:42,1,75.0000028610231,10|0,0:2|0:2,0:2:0:0:
240,145,174649,2,0,B|222:177|222:177|248:149,1,75.0000028610231,0|0,0:2|0:2,0:2:0:0:
341,88,174816,6,0,P|371:65|359:105,1,94.9999974632264,10|0,0:2|0:2,0:2:0:0:
308,207,174983,2,0,P|338:230|326:190,1,94.9999974632264,0|0,0:2|0:2,0:2:0:0:
469,176,175149,2,0,P|439:153|451:193,1,94.9999974632264,10|0,0:2|0:2,0:2:0:0:
502,295,175316,2,0,P|472:318|484:278,1,94.9999974632264,0|0,0:2|0:2,0:2:0:0:
337,341,175483,6,0,P|360:311|320:323,1,94.9999974632264,10|0,0:2|0:2,0:2:0:0:
218,374,175650,2,0,P|195:344|235:356,1,94.9999974632264,0|0,0:2|0:2,0:2:0:0:
76,321,175816,2,0,P|38:328|67:297,1,94.9999974632264,10|0,0:2|0:2,0:2:0:0:
157,228,175983,2,0,P|140:194|133:235,1,94.9999974632264,0|0,0:2|0:2,0:2:0:0:
55,147,176149,6,0,B|51:166|51:166|25:184|25:184|11:159|11:159|29:127,1,104.999996795654,14|0,0:2|0:2,0:2:0:0:
70,58,176316,2,0,B|74:39|74:39|100:21|100:21|114:46|114:46|96:78,1,104.999996795654,0|0,0:2|0:2,0:2:0:0:
67,152,176483,6,0,B|63:171|63:171|37:189|37:189|23:164|23:164|41:132,1,104.999996795654,10|0,0:2|0:2,0:2:0:0:
82,63,176650,2,0,B|86:44|86:44|112:26|112:26|126:51|126:51|108:83,1,104.999996795654,0|0,0:2|0:2,0:2:0:0:
205,165,176816,6,0,P|170:142|221:115,1,115.000002193451,10|0,0:2|0:2,0:2:0:0:
327,66,176983,2,0,P|361:88|310:118,1,115.000002193451,0|0,0:2|0:2,0:2:0:0:
216,177,177149,6,0,P|181:154|232:127,1,115.000002193451,10|0,0:2|0:2,0:2:0:0:
338,78,177316,2,0,P|372:100|321:130,1,115.000002193451,0|0,0:2|0:2,0:2:0:0:
221,264,177483,6,0,P|248:312|327:305,1,125,14|0,0:2|0:2,0:2:0:0:
420,246,177650,2,0,P|387:199|313:211,1,125,0|0,0:2|0:2,0:2:0:0:
382,93,177816,6,0,P|373:31|431:0,1,125,10|0,0:2|0:2,0:2:0:0:
512,65,177983,2,0,P|522:125|464:165,1,125,0|0,0:2|0:2,0:2:0:0:
303,123,178149,6,0,P|245:86|195:118,1,135.000000514984,10|0,0:2|0:2,0:2:0:0:
111,192,178316,2,0,P|76:136|100:74,1,135.000000514984,0|0,0:2|0:2,0:2:0:0:
241,216,178483,6,0,P|274:272|253:334,1,135.000000514984,10|0,0:2|0:2,0:2:0:0:
65,300,178649,2,0,P|123:270|185:290,1,135.000000514984,0|0,0:2|0:2,0:2:0:0:
422,371,178816,6,0,L|354:229,1,145.000004425049,14|0,0:2|0:2,0:2:0:0:
362,15,178983,6,0,L|398:172,1,145.000004425049,2|0,0:3|0:2,0:2:0:0:
394,378,179149,6,0,L|353:227,1,145.000004425049,10|0,0:2|0:2,0:2:0:0:
392,11,179316,6,0,L|401:172,1,145.000004425049,2|0,0:3|0:2,0:2:0:0:
367,379,179483,6,0,L|352:223,1,145.000004425049,10|0,0:2|0:2,0:2:0:0:
419,12,179650,6,0,L|399:172,1,145.000004425049,2|0,0:3|0:2,0:2:0:0:
340,371,179816,6,0,L|352:214,1,145.000004425049,10|0,0:2|0:2,0:2:0:0:
445,21,179983,6,0,L|398:176,1,145.000004425049,2|0,0:3|0:2,0:2:0:0:
276,181,180149,5,4,1:2:0:0:
276,181,181483,6,0,P|203:206|158:126,1,179.999994506836,2|0,0:2|0:2,0:2:0:0:
285,184,181817,6,0,P|245:215|179:202,1,112.500004291535,2|0,0:3|0:3,0:3:0:0:
360,256,182150,6,0,P|433:281|478:201,1,179.999994506836,2|0,0:2|0:2,0:2:0:0:
351,257,182484,6,0,P|395:293|455:280,1,112.500004291535,2|0,0:3|0:2,0:2:0:0:
387,171,182816,6,0,B|354:143|354:105|403:78|403:48|366:-8,1,179.999994506836,2|0,0:3|0:2,0:2:0:0:
295,45,183149,6,0,L|215:28,1,59.9999981689454,2|0,0:3|0:2,0:2:0:0:
275,70,183317,2,0,L|212:59,1,50,2|0,0:2|0:2,0:2:0:0:
453,111,183483,2,0,L|529:98,1,59.9999981689454,2|0,0:3|0:2,0:2:0:0:
461,141,183650,2,0,L|518:129,1,50,2|0,0:2|0:2,0:2:0:0:
301,200,183816,5,2,0:3:0:0:
277,197,183900,1,2,0:3:0:0:
252,194,183982,1,2,0:2:0:0:
226,191,184066,1,2,0:2:0:0:
127,204,184149,6,0,B|288:220,1,150.000005722046,4|0,1:2|0:2,0:2:0:0:
383,348,184399,1,0,0:2:0:0:
416,363,184483,2,0,L|520:335,1,100,10|0,1:3|0:2,0:2:0:0:
230,326,184649,2,0,L|154:318,1,75.0000028610231,2|0,0:2|0:2,0:2:0:0:
388,244,184816,2,0,L|455:157,1,100,2|0,1:3|0:2,0:2:0:0:
304,102,184983,2,0,L|305:-3,1,100,2|0,0:2|0:2,0:2:0:0:
236,166,185149,5,10,1:3:0:0:
178,201,185233,1,2,0:3:0:0:
114,176,185316,1,2,0:2:0:0:
46,176,185399,1,2,0:2:0:0:
0,232,185483,6,0,L|19:339,1,100,2|0,1:2|0:2,0:2:0:0:
76,104,185649,2,0,L|59:3,1,100,2|0,0:3|0:2,0:2:0:0:
109,348,185816,2,0,L|122:266,1,75.0000028610231,10|0,1:3|0:2,0:2:0:0:
292,116,185983,2,0,L|309:17,1,100,2|0,0:3|0:2,0:2:0:0:
292,225,186149,2,0,L|275:327,1,100,2|0,1:2|0:2,0:2:0:0:
259,115,186316,2,0,L|278:16,1,100,2|0,0:2|0:2,0:2:0:0:
429,361,186483,2,0,P|478:291|440:236,1,150.000005722046,10|0,1:3|0:2,0:2:0:0:
399,68,186733,1,0,0:2:0:0:
362,96,186816,6,0,P|461:148|450:9,1,300,6|0,1:2|0:2,0:2:0:0:
249,198,187149,5,10,1:2:0:0:
194,190,187233,1,2,0:3:0:0:
137,183,187315,1,2,0:3:0:0:
78,177,187399,1,2,0:3:0:0:
1,135,187483,6,0,L|25:23,1,100,2|0,1:2|0:2,0:2:0:0:
190,71,187649,2,0,L|276:21,1,100,2|0,0:3|0:3,0:3:0:0:
371,196,187816,2,0,L|274:182,1,75.0000028610231,10|0,1:3|0:2,0:2:0:0:
205,341,187983,1,0,0:2:0:0:
248,348,188066,1,0,0:2:0:0:
282,355,188149,6,0,L|175:336,1,100,2|0,1:2|0:2,0:2:0:0:
410,279,188315,2,0,L|511:296,1,100,2|0,0:3|0:2,0:2:0:0:
240,234,188482,2,0,L|166:246,1,75.0000028610231,10|0,1:2|0:2,0:2:0:0:
497,46,188649,2,0,L|398:63,1,100,2|0,0:3|0:2,0:2:0:0:
174,99,188815,2,0,L|276:82,1,100,2|0,1:2|0:2,0:2:0:0:
499,76,188982,2,0,L|400:95,1,100,2|0,0:3|0:2,0:2:0:0:
259,152,189149,5,8,1:2:0:0:
224,155,189232,1,2,0:3:0:0:
187,157,189316,1,2,0:3:0:0:
148,159,189399,1,2,0:3:0:0:
97,169,189483,6,0,L|122:273,1,100,2|0,1:3|0:2,0:2:0:0:
130,91,189649,2,0,L|65:14,1,100,2|0,0:3|0:2,0:2:0:0:
263,332,189816,2,0,L|244:250,1,75.0000028610231,10|0,1:2|0:2,0:2:0:0:
286,88,189983,2,0,L|350:11,1,100,2|0,0:3|0:2,0:2:0:0:
337,271,190149,2,0,L|401:347,1,100,2|0,1:2|0:2,0:2:0:0:
261,77,190316,2,0,L|196:0,1,100,2|2,0:3|0:3,0:2:0:0:
406,91,190483,6,0,L|505:117,1,75.0000028610231,10|0,1:3|0:2,0:2:0:0:
236,160,190649,2,0,L|131:168,1,100,2|0,0:2|0:2,0:2:0:0:
426,229,190816,2,0,L|498:316,1,100,2|0,1:3|0:2,0:2:0:0:
223,282,190983,2,0,L|156:363,1,100,2|0,0:2|0:2,0:2:0:0:
318,227,191149,5,10,1:3:0:0:
357,167,191232,1,2,0:2:0:0:
320,104,191316,1,2,0:2:0:0:
338,34,191399,1,2,0:2:0:0:
393,0,191483,6,0,L|274:12,1,100,2|0,1:2|0:2,0:2:0:0:
101,76,191649,2,0,L|36:-1,1,100,2|0,0:2|0:2,0:2:0:0:
238,134,191816,2,0,L|224:254,1,100,14|0,1:2|0:2,0:2:0:0:
44,166,191983,1,2,0:3:0:0:
33,81,192066,1,2,0:3:0:0:
36,0,192149,6,0,L|118:95,1,110.000003356934,6|0,1:2|0:2,0:2:0:0:
393,0,192316,2,0,L|283:11,1,110.000003356934,2|0,0:2|0:2,0:2:0:0:
238,149,192482,2,0,L|223:275,1,110.000003356934,14|0,1:2|0:2,0:2:0:0:
311,350,192649,6,0,L|402:363,1,75.0000028610231,2|0,0:3|0:2,0:2:0:0:
62,334,192816,2,0,L|164:319,1,100,2|0,1:2|0:2,0:2:0:0:
333,189,192983,2,0,L|432:172,1,100,2|0,0:3|0:2,0:2:0:0:
162,136,193149,2,0,L|70:152,1,75.0000028610231,10|0,1:2|0:2,0:2:0:0:
339,225,193316,2,0,L|438:206,1,100,2|0,0:3|0:2,0:2:0:0:
167,116,193483,6,0,L|186:9,1,100,2|0,1:2|0:2,0:2:0:0:
232,266,193649,2,0,L|215:367,1,100,2|0,0:3|0:2,0:2:0:0:
296,15,193816,2,0,L|309:97,1,75.0000028610231,10|0,1:2|0:2,0:2:0:0:
458,243,193983,2,0,L|475:342,1,100,2|0,0:3|0:2,0:2:0:0:
458,113,194149,2,0,L|441:11,1,100,2|0,1:2|0:2,0:2:0:0:
425,280,194316,2,0,L|444:379,1,100,2|0,0:3|0:2,0:2:0:0:
336,171,194483,5,8,1:2:0:0:
301,174,194566,1,2,0:3:0:0:
264,176,194650,1,2,0:3:0:0:
225,178,194733,1,2,0:3:0:0:
191,184,194816,6,0,L|106:133,1,100,2|0,1:2|0:2,0:2:0:0:
242,6,194983,2,0,L|339:65,1,100,2|0,0:3|0:2,0:2:0:0:
380,342,195149,5,8,1:2:0:0:
327,331,195232,1,2,0:3:0:0:
276,319,195316,1,2,0:3:0:0:
225,308,195399,1,2,0:3:0:0:
156,270,195483,6,0,L|253:290,1,100,2|0,1:2|0:2,0:2:0:0:
336,171,195649,2,0,L|434:121,1,100,2|0,0:3|0:2,0:2:0:0:
141,12,195816,6,0,L|40:37,1,75.0000028610231,10|0,1:2|0:2,0:2:0:0:
312,48,195983,2,0,L|418:55,1,100,2|0,0:3|0:2,0:2:0:0:
336,171,196149,2,0,L|360:275,1,100,2|0,1:2|0:2,0:2:0:0:
150,225,196316,2,0,L|151:330,1,100,2|0,0:3|0:2,0:2:0:0:
85,124,196482,5,10,1:2:0:0:
153,124,196565,1,2,0:2:0:0:
217,99,196649,1,2,0:2:0:0:
275,134,196732,1,2,0:2:0:0:
336,171,196816,6,0,L|361:279,1,100,2|0,1:2|0:2,0:2:0:0:
217,99,196983,2,0,L|196:2,1,100,2|0,0:2|0:2,0:2:0:0:
257,251,197149,2,0,L|232:350,1,100,14|0,1:2|0:2,0:2:0:0:
421,130,197315,1,2,0:3:0:0:
406,60,197399,1,2,0:3:0:0:
466,15,197483,6,0,L|165:59,1,300,6|0,1:2|0:2,0:2:0:0:
150,91,197816,6,0,L|297:68,1,134.999995880127,10|0,1:3|0:2,0:2:0:0:
385,166,198149,6,0,L|84:210,1,300,2|0,1:2|0:2,0:2:0:0:
61,303,198482,6,0,L|208:280,1,134.999995880127,10|0,1:3|0:2,0:2:0:0:
326,366,198816,6,0,L|282:69,1,300,2|0,1:2|0:2,0:2:0:0:
159,22,199149,6,0,L|179:155,1,134.999995880127,10|0,1:3|0:2,0:2:0:0:
32,0,199483,6,0,L|75:296,1,300,0|0,1:2|0:2,0:2:0:0:
231,384,199816,6,0,L|210:250,1,134.999995880127,10|0,1:3|0:2,0:2:0:0:
292,24,200150,5,0,1:2:0:0:
417,353,200316,1,0,1:2:0:0:
413,56,200483,5,8,1:2:0:0:
312,341,200650,1,0,1:2:0:0:
138,29,200817,5,0,1:2:0:0:
235,344,200984,1,0,1:2:0:0:
258,23,201150,5,8,1:2:0:0:
147,363,201317,1,0,1:2:0:0:
495,84,201484,5,0,1:2:0:0:
460,55,201567,1,0,1:2:0:0:
415,53,201649,1,0,1:2:0:0:
376,74,201734,1,0,1:2:0:0:
353,113,201817,1,8,1:2:0:0:
354,158,201899,1,0,1:2:0:0:
378,195,201984,1,0,1:2:0:0:
418,215,202067,1,0,1:2:0:0:
465,207,202150,5,0,1:2:0:0:
426,266,202234,1,0,1:2:0:0:
364,302,202317,1,0,1:2:0:0:
294,307,202400,1,0,1:2:0:0:
228,279,202484,1,8,1:2:0:0:
180,229,202567,1,0,1:2:0:0:
111,207,202650,1,0,1:2:0:0:
42,218,202734,1,0,1:2:0:0:
0,279,202816,5,0,1:2:0:0:
