osu file format v14

[General]
AudioFilename: audio.mp3
AudioLeadIn: 0
PreviewTime: 10732
Countdown: 0
SampleSet: Soft
StackLeniency: 0.6
Mode: 0
LetterboxInBreaks: 0
WidescreenStoryboard: 1

[Editor]
Bookmarks: 9492,21492,26825,32158,42825,53492,73492,74825,78490,80823,86156,96158,106825,117492,137492,138825,144158,160158,165490,170825,180158,184158,202825
DistanceSpacing: 1.1
BeatDivisor: 4
GridSize: 16
TimelineZoom: 2.32

[Metadata]
Title:SACRIFICE (Original Mix)
TitleUnicode:SACRIFICE (Original Mix)
Artist:Alstroemeria Records feat. ayame
ArtistUnicode:Alstroemeria Records feat. ayame
Creator:Nuvolina
Version:Easy
Source:東方永夜抄 ~ Imperishable Night.
Tags:アルストロメリアレコーズ japanese video game electronic hardcore touhou project 8 藤原 妹紅 Fujiwara no Mokou 月まで届け、不死の煙 Reach for the Moon, Immortal Smoke STRUCTURED DANCEHALL 上海アリス幻樂団 ZUN Chaos kirylln Myxo Acylica log off now log_off_now Masayoshi Minoshima SOUND VOLTEX IV HEAVENLY HAVEN SDVX 4 j-core
BeatmapID:2827231
BeatmapSetID:1161525

[Difficulty]
HPDrainRate:2
CircleSize:2.5
OverallDifficulty:2
ApproachRate:4
SliderMultiplier:0.8
SliderTickRate:1

[Events]
//Background and Video events
0,0,"bg01.jpg",0,0
//Break Periods
2,96349,105496
2,138823,142829
2,160349,164163
2,181490,182829
//Storyboard Layer 0 (Background)
//Storyboard Layer 1 (Fail)
//Storyboard Layer 2 (Pass)
//Storyboard Layer 3 (Foreground)
//Storyboard Layer 4 (Overlay)
//Storyboard Sound Samples

[TimingPoints]
150,333.333333333333,4,2,3,70,1,0
10816,-100,4,2,1,85,0,0
21483,-90.9090909090909,4,2,3,90,0,0
26816,-100,4,2,3,80,0,0
29483,-100,4,2,3,85,0,0
32149,-111.111111111111,4,2,3,60,0,0
42816,-100,4,2,3,70,0,0
53483,-100,4,2,3,80,0,0
69483,-100,4,2,3,90,0,0
72149,-100,4,2,3,100,0,0
74483,-100,4,2,1,80,0,0
74649,-100,4,2,0,80,0,0
74816,-83.3333333333333,4,2,1,100,0,1
93483,-83.3333333333333,4,2,1,80,0,1
96149,-83.3333333333333,4,2,1,60,0,0
106816,-100,4,2,1,70,0,0
117483,-100,4,2,3,80,0,0
133483,-100,4,2,3,90,0,0
136149,-100,4,2,3,100,0,0
138816,-100,4,2,1,70,0,0
141816,-100,4,2,1,80,0,0
144149,-83.3333333333333,4,2,1,100,0,1
157483,-83.3333333333333,4,2,1,90,0,1
160149,-83.3333333333333,4,2,3,70,0,0
165483,-100,4,2,3,80,0,0
176149,-100,4,2,3,90,0,0
178816,-100,4,2,3,100,0,0
181483,-100,4,2,1,70,0,0
184149,-83.3333333333333,4,2,1,100,0,1
202816,-83.3333333333333,4,2,1,90,0,0

[Colours]
Combo1 : 174,51,51
Combo2 : 255,40,40
Combo3 : 239,147,44
Combo4 : 243,204,112

[HitObjects]
28,62,10816,6,0,B|93:133|166:115|217:2|291:-7|352:77,1,360,4|2,1:2|0:2,0:0:0:0:
488,46,12816,1,2,1:2:0:0:
501,143,13149,1,10,0:2:0:0:
435,213,13483,6,0,P|348:156|352:328,1,360,2|2,1:2|0:2,0:0:0:0:
202,374,15483,1,2,1:2:0:0:
123,318,15816,1,10,0:2:0:0:
46,375,16149,6,0,B|117:310|108:239|-9:191|-18:115|55:56,1,360,2|2,1:2|0:2,0:0:0:0:
188,3,18149,1,2,1:2:0:0:
266,58,18483,1,10,0:2:0:0:
222,143,18816,6,0,P|165:230|337:239,1,360,2|2,1:2|0:2,0:0:0:0:
403,115,20816,2,0,B|364:103|364:103|315:122,1,80,2|8,1:2|0:2,0:0:0:0:
240,57,21483,6,0,P|182:68|134:8,1,132.00000402832,4|10,1:2|0:2,0:0:0:0:
24,132,22483,2,0,P|41:197|7:269,1,132.00000402832,2|10,1:2|0:2,0:0:0:0:
137,361,23483,1,2,1:2:0:0:
203,278,23816,1,2,1:2:0:0:
270,358,24149,6,0,P|333:372|393:327,1,132.00000402832,2|8,1:2|0:2,0:0:0:0:
361,180,25149,2,0,P|317:212|328:297,1,132.00000402832,2|10,1:2|0:2,0:0:0:0:
472,248,26149,1,2,1:2:0:0:
457,143,26483,1,2,1:2:0:0:
361,151,26816,6,0,B|251:118|251:118|208:173|120:146,1,240,2|2,1:2|1:2,0:0:0:0:
12,79,28316,1,10,0:2:0:0:
138,8,28816,1,2,1:2:0:0:
218,59,29149,1,2,1:2:0:0:
311,34,29483,2,0,P|385:45|431:12,2,120,0|8|0,1:2|0:2|1:2,0:0:0:0:
363,168,30983,1,8,3:3:0:0:
316,304,31483,1,0,1:3:0:0:
226,270,31816,1,0,1:3:0:0:
136,307,32149,6,0,L|105:154,1,143.999995605469,4|2,1:3|0:2,0:0:0:0:
115,79,33149,1,10,0:2:0:0:
198,53,33483,2,0,L|309:69,1,107.999996704102,2|2,1:2|1:2,0:0:0:0:
491,177,34816,2,0,L|457:247,1,71.9999978027344,2|10,1:2|0:2,0:0:0:0:
489,323,35483,1,2,0:2:0:0:
408,354,35816,1,10,0:2:0:0:
347,291,36149,2,0,P|297:277|244:306,1,107.999996704102,2|2,1:2|0:3,0:0:0:0:
39,356,37483,6,0,L|66:204,1,143.999995605469,2|2,1:2|0:2,0:0:0:0:
148,195,38483,1,10,0:2:0:0:
230,170,38816,2,0,L|205:52,1,107.999996704102,2|2,1:2|1:2,0:0:0:0:
331,241,40149,6,0,L|408:223,1,71.9999978027344,2|10,1:2|0:2,0:0:0:0:
461,162,40816,1,2,0:2:0:0:
434,79,41149,1,10,0:2:0:0:
347,74,41483,2,0,P|289:93|239:62,1,107.999996704102,2|2,1:2|1:3,0:0:0:0:
13,117,42816,6,0,B|57:184|57:184|49:274,1,160,6|2,1:2|0:2,0:0:0:0:
75,356,43816,1,10,0:2:0:0:
155,304,44149,2,0,P|209:300|262:344,1,120,2|2,1:2|1:2,0:0:0:0:
346,378,44983,1,2,1:2:0:0:
344,246,45483,6,0,L|378:164,1,80,2|10,0:2|0:2,0:0:0:0:
446,108,46149,1,2,0:2:0:0:
394,28,46483,1,10,0:2:0:0:
301,52,46816,2,0,B|253:50|253:50|224:25|179:26,1,120,2|2,1:2|1:2,0:0:0:0:
5,183,48149,6,0,B|82:164|82:164|157:210,1,160,2|2,1:2|0:2,0:0:0:0:
84,276,49150,1,10,0:2:0:0:
104,369,49483,2,0,P|158:381|210:347,1,120,2|2,1:2|0:2,0:0:0:0:
262,267,50316,1,2,1:2:0:0:
388,336,50816,6,0,L|421:249,1,80,2|10,1:2|0:2,0:0:0:0:
489,198,51483,1,2,0:2:0:0:
447,111,51816,1,10,0:2:0:0:
466,17,52149,2,0,L|343:22,1,120,2|2,1:2|1:2,0:0:0:0:
142,88,53483,6,0,L|167:182,1,80,10|10,0:2|0:2,0:0:0:0:
232,231,54149,1,10,0:2:0:0:
194,320,54483,1,10,0:2:0:0:
101,293,54816,2,0,B|105:244|98:207|40:162|29:124|50:63,1,240,10|10,0:2|0:2,0:0:0:0:
137,30,56149,6,0,L|217:34,1,80,10|10,0:2|0:2,0:0:0:0:
311,18,56816,1,10,0:2:0:0:
388,74,57149,1,10,0:2:0:0:
483,78,57483,2,0,L|468:165,1,80,10|10,0:2|0:2,0:0:0:0:
389,210,58149,2,0,L|401:302,1,80,10|10,0:2|0:2,0:0:0:0:
332,358,58816,6,0,P|283:366|246:344,1,80,10|10,0:2|0:2,0:0:0:0:
182,293,59483,1,10,0:2:0:0:
228,208,59816,1,10,0:2:0:0:
169,131,60149,2,0,P|63:112|14:222,1,240,10|10,0:2|0:2,0:0:0:0:
17,312,61482,6,0,L|98:338,1,80,10|10,0:2|0:2,0:0:0:0:
185,309,62149,1,10,0:2:0:0:
251,378,62482,1,10,0:2:0:0:
334,330,62816,2,0,L|320:248,1,80,14|10,0:2|0:2,0:0:0:0:
256,179,63483,2,0,L|287:103,1,80,10|10,0:2|0:2,0:0:0:0:
341,26,64149,5,10,0:2:0:0:
433,51,64483,1,10,0:2:0:0:
457,143,64816,2,0,L|441:233,1,80,10|10,0:2|0:2,0:0:0:0:
350,246,65483,2,0,L|360:329,1,80,10|10,0:2|0:2,0:0:0:0:
275,371,66149,2,0,P|234:364|202:327,1,80,10|10,0:2|0:2,0:0:0:0:
112,354,66816,5,14,0:2:0:0:
51,279,67149,1,10,0:2:0:0:
108,201,67483,2,0,P|116:158|96:121,1,80,10|10,0:2|0:2,0:0:0:0:
59,40,68149,1,10,0:2:0:0:
148,5,68482,1,10,0:2:0:0:
222,65,68816,2,0,P|255:78|313:72,1,80,10|10,0:2|0:2,0:0:0:0:
369,141,69483,6,0,L|320:214,1,80,14|10,0:2|0:2,0:0:0:0:
228,213,70149,2,0,L|242:300,1,80,10|10,0:2|0:2,0:0:0:0:
309,359,70816,1,14,0:2:0:0:
402,338,71149,1,10,0:2:0:0:
441,250,71483,1,10,0:2:0:0:
399,163,71816,1,10,0:2:0:0:
256,192,72149,12,4,73483,1:2:0:0:
119,357,74816,6,0,B|111:255,1,95.9999970703126,6|10,1:2|1:3,0:0:0:0:
21,205,75483,2,0,B|47:108,1,95.9999970703126,2|10,1:2|1:3,0:0:0:0:
107,27,76149,1,2,1:3:0:0:
193,88,76483,2,0,B|190:127|190:127|209:148|209:148|217:180,1,95.9999970703126,10|2,1:3|1:3,0:0:0:0:
293,247,77149,1,10,1:3:0:0:
390,205,77483,5,2,1:3:0:0:
478,262,77816,2,0,B|485:304|485:304|472:323|472:323|466:358,1,95.9999970703126,10|2,1:3|1:3,0:0:0:0:
363,377,78483,1,10,1:3:0:0:
279,311,78816,2,0,B|238:315|238:315|229:330|229:330|180:330,1,95.9999970703126,2|10,1:2|1:2,0:0:0:0:
91,364,79483,1,2,1:2:0:0:
29,278,79816,1,10,1:3:0:0:
97,198,80149,6,0,B|197:173,1,95.9999970703126,6|10,1:2|1:3,0:0:0:0:
226,75,80816,2,0,B|328:100,1,95.9999970703126,2|10,1:2|1:3,0:0:0:0:
385,180,81483,1,2,1:3:0:0:
471,119,81816,2,0,L|481:52,2,47.9999985351563,10|2|2,1:2|0:3|1:2,0:0:0:0:
507,218,82483,1,10,1:2:0:0:
454,309,82816,5,2,1:3:0:0:
351,335,83149,2,0,L|342:402,2,47.9999985351563,10|2|2,1:2|0:3|1:2,0:0:0:0:
287,250,83816,1,10,1:2:0:0:
325,151,84149,1,2,1:2:0:0:
250,76,84483,2,0,B|204:70|204:70|150:93,1,95.9999970703126,10|2,1:3|1:2,0:0:0:0:
57,59,85149,1,10,1:3:0:0:
19,157,85483,6,0,B|48:266,1,95.9999970703126,6|10,1:2|1:3,0:0:0:0:
149,254,86149,2,0,B|178:363,1,95.9999970703126,2|10,1:2|1:3,0:0:0:0:
274,379,86817,1,2,1:3:0:0:
361,320,87149,2,0,L|425:314,2,47.9999985351563,10|2|2,1:2|0:3|1:2,0:0:0:0:
279,252,87816,1,10,1:2:0:0:
348,172,88149,5,2,1:3:0:0:
275,95,88483,2,0,L|269:29,2,47.9999985351563,10|2|2,1:2|0:3|1:2,0:0:0:0:
184,148,89149,1,10,1:2:0:0:
97,86,89483,1,2,1:2:0:0:
52,181,89816,2,0,B|34:229|34:229|50:281,1,95.9999970703126,10|2,1:2|1:2,0:0:0:0:
98,364,90482,1,10,1:2:0:0:
190,310,90816,6,0,L|205:211,2,95.9999970703126,6|10|2,1:2|1:3|1:2,0:0:0:0:
270,376,91816,1,10,1:3:0:0:
371,346,92149,2,0,L|360:238,1,95.9999970703126,2|10,1:2|1:3,0:0:0:0:
291,170,92816,1,2,1:2:0:0:
340,76,93149,1,10,1:3:0:0:
256,192,93483,12,6,96149,0:2:0:0:
340,76,106816,6,0,B|303:100|284:100|244:61|225:61|182:82,1,160,6|2,1:2|0:2,0:0:0:0:
93,59,107816,1,2,0:2:0:0:
43,140,108149,2,0,L|90:257,1,120,2|2,0:2|0:2,0:0:0:0:
95,347,108983,1,2,0:0:0:0:
273,339,109483,6,0,L|307:257,1,80,2|2,0:2|0:2,0:0:0:0:
250,185,110149,1,2,0:2:0:0:
280,93,110483,1,2,0:2:0:0:
375,94,110816,2,0,B|421:104|421:104|456:82|456:82|498:85,1,120,2|2,0:2|0:2,0:0:0:0:
465,323,112149,6,0,B|388:342|388:342|313:296,1,160,2|2,0:2|0:2,0:0:0:0:
231,340,113150,1,2,0:2:0:0:
172,264,113483,2,0,P|203:202|196:140,1,120,2|2,0:2|0:2,0:0:0:0:
181,58,114316,1,2,0:2:0:0:
42,96,114816,6,0,L|53:188,1,80,2|2,0:2|0:2,0:0:0:0:
14,264,115483,1,2,0:2:0:0:
78,334,115816,1,2,0:2:0:0:
168,302,116149,2,0,B|212:296|212:296|288:332,1,120,2|2,0:2|0:2,0:0:0:0:
483,149,117483,6,0,L|458:57,1,80,12|10,0:2|0:2,0:0:0:0:
379,22,118149,1,10,0:2:0:0:
321,99,118483,1,10,0:2:0:0:
226,83,118816,2,0,B|203:128|208:179|283:199|291:248|251:307,1,240,10|10,0:2|0:2,0:0:0:0:
172,355,120149,6,0,P|132:339|85:353,1,80,10|10,0:2|0:2,0:0:0:0:
4,372,120816,1,10,0:2:0:0:
16,276,121149,1,10,0:2:0:0:
100,230,121483,2,0,L|89:143,1,80,10|10,0:2|0:2,0:0:0:0:
3,110,122149,2,0,L|29:21,1,80,10|10,0:2|0:2,0:0:0:0:
121,29,122816,6,0,P|170:37|207:15,1,80,10|10,0:2|0:2,0:0:0:0:
291,12,123483,1,10,0:2:0:0:
358,79,123816,1,10,0:2:0:0:
442,33,124149,2,0,P|469:140|362:180,1,240,10|10,0:2|0:2,0:0:0:0:
279,143,125482,6,0,P|238:133|192:155,1,80,10|10,0:2|0:2,0:0:0:0:
115,185,126149,1,10,0:2:0:0:
157,271,126482,1,10,0:2:0:0:
142,366,126816,2,0,L|224:352,1,80,14|10,0:2|0:2,0:0:0:0:
278,275,127483,2,0,L|354:306,1,80,14|10,0:2|0:2,0:0:0:0:
435,352,128149,5,14,0:2:0:0:
478,266,128483,1,10,0:2:0:0:
430,182,128816,2,0,L|446:92,1,80,10|10,0:2|0:2,0:0:0:0:
380,30,129483,2,0,L|297:40,1,80,10|10,0:2|0:2,0:0:0:0:
271,130,130149,2,0,L|190:91,1,80,10|10,0:2|0:2,0:0:0:0:
115,47,130816,5,14,0:2:0:0:
62,127,131149,1,10,0:2:0:0:
134,189,131483,2,0,P|142:232|122:269,1,80,10|10,0:2|0:2,0:0:0:0:
96,354,132149,1,10,0:2:0:0:
189,376,132482,1,10,0:2:0:0:
279,343,132816,2,0,P|282:302|256:259,1,80,10|10,0:2|0:2,0:0:0:0:
210,188,133483,6,0,L|259:115,1,80,14|10,0:2|0:2,0:0:0:0:
349,107,134149,2,0,L|328:24,1,80,10|10,0:2|0:2,0:0:0:0:
234,15,134816,1,14,0:2:0:0:
163,80,135149,1,10,0:2:0:0:
77,36,135483,1,10,0:2:0:0:
27,118,135816,1,10,0:2:0:0:
256,192,136149,12,4,137483,1:2:0:0:
29,116,144149,6,0,P|76:113|123:157,1,95.9999970703126,6|10,1:2|1:3,0:0:0:0:
135,243,144816,2,0,P|174:245|227:195,1,95.9999970703126,2|10,1:2|1:3,0:0:0:0:
306,154,145483,1,2,1:3:0:0:
369,238,145816,2,0,L|359:305,2,47.9999985351563,10|2|2,1:2|0:3|1:2,0:0:0:0:
465,195,146483,1,10,1:2:0:0:
484,91,146816,5,2,1:3:0:0:
387,47,147149,2,0,L|378:-20,2,47.9999985351563,10|2|2,1:2|0:3|1:2,0:0:0:0:
316,126,147816,1,10,1:2:0:0:
230,64,148149,1,2,1:2:0:0:
139,119,148483,2,0,B|130:163|130:163|156:219,1,95.9999970703126,10|2,1:2|1:2,0:0:0:0:
115,308,149149,1,10,1:2:0:0:
208,358,149483,6,0,P|257:365|301:335,1,95.9999970703126,6|10,1:2|1:3,0:0:0:0:
285,237,150149,2,0,P|331:231|383:259,1,95.9999970703126,2|10,1:2|1:3,0:0:0:0:
445,330,150817,1,2,1:3:0:0:
485,232,151149,2,0,L|515:189,2,47.9999985351563,10|2|2,1:2|0:3|1:2,0:0:0:0:
408,159,151816,1,10,1:2:0:0:
455,64,152149,5,2,1:3:0:0:
350,47,152483,2,0,L|344:-19,2,47.9999985351563,10|2|2,1:3|0:2|1:3,0:0:0:0:
261,104,153149,1,10,1:3:0:0:
291,205,153483,1,2,1:2:0:0:
235,294,153816,2,0,B|189:306|189:306|143:274,1,95.9999970703126,10|2,1:2|1:2,0:0:0:0:
55,327,154482,1,10,1:2:0:0:
22,226,154816,6,0,L|-3:122,2,95.9999970703126,6|10|2,1:2|1:3|1:2,0:0:0:0:
109,167,155816,1,10,1:3:0:0:
211,141,156149,2,0,L|200:33,1,95.9999970703126,2|10,1:2|1:3,0:0:0:0:
301,80,156816,1,2,1:2:0:0:
398,40,157149,1,10,1:3:0:0:
256,192,157483,12,6,160149,0:2:0:0:
398,40,165483,6,0,B|447:103|447:103|426:193,1,160,10|10,0:2|0:2,0:0:0:0:
335,206,166483,1,10,0:2:0:0:
241,185,166816,2,0,P|237:239|281:292,1,120,10|2,0:2|0:3,0:0:0:0:
198,346,167649,1,2,0:3:0:0:
55,321,168150,6,0,L|77:234,1,80,10|8,0:2|0:2,0:0:0:0:
55,149,168816,1,10,0:2:0:0:
133,94,169150,1,10,0:2:0:0:
213,143,169483,2,0,B|215:191|215:191|240:220|239:265,1,120,10|2,0:2|0:3,0:0:0:0:
460,349,170816,5,14,0:2:0:0:
404,270,171150,1,10,0:2:0:0:
460,192,171483,2,0,P|465:152|432:108,1,80,10|10,0:2|0:2,0:0:0:0:
388,41,172150,2,0,L|305:51,1,80,10|10,0:2|0:2,0:0:0:0:
274,140,172816,2,0,L|193:108,1,80,10|10,0:2|0:2,0:0:0:0:
117,60,173483,5,14,0:2:0:0:
55,133,173816,1,10,0:2:0:0:
103,216,174150,2,0,P|111:259|91:296,1,80,10|10,0:2|0:2,0:0:0:0:
162,359,174816,1,10,0:2:0:0:
239,302,175149,1,10,0:2:0:0:
319,354,175483,2,0,P|358:362|404:345,1,80,10|10,0:2|0:2,0:0:0:0:
462,281,176150,6,0,L|437:201,1,80,14|10,0:2|0:2,0:0:0:0:
342,197,176816,2,0,L|352:109,1,80,10|10,0:2|0:2,0:0:0:0:
306,32,177483,1,14,0:2:0:0:
233,95,177816,1,10,0:2:0:0:
228,191,178150,1,10,0:2:0:0:
189,279,178483,1,10,0:2:0:0:
256,192,178816,12,4,180150,1:2:0:0:
189,279,184149,5,4,1:2:0:0:
84,296,184483,2,0,L|64:359,2,47.9999985351563,10|2|2,1:3|0:2|1:3,0:0:0:0:
30,204,185149,1,10,1:3:0:0:
114,140,185483,2,0,L|95:40,1,95.9999970703126,2|10,1:2|1:3,0:0:0:0:
198,18,186149,1,2,1:2:0:0:
279,84,186483,1,10,1:3:0:0:
383,67,186816,6,0,P|386:114|342:161,1,95.9999970703126,6|10,1:2|1:2,0:0:0:0:
292,234,187482,2,0,P|290:273|340:326,1,95.9999970703126,2|10,1:2|1:3,0:0:0:0:
236,380,188149,1,2,1:2:0:0:
148,321,188482,2,0,L|81:331,2,47.9999985351563,10|2|2,1:2|0:3|1:2,0:0:0:0:
171,217,189149,1,8,1:2:0:0:
92,147,189482,5,2,1:3:0:0:
157,64,189816,2,0,L|150:0,2,47.9999985351563,10|2|2,1:2|0:3|1:2,0:0:0:0:
245,119,190482,1,10,1:3:0:0:
319,43,190815,1,2,1:3:0:0:
400,110,191149,2,0,B|409:154|409:154|383:210,1,95.9999970703126,10|2,1:3|1:2,0:0:0:0:
438,292,191815,1,14,1:2:0:0:
362,363,192149,6,0,P|313:370|269:340,1,95.9999970703126,6|14,1:2|1:2,0:0:0:0:
205,267,192815,2,0,P|159:261|107:289,1,95.9999970703126,2|10,1:2|1:2,0:0:0:0:
36,209,193483,1,2,1:2:0:0:
76,111,193816,2,0,L|59:48,2,47.9999985351563,10|2|2,1:2|0:3|1:2,0:0:0:0:
178,137,194482,1,8,1:2:0:0:
192,241,194815,5,2,1:2:0:0:
116,314,195149,2,0,L|50:320,2,47.9999985351563,8|2|2,1:2|0:3|1:2,0:0:0:0:
203,372,195815,1,10,1:2:0:0:
290,312,196149,1,2,1:2:0:0:
391,341,196482,2,0,B|403:295|403:295|371:249,1,95.9999970703126,10|2,1:2|1:2,0:0:0:0:
438,170,197148,1,14,1:2:0:0:
387,76,197482,6,0,L|287:89,1,95.9999970703126,6|10,1:2|1:3,0:0:0:0:
202,31,198149,1,2,1:2:0:0:
128,106,198482,1,10,1:3:0:0:
24,83,198815,2,0,L|35:191,1,95.9999970703126,2|10,1:2|1:3,0:0:0:0:
8,281,199482,1,0,1:2:0:0:
93,342,199815,1,10,1:3:0:0:
256,192,200149,12,0,202816,1:2:0:0:
