osu file format v14

[General]
AudioFilename: audio.mp3
AudioLeadIn: 0
PreviewTime: 64114
Countdown: 0
SampleSet: Normal
StackLeniency: 0.7
Mode: 1
LetterboxInBreaks: 0
WidescreenStoryboard: 0

[Editor]
Bookmarks: 12114,17447,22781,33447,44114,54781
DistanceSpacing: 1
BeatDivisor: 4
GridSize: 32
TimelineZoom: 1.3

[Metadata]
Title:SACRIFICE feat. ayame
TitleUnicode:SACRIFICE feat. ayame
Artist:Alstroemeria Records
ArtistUnicode:Alstroemeria Records
Creator:Faputa
Version:ONI
Source:SOUND VOLTEX IV HEAVENLY HAVEN
Tags:th08 eternal night vignette in alst 藤原妹紅 Fujiwara no Mokou SDVX 4 Masayoshi Minoshima 簑島正佳 ZUN Team Shanghai Alice lumière ambrée: lumiere ambree: 2017 月まで届け、不死の煙 Tsukimade Todoke, Fushino Kemuri Reach for the Moon, Immortal Smoke 東方Project extra stage boss 東方永夜抄 ~ Imperishable Night. Touhou Eiyashou Video Rhythm Game Instrumental Japanese
BeatmapID:2895594
BeatmapSetID:1070108

[Difficulty]
HPDrainRate:6
CircleSize:2
OverallDifficulty:6
ApproachRate:10
SliderMultiplier:1.4
SliderTickRate:1

[Events]
//Background and Video events
0,0,"Fujiwara.jpg",0,100
//Break Periods
//Storyboard Layer 0 (Background)
//Storyboard Layer 1 (Fail)
//Storyboard Layer 2 (Pass)
//Storyboard Layer 3 (Foreground)
//Storyboard Layer 4 (Overlay)
//Storyboard Sound Samples

[TimingPoints]
-3886,333.333333333333,4,1,0,100,1,0
65447,-100,4,1,0,100,0,1
86780,-100,4,1,0,100,0,0
110780,-100,4,1,0,100,0,1
129447,-100,4,1,0,100,0,0

[HitObjects]
256,192,113,5,0,0:0:0:0:
256,192,447,1,0,0:0:0:0:
256,192,780,1,8,0:0:0:0:
256,192,1113,1,8,0:0:0:0:
256,192,1197,1,8,0:0:0:0:
256,192,1280,1,0,0:0:0:0:
256,192,1447,1,12,0:0:0:0:
256,192,1780,1,8,0:0:0:0:
256,192,1947,1,0,0:0:0:0:
256,192,2113,1,0,0:0:0:0:
256,192,2197,1,0,0:0:0:0:
256,192,2280,1,0,0:0:0:0:
256,192,2447,1,8,0:0:0:0:
256,192,2613,1,0,0:0:0:0:
256,192,2780,1,8,0:0:0:0:
256,192,2863,1,8,0:0:0:0:
256,192,2947,1,0,0:0:0:0:
256,192,3113,1,8,0:0:0:0:
256,192,3280,1,0,0:0:0:0:
256,192,3447,1,0,0:0:0:0:
256,192,3613,1,8,0:0:0:0:
256,192,3697,1,8,0:0:0:0:
256,192,3780,1,0,0:0:0:0:
256,192,3947,1,8,0:0:0:0:
256,192,4113,1,0,0:0:0:0:
256,192,4447,1,0,0:0:0:0:
256,192,4613,1,8,0:0:0:0:
256,192,4697,1,8,0:0:0:0:
256,192,4780,1,8,0:0:0:0:
256,192,4947,1,8,0:0:0:0:
256,192,5113,1,0,0:0:0:0:
256,192,5280,1,0,0:0:0:0:
256,192,5363,1,0,0:0:0:0:
256,192,5447,1,8,0:0:0:0:
256,192,5613,1,0,0:0:0:0:
256,192,5780,1,8,0:0:0:0:
256,192,5947,1,0,0:0:0:0:
256,192,6030,1,0,0:0:0:0:
256,192,6113,1,8,0:0:0:0:
256,192,6280,1,0,0:0:0:0:
256,192,6447,1,12,0:0:0:0:
256,192,6780,1,4,0:0:0:0:
256,192,7113,1,0,0:0:0:0:
256,192,7280,1,8,0:0:0:0:
256,192,7447,1,0,0:0:0:0:
256,192,7530,1,0,0:0:0:0:
256,192,7613,1,8,0:0:0:0:
256,192,7780,1,0,0:0:0:0:
256,192,7947,1,8,0:0:0:0:
256,192,8113,1,8,0:0:0:0:
256,192,8197,1,8,0:0:0:0:
256,192,8280,1,0,0:0:0:0:
256,192,8447,1,8,0:0:0:0:
256,192,8613,1,0,0:0:0:0:
256,192,8780,1,8,0:0:0:0:
256,192,8947,1,8,0:0:0:0:
256,192,9030,1,8,0:0:0:0:
256,192,9113,1,0,0:0:0:0:
256,192,9280,1,8,0:0:0:0:
256,192,9447,1,0,0:0:0:0:
256,192,9780,1,0,0:0:0:0:
256,192,9947,1,8,0:0:0:0:
256,192,10030,1,8,0:0:0:0:
256,192,10113,1,0,0:0:0:0:
256,192,10280,1,0,0:0:0:0:
256,192,10447,1,8,0:0:0:0:
256,192,10613,1,0,0:0:0:0:
256,192,10780,1,8,0:0:0:0:
256,192,10863,1,8,0:0:0:0:
256,192,10947,1,8,0:0:0:0:
256,192,11113,1,8,0:0:0:0:
256,192,11280,1,0,0:0:0:0:
256,192,11447,1,8,0:0:0:0:
256,192,11613,1,8,0:0:0:0:
256,192,11780,1,8,0:0:0:0:
256,192,12113,1,12,0:0:0:0:
256,192,12447,1,0,0:0:0:0:
256,192,12613,1,8,0:0:0:0:
256,192,12780,1,0,0:0:0:0:
256,192,12947,1,0,0:0:0:0:
256,192,13030,1,0,0:0:0:0:
256,192,13113,1,8,0:0:0:0:
256,192,13280,1,8,0:0:0:0:
256,192,13613,1,8,0:0:0:0:
256,192,13780,1,0,0:0:0:0:
256,192,13947,1,0,0:0:0:0:
256,192,14113,1,8,0:0:0:0:
256,192,14197,1,8,0:0:0:0:
256,192,14280,1,0,0:0:0:0:
256,192,14447,1,8,0:0:0:0:
256,192,14613,1,0,0:0:0:0:
256,192,14780,1,8,0:0:0:0:
256,192,14947,1,0,0:0:0:0:
256,192,15113,1,0,0:0:0:0:
256,192,15280,1,8,0:0:0:0:
256,192,15447,1,8,0:0:0:0:
256,192,15613,1,0,0:0:0:0:
256,192,15697,1,0,0:0:0:0:
256,192,15780,1,8,0:0:0:0:
256,192,15947,1,0,0:0:0:0:
256,192,16280,1,0,0:0:0:0:
256,192,16447,1,8,0:0:0:0:
256,192,16613,1,8,0:0:0:0:
256,192,16697,1,8,0:0:0:0:
256,192,16780,1,8,0:0:0:0:
256,192,16947,1,0,0:0:0:0:
256,192,17113,1,8,0:0:0:0:
256,192,17447,1,4,0:0:0:0:
256,192,17780,1,8,0:0:0:0:
256,192,17947,1,8,0:0:0:0:
256,192,18113,1,0,0:0:0:0:
256,192,18280,1,0,0:0:0:0:
256,192,18363,1,0,0:0:0:0:
256,192,18447,1,8,0:0:0:0:
256,192,18613,1,8,0:0:0:0:
256,192,18947,1,8,0:0:0:0:
256,192,19113,1,0,0:0:0:0:
256,192,19280,1,0,0:0:0:0:
256,192,19447,1,8,0:0:0:0:
256,192,19613,1,0,0:0:0:0:
256,192,19697,1,0,0:0:0:0:
256,192,19780,1,8,0:0:0:0:
256,192,19947,1,0,0:0:0:0:
256,192,20113,1,8,0:0:0:0:
256,192,20280,1,8,0:0:0:0:
256,192,20447,1,0,0:0:0:0:
256,192,20613,1,8,0:0:0:0:
256,192,20947,1,0,0:0:0:0:
256,192,21113,1,8,0:0:0:0:
256,192,21280,1,8,0:0:0:0:
256,192,21447,1,0,0:0:0:0:
256,192,21530,1,0,0:0:0:0:
256,192,21613,1,8,0:0:0:0:
256,192,21697,1,8,0:0:0:0:
256,192,21780,1,0,0:0:0:0:
256,192,21947,1,0,0:0:0:0:
256,192,22113,1,8,0:0:0:0:
256,192,22197,1,8,0:0:0:0:
256,192,22280,1,0,0:0:0:0:
256,192,22447,1,12,0:0:0:0:
256,192,22780,1,4,0:0:0:0:
256,192,23447,1,0,0:0:0:0:
256,192,23613,1,0,0:0:0:0:
256,192,23780,1,8,0:0:0:0:
256,192,24113,1,0,0:0:0:0:
256,192,24613,1,8,0:0:0:0:
256,192,24947,1,0,0:0:0:0:
256,192,25113,1,8,0:0:0:0:
256,192,25280,1,0,0:0:0:0:
256,192,25447,1,8,0:0:0:0:
256,192,25780,1,8,0:0:0:0:
256,192,26113,1,0,0:0:0:0:
256,192,26447,1,8,0:0:0:0:
256,192,26780,1,0,0:0:0:0:
256,192,26947,1,0,0:0:0:0:
256,192,27113,1,8,0:0:0:0:
256,192,27280,1,8,0:0:0:0:
256,192,28113,1,0,0:0:0:0:
256,192,28780,1,0,0:0:0:0:
256,192,28947,1,0,0:0:0:0:
256,192,29113,1,8,0:0:0:0:
256,192,29447,1,0,0:0:0:0:
256,192,29947,1,8,0:0:0:0:
256,192,30280,1,0,0:0:0:0:
256,192,30447,1,8,0:0:0:0:
256,192,30613,1,8,0:0:0:0:
256,192,30780,1,0,0:0:0:0:
256,192,31113,1,8,0:0:0:0:
256,192,31447,1,0,0:0:0:0:
256,192,31780,1,8,0:0:0:0:
256,192,32113,1,0,0:0:0:0:
256,192,32280,1,0,0:0:0:0:
256,192,32447,1,8,0:0:0:0:
256,192,32613,1,0,0:0:0:0:
256,192,33447,1,4,0:0:0:0:
256,192,34113,1,0,0:0:0:0:
256,192,34280,1,8,0:0:0:0:
256,192,34447,1,8,0:0:0:0:
256,192,34780,1,8,0:0:0:0:
256,192,35113,1,0,0:0:0:0:
256,192,35280,1,8,0:0:0:0:
256,192,35613,1,8,0:0:0:0:
256,192,35780,1,0,0:0:0:0:
256,192,35947,1,8,0:0:0:0:
256,192,36113,1,0,0:0:0:0:
256,192,36447,1,0,0:0:0:0:
256,192,36780,1,8,0:0:0:0:
256,192,37113,1,8,0:0:0:0:
256,192,37447,1,8,0:0:0:0:
256,192,37613,1,0,0:0:0:0:
256,192,37780,1,8,0:0:0:0:
256,192,37947,1,8,0:0:0:0:
256,192,38280,1,0,0:0:0:0:
256,192,38447,1,0,0:0:0:0:
256,192,38780,1,8,0:0:0:0:
256,192,39113,1,0,0:0:0:0:
256,192,39447,1,8,0:0:0:0:
256,192,39613,1,0,0:0:0:0:
256,192,39780,1,8,0:0:0:0:
256,192,40113,1,8,0:0:0:0:
256,192,40447,1,0,0:0:0:0:
256,192,40613,1,8,0:0:0:0:
256,192,40947,1,8,0:0:0:0:
256,192,41113,1,0,0:0:0:0:
256,192,41280,1,8,0:0:0:0:
256,192,41447,1,0,0:0:0:0:
256,192,41780,1,0,0:0:0:0:
256,192,42113,1,8,0:0:0:0:
256,192,42447,1,0,0:0:0:0:
256,192,42780,1,8,0:0:0:0:
256,192,42947,1,8,0:0:0:0:
256,192,43113,1,0,0:0:0:0:
256,192,43280,1,0,0:0:0:0:
256,192,43613,1,0,0:0:0:0:
256,192,43780,1,8,0:0:0:0:
256,192,44113,1,12,0:0:0:0:
256,192,44447,1,8,0:0:0:0:
256,192,44780,1,0,0:0:0:0:
256,192,44947,1,0,0:0:0:0:
256,192,45113,1,8,0:0:0:0:
256,192,45447,1,0,0:0:0:0:
256,192,45613,1,8,0:0:0:0:
256,192,45780,1,8,0:0:0:0:
256,192,45947,1,0,0:0:0:0:
256,192,46280,1,8,0:0:0:0:
256,192,46447,1,8,0:0:0:0:
256,192,46780,1,0,0:0:0:0:
256,192,46947,1,0,0:0:0:0:
256,192,47113,1,8,0:0:0:0:
256,192,47447,1,0,0:0:0:0:
256,192,47613,1,8,0:0:0:0:
256,192,47780,1,0,0:0:0:0:
256,192,47947,1,0,0:0:0:0:
256,192,48113,1,8,0:0:0:0:
256,192,48447,1,0,0:0:0:0:
256,192,48780,1,8,0:0:0:0:
256,192,48947,1,8,0:0:0:0:
256,192,49113,1,0,0:0:0:0:
256,192,49447,1,8,0:0:0:0:
256,192,49613,1,8,0:0:0:0:
256,192,49780,1,8,0:0:0:0:
256,192,50113,1,0,0:0:0:0:
256,192,50280,1,8,0:0:0:0:
256,192,50447,1,8,0:0:0:0:
256,192,50780,1,0,0:0:0:0:
256,192,50947,1,0,0:0:0:0:
256,192,51113,1,8,0:0:0:0:
256,192,51280,1,0,0:0:0:0:
256,192,51613,1,0,0:0:0:0:
256,192,51780,1,8,0:0:0:0:
256,192,52113,1,0,0:0:0:0:
256,192,52280,1,0,0:0:0:0:
256,192,52447,1,8,0:0:0:0:
256,192,52780,1,8,0:0:0:0:
256,192,52947,1,8,0:0:0:0:
256,192,53113,1,0,0:0:0:0:
256,192,53280,1,8,0:0:0:0:
256,192,53447,1,0,0:0:0:0:
256,192,53780,1,8,0:0:0:0:
256,192,54113,1,8,0:0:0:0:
256,192,54280,1,8,0:0:0:0:
256,192,54447,1,0,0:0:0:0:
256,192,54780,1,12,0:0:0:0:
256,192,55113,1,8,0:0:0:0:
256,192,55447,1,8,0:0:0:0:
256,192,55613,1,8,0:0:0:0:
256,192,55780,1,0,0:0:0:0:
256,192,55947,1,0,0:0:0:0:
256,192,56113,1,8,0:0:0:0:
256,192,56447,1,8,0:0:0:0:
256,192,56780,1,0,0:0:0:0:
256,192,56947,1,0,0:0:0:0:
256,192,57113,1,8,0:0:0:0:
256,192,57280,1,8,0:0:0:0:
256,192,57447,1,4,0:0:0:0:
256,192,57780,1,8,0:0:0:0:
256,192,58113,1,8,0:0:0:0:
256,192,58280,1,0,0:0:0:0:
256,192,58447,1,8,0:0:0:0:
256,192,58613,1,8,0:0:0:0:
256,192,58780,1,0,0:0:0:0:
256,192,59113,1,8,0:0:0:0:
256,192,59447,1,0,0:0:0:0:
256,192,59613,1,8,0:0:0:0:
256,192,59780,1,0,0:0:0:0:
256,192,59947,1,0,0:0:0:0:
256,192,60113,1,12,0:0:0:0:
256,192,60447,1,8,0:0:0:0:
256,192,60613,1,8,0:0:0:0:
256,192,60780,1,0,0:0:0:0:
256,192,61113,1,8,0:0:0:0:
256,192,61280,1,0,0:0:0:0:
256,192,61447,1,8,0:0:0:0:
256,192,61780,1,8,0:0:0:0:
256,192,61947,1,8,0:0:0:0:
256,192,62113,1,0,0:0:0:0:
256,192,62447,1,0,0:0:0:0:
256,192,62613,1,0,0:0:0:0:
256,192,62780,1,8,0:0:0:0:
256,192,62947,1,8,0:0:0:0:
256,192,63113,1,8,0:0:0:0:
256,192,63280,1,8,0:0:0:0:
256,192,63447,1,8,0:0:0:0:
256,192,63613,1,8,0:0:0:0:
256,192,63780,1,8,0:0:0:0:
256,192,63947,1,0,0:0:0:0:
256,192,64113,1,12,0:0:0:0:
256,192,65113,1,4,0:0:0:0:
256,192,65447,1,12,0:0:0:0:
256,192,65780,1,0,0:0:0:0:
256,192,65947,1,0,0:0:0:0:
256,192,66030,1,0,0:0:0:0:
256,192,66113,1,8,0:0:0:0:
256,192,66280,1,8,0:0:0:0:
256,192,66447,1,0,0:0:0:0:
256,192,66530,1,0,0:0:0:0:
256,192,66613,1,0,0:0:0:0:
256,192,66780,1,8,0:0:0:0:
256,192,67113,1,8,0:0:0:0:
256,192,67280,1,0,0:0:0:0:
256,192,67447,1,8,0:0:0:0:
256,192,67613,1,0,0:0:0:0:
256,192,67780,1,8,0:0:0:0:
256,192,67947,1,8,0:0:0:0:
256,192,68113,1,4,0:0:0:0:
256,192,68447,1,8,0:0:0:0:
256,192,68613,1,0,0:0:0:0:
256,192,68780,1,8,0:0:0:0:
256,192,68947,1,0,0:0:0:0:
256,192,69113,1,8,0:0:0:0:
256,192,69280,1,0,0:0:0:0:
256,192,69447,1,8,0:0:0:0:
256,192,69530,1,8,0:0:0:0:
256,192,69613,1,8,0:0:0:0:
256,192,69780,1,0,0:0:0:0:
256,192,69947,1,0,0:0:0:0:
256,192,70113,1,8,0:0:0:0:
256,192,70197,1,8,0:0:0:0:
256,192,70280,1,8,0:0:0:0:
256,192,70447,1,0,0:0:0:0:
256,192,70530,1,0,0:0:0:0:
256,192,70613,1,0,0:0:0:0:
256,192,70780,1,12,0:0:0:0:
256,192,71113,1,8,0:0:0:0:
256,192,71280,1,0,0:0:0:0:
256,192,71363,1,0,0:0:0:0:
256,192,71447,1,8,0:0:0:0:
256,192,71613,1,0,0:0:0:0:
256,192,71780,1,8,0:0:0:0:
256,192,71947,1,8,0:0:0:0:
256,192,72030,1,8,0:0:0:0:
256,192,72113,1,0,0:0:0:0:
256,192,72447,1,8,0:0:0:0:
256,192,72613,1,0,0:0:0:0:
256,192,72697,1,0,0:0:0:0:
256,192,72780,1,8,0:0:0:0:
256,192,72947,1,8,0:0:0:0:
256,192,73113,1,0,0:0:0:0:
256,192,73280,1,8,0:0:0:0:
256,192,73447,1,4,0:0:0:0:
256,192,73780,1,8,0:0:0:0:
256,192,73947,1,0,0:0:0:0:
256,192,74030,1,0,0:0:0:0:
256,192,74113,1,8,0:0:0:0:
256,192,74280,1,8,0:0:0:0:
256,192,74447,1,0,0:0:0:0:
256,192,74613,1,8,0:0:0:0:
256,192,74780,1,8,0:0:0:0:
256,192,74863,1,8,0:0:0:0:
256,192,74947,1,8,0:0:0:0:
256,192,75113,1,0,0:0:0:0:
256,192,75280,1,0,0:0:0:0:
256,192,75447,1,8,0:0:0:0:
256,192,75530,1,8,0:0:0:0:
256,192,75613,1,8,0:0:0:0:
256,192,75780,1,0,0:0:0:0:
256,192,75863,1,0,0:0:0:0:
256,192,75947,1,0,0:0:0:0:
256,192,76113,1,12,0:0:0:0:
256,192,76447,1,8,0:0:0:0:
256,192,76530,1,8,0:0:0:0:
256,192,76613,1,0,0:0:0:0:
256,192,76780,1,8,0:0:0:0:
256,192,76947,1,8,0:0:0:0:
256,192,77113,1,0,0:0:0:0:
256,192,77197,1,0,0:0:0:0:
256,192,77280,1,0,0:0:0:0:
256,192,77447,1,8,0:0:0:0:
256,192,77780,1,8,0:0:0:0:
256,192,77947,1,0,0:0:0:0:
256,192,78030,1,0,0:0:0:0:
256,192,78113,1,8,0:0:0:0:
256,192,78280,1,0,0:0:0:0:
256,192,78447,1,8,0:0:0:0:
256,192,78613,1,8,0:0:0:0:
256,192,78780,1,4,0:0:0:0:
256,192,79113,1,8,0:0:0:0:
256,192,79280,1,0,0:0:0:0:
256,192,79363,1,0,0:0:0:0:
256,192,79447,1,8,0:0:0:0:
256,192,79613,1,0,0:0:0:0:
256,192,79780,1,8,0:0:0:0:
256,192,79947,1,0,0:0:0:0:
256,192,80113,1,8,0:0:0:0:
256,192,80197,1,8,0:0:0:0:
256,192,80280,1,8,0:0:0:0:
256,192,80447,1,0,0:0:0:0:
256,192,80613,1,0,0:0:0:0:
256,192,80780,1,8,0:0:0:0:
256,192,80863,1,8,0:0:0:0:
256,192,80947,1,8,0:0:0:0:
256,192,81113,1,0,0:0:0:0:
256,192,81197,1,0,0:0:0:0:
256,192,81280,1,0,0:0:0:0:
256,192,81447,1,12,0:0:0:0:
256,192,81780,1,8,0:0:0:0:
256,192,81947,1,0,0:0:0:0:
256,192,82030,1,0,0:0:0:0:
256,192,82113,1,8,0:0:0:0:
256,192,82447,1,8,0:0:0:0:
256,192,82613,1,0,0:0:0:0:
256,192,82780,1,8,0:0:0:0:
256,192,83113,1,8,0:0:0:0:
256,192,83197,1,8,0:0:0:0:
256,192,83280,1,0,0:0:0:0:
256,192,83447,1,8,0:0:0:0:
256,192,83780,1,8,0:0:0:0:
256,192,83947,1,8,0:0:0:0:
256,192,84113,1,0,0:0:0:0:
256,192,84280,1,8,0:0:0:0:
256,192,84363,1,8,0:0:0:0:
256,192,84447,1,0,0:0:0:0:
256,192,84613,1,8,0:0:0:0:
256,192,84780,1,0,0:0:0:0:
256,192,84863,1,0,0:0:0:0:
256,192,84947,1,8,0:0:0:0:
256,192,85030,1,8,0:0:0:0:
256,192,85113,1,0,0:0:0:0:
256,192,85280,1,8,0:0:0:0:
256,192,85447,1,0,0:0:0:0:
256,192,85530,1,0,0:0:0:0:
256,192,85613,1,8,0:0:0:0:
256,192,85780,1,0,0:0:0:0:
256,192,85947,1,8,0:0:0:0:
256,192,86113,1,0,0:0:0:0:
256,192,86197,1,0,0:0:0:0:
256,192,86280,1,8,0:0:0:0:
256,192,86363,1,8,0:0:0:0:
256,192,86447,1,0,0:0:0:0:
256,192,86613,1,0,0:0:0:0:
256,192,86780,1,12,0:0:0:0:
256,192,87447,1,0,0:0:0:0:
256,192,87613,1,0,0:0:0:0:
256,192,87780,1,8,0:0:0:0:
256,192,88113,1,0,0:0:0:0:
256,192,88613,1,8,0:0:0:0:
256,192,88947,1,0,0:0:0:0:
256,192,89113,1,8,0:0:0:0:
256,192,89280,1,8,0:0:0:0:
256,192,89447,1,0,0:0:0:0:
256,192,89780,1,8,0:0:0:0:
256,192,90113,1,0,0:0:0:0:
256,192,90447,1,8,0:0:0:0:
256,192,90780,1,0,0:0:0:0:
256,192,90947,1,0,0:0:0:0:
256,192,91113,1,8,0:0:0:0:
256,192,91280,1,8,0:0:0:0:
256,192,92113,1,0,0:0:0:0:
256,192,92447,1,8,0:0:0:0:
256,192,92780,1,0,0:0:0:0:
256,192,92947,1,0,0:0:0:0:
256,192,93113,1,8,0:0:0:0:
256,192,93447,1,8,0:0:0:0:
256,192,93780,1,0,0:0:0:0:
256,192,93947,1,8,0:0:0:0:
256,192,94280,1,8,0:0:0:0:
256,192,94447,1,0,0:0:0:0:
256,192,94613,1,8,0:0:0:0:
256,192,94780,1,0,0:0:0:0:
256,192,95113,1,0,0:0:0:0:
256,192,95447,1,8,0:0:0:0:
256,192,95613,1,0,0:0:0:0:
256,192,95780,1,8,0:0:0:0:
256,192,96113,1,0,0:0:0:0:
256,192,96280,1,8,0:0:0:0:
256,192,96447,1,8,0:0:0:0:
256,192,96613,1,0,0:0:0:0:
256,192,96947,1,8,0:0:0:0:
256,192,97113,1,8,0:0:0:0:
256,192,97447,1,12,0:0:0:0:
256,192,97780,1,8,0:0:0:0:
256,192,98113,1,8,0:0:0:0:
256,192,98280,1,8,0:0:0:0:
256,192,98447,1,0,0:0:0:0:
256,192,98613,1,0,0:0:0:0:
256,192,98780,1,8,0:0:0:0:
256,192,99113,1,8,0:0:0:0:
256,192,99447,1,0,0:0:0:0:
256,192,99613,1,0,0:0:0:0:
256,192,99780,1,8,0:0:0:0:
256,192,99947,1,8,0:0:0:0:
256,192,100113,1,0,0:0:0:0:
256,192,100447,1,0,0:0:0:0:
256,192,100780,1,8,0:0:0:0:
256,192,100947,1,0,0:0:0:0:
256,192,101113,1,8,0:0:0:0:
256,192,101280,1,8,0:0:0:0:
256,192,101447,1,0,0:0:0:0:
256,192,101780,1,8,0:0:0:0:
256,192,102113,1,0,0:0:0:0:
256,192,102280,1,8,0:0:0:0:
256,192,102447,1,0,0:0:0:0:
256,192,102613,1,0,0:0:0:0:
256,192,102780,1,8,0:0:0:0:
256,192,103113,1,8,0:0:0:0:
256,192,103280,1,8,0:0:0:0:
256,192,103447,1,0,0:0:0:0:
256,192,103780,1,8,0:0:0:0:
256,192,103947,1,0,0:0:0:0:
256,192,104113,1,8,0:0:0:0:
256,192,104447,1,8,0:0:0:0:
256,192,104613,1,8,0:0:0:0:
256,192,104780,1,0,0:0:0:0:
256,192,105113,1,0,0:0:0:0:
256,192,105280,1,0,0:0:0:0:
256,192,105447,1,8,0:0:0:0:
256,192,105613,1,8,0:0:0:0:
256,192,105780,1,8,0:0:0:0:
256,192,105947,1,8,0:0:0:0:
256,192,106113,1,8,0:0:0:0:
256,192,106280,1,8,0:0:0:0:
256,192,106447,1,8,0:0:0:0:
256,192,106613,1,8,0:0:0:0:
256,192,106780,1,4,0:0:0:0:
256,192,108113,1,12,0:0:0:0:
256,192,109780,1,8,0:0:0:0:
256,192,109947,1,0,0:0:0:0:
256,192,110113,1,8,0:0:0:0:
256,192,110280,1,0,0:0:0:0:
256,192,110447,1,8,0:0:0:0:
256,192,110530,1,8,0:0:0:0:
256,192,110613,1,0,0:0:0:0:
256,192,110780,1,12,0:0:0:0:
256,192,110947,1,12,0:0:0:0:
256,192,111280,1,12,0:0:0:0:
256,192,111447,1,12,0:0:0:0:
256,192,111613,1,12,0:0:0:0:
256,192,111780,1,0,0:0:0:0:
256,192,111947,1,0,0:0:0:0:
256,192,112113,1,8,0:0:0:0:
256,192,112197,1,8,0:0:0:0:
256,192,112280,1,8,0:0:0:0:
256,192,112447,1,0,0:0:0:0:
256,192,112613,1,0,0:0:0:0:
256,192,112697,1,0,0:0:0:0:
256,192,112780,1,8,0:0:0:0:
256,192,112863,1,8,0:0:0:0:
256,192,112947,1,8,0:0:0:0:
256,192,113113,1,0,0:0:0:0:
256,192,113197,1,0,0:0:0:0:
256,192,113280,1,0,0:0:0:0:
256,192,113447,1,12,0:0:0:0:
256,192,113613,1,12,0:0:0:0:
256,192,113947,1,12,0:0:0:0:
256,192,114113,1,12,0:0:0:0:
256,192,114280,1,12,0:0:0:0:
256,192,114447,1,0,0:0:0:0:
256,192,114613,1,8,0:0:0:0:
256,192,114697,1,8,0:0:0:0:
256,192,114780,1,8,0:0:0:0:
256,192,114947,1,0,0:0:0:0:
256,192,115113,1,8,0:0:0:0:
256,192,115280,1,0,0:0:0:0:
256,192,115363,1,0,0:0:0:0:
256,192,115447,1,8,0:0:0:0:
256,192,115613,1,0,0:0:0:0:
256,192,115780,1,8,0:0:0:0:
256,192,115947,1,8,0:0:0:0:
256,192,116113,1,0,0:0:0:0:
256,192,116447,1,8,0:0:0:0:
256,192,116613,1,0,0:0:0:0:
256,192,116697,1,0,0:0:0:0:
256,192,116780,1,8,0:0:0:0:
256,192,116947,1,8,0:0:0:0:
256,192,117113,1,0,0:0:0:0:
256,192,117280,1,0,0:0:0:0:
256,192,117447,1,8,0:0:0:0:
256,192,117530,1,8,0:0:0:0:
256,192,117613,1,8,0:0:0:0:
256,192,117780,1,0,0:0:0:0:
256,192,117947,1,0,0:0:0:0:
256,192,118030,1,0,0:0:0:0:
256,192,118113,1,8,0:0:0:0:
256,192,118197,1,8,0:0:0:0:
256,192,118280,1,8,0:0:0:0:
256,192,118447,1,0,0:0:0:0:
256,192,118530,1,0,0:0:0:0:
256,192,118613,1,0,0:0:0:0:
256,192,118780,1,12,0:0:0:0:
256,192,118947,1,12,0:0:0:0:
256,192,119280,1,12,0:0:0:0:
256,192,119447,1,12,0:0:0:0:
256,192,119613,1,12,0:0:0:0:
256,192,119780,1,0,0:0:0:0:
256,192,119947,1,0,0:0:0:0:
256,192,120030,1,0,0:0:0:0:
256,192,120113,1,8,0:0:0:0:
256,192,120197,1,8,0:0:0:0:
256,192,120280,1,0,0:0:0:0:
256,192,120447,1,8,0:0:0:0:
256,192,120613,1,0,0:0:0:0:
256,192,120697,1,0,0:0:0:0:
256,192,120780,1,8,0:0:0:0:
256,192,120947,1,0,0:0:0:0:
256,192,121113,1,8,0:0:0:0:
256,192,121280,1,8,0:0:0:0:
256,192,121447,1,0,0:0:0:0:
256,192,121780,1,8,0:0:0:0:
256,192,121947,1,0,0:0:0:0:
256,192,122030,1,0,0:0:0:0:
256,192,122113,1,8,0:0:0:0:
256,192,122280,1,8,0:0:0:0:
256,192,122447,1,0,0:0:0:0:
256,192,122613,1,0,0:0:0:0:
256,192,122780,1,8,0:0:0:0:
256,192,122863,1,8,0:0:0:0:
256,192,122947,1,8,0:0:0:0:
256,192,123113,1,0,0:0:0:0:
256,192,123280,1,0,0:0:0:0:
256,192,123363,1,0,0:0:0:0:
256,192,123447,1,8,0:0:0:0:
256,192,123530,1,8,0:0:0:0:
256,192,123613,1,8,0:0:0:0:
256,192,123780,1,0,0:0:0:0:
256,192,123863,1,0,0:0:0:0:
256,192,123947,1,0,0:0:0:0:
256,192,124113,1,12,0:0:0:0:
256,192,124280,1,12,0:0:0:0:
256,192,124613,1,12,0:0:0:0:
256,192,124780,1,12,0:0:0:0:
256,192,124947,1,12,0:0:0:0:
256,192,125113,1,0,0:0:0:0:
256,192,125280,1,0,0:0:0:0:
256,192,125363,1,0,0:0:0:0:
256,192,125447,1,8,0:0:0:0:
256,192,125530,1,8,0:0:0:0:
256,192,125613,1,0,0:0:0:0:
256,192,125780,1,8,0:0:0:0:
256,192,125947,1,0,0:0:0:0:
256,192,126113,1,8,0:0:0:0:
256,192,126197,1,8,0:0:0:0:
256,192,126280,1,0,0:0:0:0:
256,192,126447,1,8,0:0:0:0:
256,192,126780,1,8,0:0:0:0:
256,192,126947,1,0,0:0:0:0:
256,192,127030,1,0,0:0:0:0:
256,192,127113,1,8,0:0:0:0:
256,192,127280,1,0,0:0:0:0:
256,192,127447,1,8,0:0:0:0:
256,192,127530,1,8,0:0:0:0:
256,192,127613,1,0,0:0:0:0:
256,192,127697,1,0,0:0:0:0:
256,192,127780,1,8,0:0:0:0:
256,192,127947,1,8,0:0:0:0:
256,192,128113,1,0,0:0:0:0:
256,192,128197,1,0,0:0:0:0:
256,192,128280,1,8,0:0:0:0:
256,192,128363,1,8,0:0:0:0:
256,192,128447,1,0,0:0:0:0:
256,192,128613,1,0,0:0:0:0:
256,192,128780,1,8,0:0:0:0:
256,192,128863,1,8,0:0:0:0:
256,192,128947,1,0,0:0:0:0:
256,192,129030,1,0,0:0:0:0:
256,192,129113,1,8,0:0:0:0:
256,192,129280,1,0,0:0:0:0:
256,192,129447,1,12,0:0:0:0:
