osu file format v14

[General]
AudioFilename: audio.mp3
AudioLeadIn: 0
PreviewTime: 7336
Countdown: 0
SampleSet: Soft
StackLeniency: 0.7
Mode: 3
LetterboxInBreaks: 0
SpecialStyle: 0
WidescreenStoryboard: 1

[Editor]
DistanceSpacing: 1.4
BeatDivisor: 4
GridSize: 8
TimelineZoom: 1

[Metadata]
Title:Itsumo Nando demo (Cut Ver.)
TitleUnicode:いつも何度でも (Cut Ver.)
Artist:Alpha Wave Music Box
ArtistUnicode:α波オルゴール
Creator:Matthewwwwww
Version:Easy
Source:千と千尋の神隠し
Tags:instrumental anime orugooru orugouru オルゴール 癒しの音楽 healing background music bgm relaxing orgel : hayao miyazaki collection always with me studio ghibli no-face ogino haku sen to chihiro no kamikakushi and chihiro's spiriting spirited away 石黒孝子 takako ishiguro 虹輪夢七 Nijiwa Yumeshichi 久石譲 Joe Hisaishi 藤沢守 Fujisawa Mamoru
BeatmapID:4162643
BeatmapSetID:2001802

[Difficulty]
HPDrainRate:6
CircleSize:9
OverallDifficulty:6
ApproachRate:5
SliderMultiplier:1.4
SliderTickRate:1

[Events]
//Background and Video events
0,0,"1311453.jpg",0,0
//Break Periods
//Storyboard Layer 0 (Background)
//Storyboard Layer 1 (Fail)
//Storyboard Layer 2 (Pass)
//Storyboard Layer 3 (Foreground)
//Storyboard Layer 4 (Overlay)
//Storyboard Sound Samples

[TimingPoints]
1595,521.966072205307,3,2,1,25,1,0

[HitObjects]
28,192,1595,5,0,0:0:0:0:
142,192,2116,1,0,0:0:0:0:
312,192,2638,1,0,0:0:0:0:
28,192,3160,1,0,0:0:0:0:
312,192,3682,1,0,0:0:0:0:
142,192,3943,1,0,0:0:0:0:
369,192,4204,1,0,0:0:0:0:
28,192,4726,1,0,0:0:0:0:
142,192,5248,1,0,0:0:0:0:
312,192,5770,1,0,0:0:0:0:
28,192,6292,1,0,0:0:0:0:
312,192,6814,1,0,0:0:0:0:
142,192,7075,1,0,0:0:0:0:
426,192,7336,1,0,0:0:0:70:F#7R_Gb7R_s.wav
369,192,7597,1,0,0:0:0:70:G#7R_Ab7R_s.wav
199,192,7858,1,0,0:0:0:70:A#7R_Bb7R_s.wav
142,192,8119,1,0,0:0:0:70:F#7R_Gb7R_s.wav
312,192,8380,128,0,9163:0:0:0:70:C#8R_Db8R_s.wav
369,192,9163,1,0,0:0:0:70:A#7R_Bb7R_s.wav
199,192,9424,128,0,9946:0:0:0:70:G#7R_Ab7R_s.wav
256,192,9946,128,0,10468:0:0:0:70:C#8R_Db8R_s.wav
199,192,10468,128,0,10990:0:0:0:70:G#7R_Ab7R_s.wav
85,192,10990,1,0,0:0:0:70:F#7R_Gb7R_s.wav
28,192,11251,1,0,0:0:0:70:D#7R_Eb7R_s.wav
369,192,11512,128,0,12295:0:0:0:70:A#7R_Bb7R_s.wav
426,192,12295,1,0,0:0:0:70:F#7R_Gb7R_s.wav
312,192,12556,128,0,13600:0:0:0:70:F7R_s.wav
369,192,13600,1,0,0:0:0:70:F7R_s.wav
142,192,14122,128,0,14644:0:0:0:70:D#7R_Eb7R_s.wav
199,192,14644,128,0,15166:0:0:0:70:F7R_s.wav
256,192,15166,1,0,0:0:0:70:F#7R_Gb7R_s.wav
312,192,15427,1,0,0:0:0:70:G#7R_Ab7R_s.wav
28,192,15688,128,0,16210:0:0:0:70:C#7R_Db7R_s.wav
85,192,16210,128,0,16732:0:0:0:70:F#7R_Gb7R_s.wav
142,192,16732,1,0,0:0:0:70:G#7R_Ab7R_s.wav
199,192,16992,1,0,0:0:0:70:A#7R_Bb7R_s.wav
426,192,17253,128,0,17775:0:0:0:70:B7R_s.wav
369,192,17775,1,0,0:0:0:70:B7R_s.wav
312,192,18036,1,0,0:0:0:70:A#7R_Bb7R_s.wav
256,192,18297,1,0,0:0:0:70:G#7R_Ab7R_s.wav
199,192,18558,1,0,0:0:0:70:F#7R_Gb7R_s.wav
256,192,18819,128,0,19863:0:0:0:70:G#7R_Ab7R_s.wav
142,192,19863,1,0,0:0:0:70:F#7R_Gb7R_s.wav
256,192,20124,1,0,0:0:0:70:G#7R_Ab7R_s.wav
369,192,20385,1,0,0:0:0:70:A#7R_Bb7R_s.wav
85,192,20646,1,0,0:0:0:70:F#7R_Gb7R_s.wav
426,192,20907,128,0,21690:0:0:0:70:C#8R_Db8R_s.wav
483,192,21690,1,0,0:0:0:70:A#7R_Bb7R_s.wav
312,192,21951,128,0,22473:0:0:0:70:G#7R_Ab7R_s.wav
369,192,22473,128,0,22995:0:0:0:70:C#8R_Db8R_s.wav
256,192,22995,128,0,23517:0:0:0:70:G#7R_Ab7R_s.wav
199,192,23517,1,0,0:0:0:70:F#7R_Gb7R_s.wav
85,192,23778,1,0,0:0:0:70:D#7R_Eb7R_s.wav
85,192,24039,128,0,24561:0:0:0:70:D#7R_Eb7R_s.wav
199,192,24561,1,0,0:0:0:70:F7R_s.wav
256,192,24822,1,0,0:0:0:70:F#7R_Gb7R_s.wav
28,192,25083,128,0,26388:0:0:0:70:C#7R_Db7R_s.wav
85,192,26388,1,0,0:0:0:70:C#7R_Db7R_s.wav
142,192,26649,128,0,27171:0:0:0:70:D#7R_Eb7R_s.wav
199,192,27171,128,0,27693:0:0:0:70:F7R_s.wav
256,192,27693,1,0,0:0:0:70:F#7R_Gb7R_s.wav
369,192,27954,1,0,0:0:0:70:G#7R_Ab7R_s.wav
28,192,28215,128,0,28737:0:0:0:70:C#7R_Db7R_s.wav
85,192,28737,128,0,29259:0:0:0:70:F#7R_Gb7R_s.wav
199,192,29259,1,0,0:0:0:70:G#7R_Ab7R_s.wav
312,192,29520,1,0,0:0:0:70:A#7R_Bb7R_s.wav
483,192,29781,128,0,30303:0:0:0:70:B7R_s.wav
426,192,30303,1,0,0:0:0:70:B7R_s.wav
369,192,30564,1,0,0:0:0:70:A#7R_Bb7R_s.wav
256,192,30825,1,0,0:0:0:70:G#7R_Ab7R_s.wav
142,192,31086,1,0,0:0:0:70:F#7R_Gb7R_s.wav
142,192,31347,128,0,32912:0:0:0:70:F#7R_Gb7R_s.wav
28,192,32912,1,0,0:0:0:0:
312,192,33434,1,0,0:0:0:0:
369,192,33956,1,0,0:0:0:70:A#7R_Bb7R_s.wav
312,192,34217,1,0,0:0:0:70:B7R_s.wav
426,192,34478,128,0,35000:0:0:0:70:C#8R_Db8R_s.wav
369,192,35000,128,0,35522:0:0:0:70:C#8R_Db8R_s.wav
426,192,35522,128,0,36044:0:0:0:70:C#8R_Db8R_s.wav
369,192,36044,128,0,36566:0:0:0:70:C#8R_Db8R_s.wav
312,192,36566,1,0,0:0:0:70:C#8R_Db8R_s.wav
426,192,36827,1,0,0:0:0:70:D#8R_Eb8R_s.wav
256,192,37088,1,0,0:0:0:70:C#8R_Db8R_s.wav
85,192,37349,1,0,0:0:0:70:B7R_s.wav
369,192,37610,128,0,38132:0:0:0:70:A#7R_Bb7R_s.wav
426,192,38132,128,0,38654:0:0:0:70:A#7R_Bb7R_s.wav
312,192,38654,128,0,39176:0:0:0:70:A#7R_Bb7R_s.wav
369,192,39176,128,0,39698:0:0:0:70:A#7R_Bb7R_s.wav
256,192,39698,1,0,0:0:0:70:A#7R_Bb7R_s.wav
312,192,39959,1,0,0:0:0:70:B7R_s.wav
199,192,40220,1,0,0:0:0:70:A#7R_Bb7R_s.wav
85,192,40481,1,0,0:0:0:70:G#7R_Ab7R_s.wav
142,192,40742,128,0,41264:0:0:0:70:F#7R_Gb7R_s.wav
199,192,41264,128,0,41786:0:0:0:70:F#7R_Gb7R_s.wav
256,192,41786,1,0,0:0:0:70:F#7R_Gb7R_s.wav
312,192,42047,1,0,0:0:0:70:F7R_s.wav
28,192,42308,128,0,42830:0:0:0:70:D#7R_Eb7R_s.wav
142,192,42830,128,0,43352:0:0:0:70:F7R_s.wav
199,192,43352,1,0,0:0:0:70:F7R_s.wav
256,192,43613,1,0,0:0:0:70:F#7R_Gb7R_s.wav
312,192,43874,128,0,44396:0:0:0:70:G#7R_Ab7R_s.wav
199,192,44396,1,0,0:0:0:70:G#7R_Ab7R_s.wav
426,192,44657,1,0,0:0:0:70:A#7R_Bb7R_s.wav
199,192,44918,1,0,0:0:0:70:G#7R_Ab7R_s.wav
426,192,45179,1,0,0:0:0:70:A#7R_Bb7R_s.wav
199,192,45440,128,0,46484:0:0:0:70:G#7R_Ab7R_s.wav
369,192,46484,1,0,0:0:0:70:A#7R_Bb7R_s.wav
256,192,46745,1,0,0:0:0:70:B7R_s.wav
426,192,47006,1,0,0:0:0:70:C#8R_Db8R_s.wav
426,192,47528,1,0,0:0:0:70:C#8R_Db8R_s.wav
426,192,48049,1,0,0:0:0:70:C#8R_Db8R_s.wav
426,192,48571,128,0,49093:0:0:0:70:C#8R_Db8R_s.wav
369,192,49093,1,0,0:0:0:70:C#8R_Db8R_s.wav
483,192,49354,1,0,0:0:0:70:D#8R_Eb8R_s.wav
369,192,49615,1,0,0:0:0:70:C#8R_Db8R_s.wav
199,192,49876,1,0,0:0:0:70:B7R_s.wav
312,192,50137,1,0,0:0:0:70:A#7R_Bb7R_s.wav
312,192,50659,1,0,0:0:0:70:A#7R_Bb7R_s.wav
312,192,51181,128,0,51703:0:0:0:70:A#7R_Bb7R_s.wav
256,192,51703,1,0,0:0:0:70:A#7R_Bb7R_s.wav
426,192,51964,1,0,0:0:0:70:B7R_s.wav
312,192,52225,1,0,0:0:0:70:A#7R_Bb7R_s.wav
85,192,52486,1,0,0:0:0:70:G#7R_Ab7R_s.wav
199,192,52747,1,0,0:0:0:70:F#7R_Gb7R_s.wav
142,192,53008,1,0,0:0:0:70:F7R_s.wav
85,192,53269,128,0,53791:0:0:0:70:D#7R_Eb7R_s.wav
142,192,53791,1,0,0:0:0:70:D#7R_Eb7R_s.wav
256,192,54052,1,0,0:0:0:70:F7R_s.wav
199,192,54313,1,0,0:0:0:70:F#7R_Gb7R_s.wav
369,192,54574,1,0,0:0:0:70:G#7R_Ab7R_s.wav
28,192,54835,128,0,55357:0:0:0:70:C#7R_Db7R_s.wav
85,192,55357,128,0,55879:0:0:0:70:F#7R_Gb7R_s.wav
142,192,55879,1,0,0:0:0:70:G#7R_Ab7R_s.wav
312,192,56140,1,0,0:0:0:70:A#7R_Bb7R_s.wav
256,192,56401,128,0,57184:0:0:0:70:G#7R_Ab7R_s.wav
369,192,57184,1,0,0:0:0:70:G#7R_Ab7R_s.wav
369,192,57445,1,0,0:0:0:70:G#7R_Ab7R_s.wav
199,192,57706,1,0,0:0:0:70:F#7R_Gb7R_s.wav
199,192,57967,128,0,58489:0:0:0:70:F#7R_Gb7R_s.wav
256,192,58489,1,0,0:0:0:0:
