osu file format v14

[General]
AudioFilename: audio.mp3
AudioLeadIn: 0
PreviewTime: 46509
Countdown: 0
SampleSet: Soft
StackLeniency: 0.2
Mode: 0
LetterboxInBreaks: 0
WidescreenStoryboard: 1

[Editor]
Bookmarks: 6391,11497,21710,47082,67667,77880,85380
DistanceSpacing: 0.6
BeatDivisor: 4
GridSize: 4
TimelineZoom: 1.8

[Metadata]
Title:Darling in the Night (TV Size)
TitleUnicode:Darling in the Night (TV Size)
Artist:Alpha (CV: Seto Asami)
ArtistUnicode:アルファ(CV: 瀬戸麻沙美)
Creator:pnky
Version:Insane
Source:陰の実力者になりたくて!
Tags:japanese j-rock jrock rock female vocalist vocals kagejitsu! kage no jitsuryokusha ni naritakute! eminence in shadow garden To Be a Power in the Shadows! season 1 one 1st ed ending
BeatmapID:4033393
BeatmapSetID:1948591

[Difficulty]
HPDrainRate:5
CircleSize:4
OverallDifficulty:8
ApproachRate:9
SliderMultiplier:1.6
SliderTickRate:1

[Events]
//Background and Video events
0,0,"alpha.jpg",0,0
//Break Periods
//Storyboard Layer 0 (Background)
//Storyboard Layer 1 (Fail)
//Storyboard Layer 2 (Pass)
//Storyboard Layer 3 (Foreground)
//Storyboard Layer 4 (Overlay)
//Storyboard Sound Samples

[TimingPoints]
1270,319.148936170213,4,2,1,50,1,0
1270,-166.666666666667,4,2,1,50,0,0
6057,-125,4,2,1,50,0,0
6376,-100,4,2,1,75,0,0
11482,-222.222222222222,4,2,1,45,0,0
15312,-153.846153846154,4,2,1,45,0,0
16589,-222.222222222222,4,2,1,45,0,0
21695,-117.647058823529,4,2,1,60,0,0
22972,-95.238095238095,4,2,1,60,0,0
23291,-117.647058823529,4,2,1,60,0,0
26801,-95.238095238095,4,2,1,60,0,0
27121,-117.647058823529,4,2,1,60,0,0
29355,-95.238095238095,4,2,1,60,0,0
29674,-95.238095238095,4,2,1,42,0,0
29833,-95.238095238095,4,2,1,45,0,0
29993,-95.238095238095,4,2,1,48,0,0
30152,-95.238095238095,4,2,1,51,0,0
30312,-95.238095238095,4,2,1,54,0,0
30472,-95.238095238095,4,2,1,57,0,0
30631,-95.238095238095,4,2,1,60,0,0
31908,-125,4,2,1,55,0,0
39248,-100,4,2,1,55,0,0
39567,-111.111111111111,4,2,1,65,0,0
44035,-125,4,2,1,65,0,0
44674,-125,4,2,1,75,0,0
45791,-90.9090909090909,4,2,1,75,0,0
46589,-90.9090909090909,4,2,1,50,0,0
47067,-83.3333333333333,4,2,1,80,0,1
56163,-83.3333333333333,4,2,1,75,0,0
57280,-83.3333333333333,4,2,1,80,0,1
67652,-125,4,2,1,65,0,0
72440,-100,4,2,1,65,0,0
72759,-83.3333333333333,4,2,1,65,0,0
73078,-125,4,2,1,65,0,0
75631,-125,4,2,1,40,0,0
75791,-125,4,2,1,45,0,0
75950,-125,4,2,1,50,0,0
76110,-125,4,2,1,55,0,0
76270,-125,4,2,1,60,0,0
76429,-125,4,2,1,65,0,0
76589,-142.857142857143,4,2,1,65,0,0
77227,-142.857142857143,4,2,2,65,0,0
77307,-142.857142857143,4,2,1,65,0,0
77785,-142.857142857143,4,2,1,5,0,0
77865,-250.000000000001,4,2,1,40,0,0
80418,-250.000000000001,4,2,2,40,0,0
80498,-250.000000000001,4,2,1,40,0,0
82972,-100,4,2,1,70,0,0
88078,-100,4,2,1,5,0,0

[Colours]
Combo1 : 120,250,120
Combo2 : 225,220,180
Combo3 : 100,160,210
Combo4 : 250,250,140

[HitObjects]
77,69,1270,6,0,P|72:123|101:167,1,95.9999970703126,2|0,0:0|0:0,0:0:0:0:
176,141,1748,2,0,P|181:87|152:43,1,95.9999970703126,2|0,0:0|0:0,0:0:0:0:
107,246,2227,6,0,P|60:243|23:214,1,95.9999970703126,2|0,0:0|0:0,0:0:0:0:
189,227,2706,2,0,P|233:209|258:170,1,95.9999970703126,2|0,0:0|0:0,0:0:0:0:
105,334,3184,6,0,P|93:363|91:391,1,47.9999985351563,2|0,0:0|0:0,0:0:0:0:
219,310,3504,2,0,P|239:333|250:359,1,47.9999985351563,2|0,0:0|0:0,0:0:0:0:
336,363,3823,6,0,P|363:323|362:263,1,95.9999970703126,2|0,0:0|0:0,0:0:0:0:
491,193,4301,2,0,P|464:233|465:293,1,95.9999970703126,2|0,0:0|0:0,0:0:0:0:
512,355,4780,1,2,0:0:0:0:
324,201,5099,1,2,0:0:0:0:
316,221,6057,6,0,L|213:232,1,96,8|0,3:0|0:0,0:0:0:0:
168,289,6376,6,0,P|120:256|11:267,1,160,4|8,3:2|0:0,0:0:0:0:
67,340,6855,1,0,3:2:0:0:
67,340,6934,1,0,3:2:0:0:
67,340,7014,1,0,3:2:0:0:
81,120,7174,1,0,3:2:0:0:
0,103,7333,2,0,P|2:154|27:187,1,80,8|0,0:0|0:0,0:0:0:0:
208,8,7652,6,0,P|153:39|50:35,1,160,0|8,3:2|0:0,0:0:0:0:
0,103,8131,1,0,3:2:0:0:
0,103,8211,1,0,3:2:0:0:
0,103,8291,2,0,P|2:154|27:187,1,80,0|0,3:2|3:2,0:0:0:0:
161,328,8610,2,0,P|163:277|188:244,1,80,8|0,0:0|0:0,0:0:0:0:
261,209,8929,5,4,3:2:0:0:
180,159,9248,5,0,3:2:0:0:
180,159,9408,1,0,3:2:0:0:
259,305,9567,5,0,3:2:0:0:
259,305,9727,1,0,3:2:0:0:
345,163,9887,5,0,3:2:0:0:
282,222,10046,1,0,3:2:0:0:
386,360,10206,5,4,3:2:0:0:
453,307,10365,1,0,3:2:0:0:
453,307,10445,1,0,1:2:0:0:
453,307,10525,2,0,L|448:256,1,40,0|0,1:2|0:0,0:0:0:0:
317,130,10684,5,0,3:2:0:0:
317,130,10764,1,0,1:2:0:0:
317,130,10844,2,0,L|312:181,1,40,0|0,1:2|0:0,0:0:0:0:
245,245,11004,5,8,3:0:0:0:
161,265,11163,5,8,3:0:0:0:
118,238,11323,5,4,3:0:0:0:
105,217,11402,1,4,3:0:0:0:
106,202,11482,6,0,L|117:118,1,71.9999978027344,4|2,3:2|3:2,0:0:0:0:
35,112,11961,1,2,0:0:0:0:
90,53,12121,2,0,P|126:49|164:67,1,71.9999978027344,2|2,3:2|3:2,0:0:0:0:
35,112,12599,1,2,0:0:0:0:
183,139,12759,2,0,P|147:143|109:125,2,71.9999978027344,0|0|0,3:2|3:2|3:2,0:0:0:0:
238,24,13716,6,0,P|242:44|251:64,1,35.9999989013672,2|2,3:2|0:0,0:0:0:0:
415,87,14035,2,0,P|380:71|339:72,1,71.9999978027344,2|0,3:2|3:2,0:0:0:0:
362,153,14514,1,2,0:0:0:0:
414,220,14674,2,0,P|379:236|338:235,1,71.9999978027344,2|0,3:2|3:2,0:0:0:0:
362,153,15152,1,2,0:0:0:0:
263,215,15312,2,0,P|262:262|297:308,2,103.999995239258,2|2|10,3:2|3:2|3:2,0:0:0:0:
392,320,16270,1,2,1:2:0:0:
392,320,16349,1,0,1:2:0:0:
392,320,16429,2,0,L|427:311,1,25.9999988098145,0|0,1:2|0:0,0:0:0:0:
294,306,16589,6,0,P|253:286|213:288,1,71.9999978027344,0|2,3:2|3:2,0:0:0:0:
163,331,17067,1,2,0:0:0:0:
32,356,17227,2,0,P|73:376|113:374,1,71.9999978027344,2|2,3:2|3:2,0:0:0:0:
163,331,17706,1,2,0:0:0:0:
104,224,17865,2,0,L|88:305,2,71.9999978027344,0|0|0,3:2|3:2|3:2,0:0:0:0:
227,133,18823,6,0,P|227:116|219:95,1,35.9999989013672,2|2,3:2|0:0,0:0:0:0:
190,191,19142,2,0,P|215:166|226:132,1,71.9999978027344,2|0,3:2|3:2,0:0:0:0:
150,124,19621,1,2,0:0:0:0:
249,6,19780,2,0,P|223:30|212:64,1,71.9999978027344,2|0,3:2|3:2,0:0:0:0:
292,74,20259,1,2,0:0:0:0:
433,31,20418,5,2,3:2:0:0:
374,93,20578,1,0,0:0:0:0:
352,15,20738,1,8,2:2:0:0:
352,15,20897,1,0,0:0:0:0:
480,144,21057,5,0,3:2:0:0:
472,223,21216,1,0,3:2:0:0:
464,302,21376,1,8,2:2:0:0:
393,358,21535,5,4,3:0:0:0:
393,358,21615,1,4,3:0:0:0:
393,358,21695,2,0,P|336:332|249:343,1,136.000002593994,6|10,3:2|0:0,0:0:0:0:
199,266,22174,2,0,P|193:284|191:304,1,34.0000006484985,2|0,0:0|3:2,0:0:0:0:
123,384,22333,2,0,L|111:313,1,68.0000012969971,2|0,3:2|3:2,0:0:0:0:
35,236,22652,2,0,B|7:218|7:218|26:251,1,68.0000012969971,10|2,0:0|0:0,0:0:0:0:
27,337,22972,6,0,L|191:298,1,167.999994873047,2|10,3:2|0:0,0:0:0:0:
265,225,23450,1,2,0:0:0:0:
265,225,23530,1,0,1:2:0:0:
265,225,23610,2,0,P|241:194|235:159,1,68.0000012969971,2|0,3:2|3:2,0:0:0:0:
353,236,23929,2,0,P|344:268|322:294,1,68.0000012969971,8|0,0:0|3:2,0:0:0:0:
325,150,24248,6,0,L|465:133,1,136.000002593994,2|10,3:2|2:2,0:0:0:0:
280,16,24727,1,2,0:0:0:0:
280,16,24807,1,0,1:2:0:0:
280,16,24887,2,0,P|279:56|257:90,1,68.0000012969971,2|0,3:2|3:2,0:0:0:0:
145,179,25206,1,10,0:0:0:0:
178,97,25365,1,2,0:0:0:0:
64,217,25525,5,2,3:2:0:0:
30,70,25684,1,2,3:2:0:0:
64,217,25844,1,10,0:0:0:0:
26,300,26004,5,2,0:0:0:0:
26,300,26083,1,0,1:0:0:0:
26,300,26163,2,0,L|106:308,1,68.0000012969971,2|0,3:2|3:2,0:0:0:0:
246,168,26482,2,0,L|137:178,1,102.000001945496,10|0,0:0|0:0,0:0:0:0:
186,259,26801,6,0,P|180:294|281:297,1,167.999994873047,4|10,3:2|0:0,0:0:0:0:
371,211,27280,1,2,0:0:0:0:
371,211,27360,1,0,1:2:0:0:
371,211,27440,2,0,L|364:283,1,68.0000012969971,2|0,3:2|3:2,0:0:0:0:
489,353,27759,2,0,L|495:285,1,68.0000012969971,10|2,0:0|0:0,0:0:0:0:
401,16,28078,6,0,P|393:82|431:136,1,136.000002593994,4|8,3:2|0:0,0:0:0:0:
501,91,28557,1,0,0:0:0:0:
501,91,28637,1,0,1:2:0:0:
501,91,28716,2,0,P|497:48|480:22,1,68.0000012969971,0|0,3:2|3:2,0:0:0:0:
315,103,29035,1,10,0:0:0:0:
236,93,29195,1,2,0:0:0:0:
146,31,29355,6,0,L|169:207,1,167.999994873047,6|0,3:2|3:2,0:0:0:0:
243,235,29833,1,2,3:2:0:0:
122,314,29993,1,2,3:2:0:0:
122,314,30152,1,0,3:2:0:0:
281,384,30312,1,0,3:2:0:0:
281,384,30472,1,2,3:2:0:0:
400,259,30631,6,0,L|306:274,1,83.9999974365235,6|0,3:2|3:2,0:0:0:0:
243,235,30950,1,8,0:0:0:0:
462,325,31110,2,0,P|487:256|441:178,1,167.999994873047,8|8,3:0|3:0,0:0:0:0:
354,75,31589,1,4,3:0:0:0:
369,150,31748,1,12,3:0:0:0:
442,178,31908,6,0,B|486:155|486:155|475:68,1,128,6|2,3:2|0:0,0:0:0:0:
369,150,32387,1,2,3:2:0:0:
296,174,32546,1,0,3:2:0:0:
296,174,32865,2,0,L|229:162,1,64,6|0,0:1|0:0,0:0:0:0:
103,133,33184,5,0,3:2:0:0:
158,74,33344,2,0,P|215:77|281:41,2,128,0|0|2,3:2|3:2|3:2,0:0:0:0:
48,192,34142,2,0,L|66:303,1,96,4|0,3:1|0:0,0:0:0:0:
172,321,34461,6,0,P|135:284|52:293,1,128,6|2,3:2|0:0,0:0:0:0:
241,384,34940,1,2,3:2:0:0:
252,366,35099,2,0,P|260:326|253:288,1,64,0|0,3:2|0:0,0:0:0:0:
290,175,35418,2,0,P|299:214|322:246,1,64,6|0,2:1|0:0,0:0:0:0:
452,276,35738,5,0,3:2:0:0:
452,276,35897,2,0,L|385:268,1,64,0|0,3:2|0:0,0:0:0:0:
459,289,36216,2,0,L|392:281,1,64,0|0,3:2|0:0,0:0:0:0:
212,134,36535,1,2,3:2:0:0:
285,86,36695,1,4,3:1:0:0:
290,175,36855,1,2,0:0:0:0:
76,57,37014,6,0,L|221:44,1,128,6|2,3:2|0:0,0:0:0:0:
108,158,37493,1,2,3:2:0:0:
95,174,37652,2,0,L|10:165,1,64,0|2,3:2|0:0,0:0:0:0:
183,280,37972,2,0,L|98:271,1,64,6|0,2:1|0:0,0:0:0:0:
52,381,38291,5,0,3:2:0:0:
52,381,38450,2,0,L|31:246,2,128,0|0|0,3:2|3:2|3:2,0:0:0:0:
193,200,39248,2,0,L|182:285,1,80,8|0,3:2|0:0,0:0:0:0:
303,366,39567,6,0,P|361:303|486:307,1,215.999993408203,6|0,3:2|3:2,0:0:0:0:
393,201,40206,2,0,P|463:190|509:138,1,143.999995605469,8|2,0:0|0:0,0:0:0:0:
457,65,40684,5,0,1:2:0:0:
457,65,40764,1,0,1:2:0:0:
457,65,40844,1,2,3:2:0:0:
362,119,41004,2,0,P|355:79|348:48,1,71.9999978027344,0|0,3:2|0:0,0:0:0:0:
266,11,41323,1,0,3:2:0:0:
125,127,41482,5,8,0:0:0:0:
209,107,41642,1,0,3:2:0:0:
172,217,41801,5,10,3:0:0:0:
208,201,41961,1,4,3:0:0:0:
149,40,42121,6,0,L|1:25,1,143.999995605469,6|0,3:2|3:2,0:0:0:0:
209,107,42599,1,0,3:2:0:0:
110,270,42759,2,0,L|125:122,1,143.999995605469,10|0,0:0|0:0,0:0:0:0:
31,315,43238,6,0,P|63:347|158:350,2,143.999995605469,0|10|2,3:2|0:0|3:2,0:0:0:0:
265,261,44035,2,0,L|198:269,1,64,10|2,3:2|0:0,0:0:0:0:
311,376,44355,2,0,L|244:384,1,64,2|2,3:2|0:0,0:0:0:0:
427,224,44674,5,0,3:2:0:0:
489,293,44833,1,0,3:2:0:0:
201,268,45152,5,0,3:2:0:0:
366,31,45472,5,0,3:2:0:0:
337,120,45631,1,8,0:0:0:0:
276,47,45791,6,0,P|220:19|140:32,1,132.00000402832,0|0,3:2|0:0,0:0:0:0:
152,25,46110,2,0,L|161:76,1,44.0000013427735,8|0,3:2|0:0,0:0:0:0:
63,193,46270,1,8,3:2:0:0:
63,193,46589,6,0,L|110:187,1,44.0000013427735,2|2,0:0|0:0,0:0:0:0:
117,264,46748,2,0,L|161:259,1,44.0000013427735,2|2,0:0|0:0,0:0:0:0:
81,347,46908,2,0,L|128:341,1,44.0000013427735,2|2,0:0|0:0,0:0:0:0:
241,249,47067,6,0,P|299:202|418:205,1,191.999994140625,6|0,3:2|3:2,0:0:0:0:
412,293,47546,2,0,P|369:279|334:236,1,95.9999970703126,8|0,0:0|0:0,0:0:0:0:
500,68,47865,1,2,3:2:0:0:
456,134,48025,1,0,3:2:0:0:
498,206,48184,1,10,0:0:0:0:
265,384,48344,6,0,L|244:191,1,191.999994140625,6|0,3:2|3:2,0:0:0:0:
162,294,48823,2,0,P|120:319|62:317,1,95.9999970703126,10|0,0:0|0:0,0:0:0:0:
151,188,49062,1,0,3:2:0:0:
138,175,49142,2,0,P|96:150|38:152,1,95.9999970703126,2|0,3:2|3:2,0:0:0:0:
252,102,49461,2,0,P|239:54|197:15,1,95.9999970703126,10|0,0:0|0:0,0:0:0:0:
314,257,49780,6,0,L|528:234,1,191.999994140625,6|10,3:2|0:0,0:0:0:0:
413,137,50259,1,2,3:2:0:0:
413,137,50339,1,0,3:2:0:0:
413,137,50418,2,0,L|400:232,1,95.9999970703126,2|2,3:2|3:2,0:0:0:0:
245,384,50738,2,0,L|232:289,1,95.9999970703126,10|2,0:0|0:0,0:0:0:0:
49,148,51057,5,2,3:2:0:0:
113,200,51216,1,2,0:0:0:0:
191,170,51376,1,10,0:0:0:0:
126,117,51535,2,0,L|117:171,1,47.9999985351563,2|0,0:0|0:0,0:0:0:0:
11,257,51695,2,0,L|106:241,1,95.9999970703126,2|2,3:2|3:2,0:0:0:0:
185,52,52014,2,0,L|280:68,1,95.9999970703126,10|0,0:0|3:2,0:0:0:0:
358,68,52254,5,0,3:2:0:0:
372,51,52333,2,0,P|295:95|333:190,1,191.999994140625,6|8,3:2|0:0,0:0:0:0:
453,254,52812,1,2,0:0:0:0:
453,254,52972,2,0,L|447:158,1,95.9999970703126,2|2,3:2|3:2,0:0:0:0:
370,332,53291,2,0,L|274:338,1,95.9999970703126,10|2,0:0|0:0,0:0:0:0:
199,379,53530,5,0,3:2:0:0:
180,369,53610,2,0,P|160:296|237:209,1,191.999994140625,2|8,3:2|0:0,0:0:0:0:
133,139,54089,1,2,0:0:0:0:
114,129,54168,1,2,0:0:0:0:
93,133,54248,1,2,3:2:0:0:
52,203,54408,1,0,3:2:0:0:
226,119,54567,2,0,P|199:64|253:9,1,143.999995605469,10|0,0:0|3:2,0:0:0:0:
321,42,54887,6,0,L|425:52,1,95.9999970703126,6|0,3:2|0:0,0:0:0:0:
396,207,55206,6,0,L|300:197,1,95.9999970703126,10|0,0:0|0:0,0:0:0:0:
270,337,55445,5,0,3:2:0:0:
279,352,55525,2,0,L|375:362,1,95.9999970703126,2|0,3:2|3:2,0:0:0:0:
227,256,55844,2,0,P|191:295|183:349,1,95.9999970703126,10|0,0:0|0:0,0:0:0:0:
40,384,56163,5,2,3:2:0:0:
40,384,56323,6,0,L|33:330,1,47.9999985351563,0|0,3:2|3:0,0:0:0:0:
12,216,56482,1,8,0:0:0:0:
12,216,56642,6,0,L|66:209,1,47.9999985351563,2|0,3:2|3:2,0:0:0:0:
150,194,56801,1,10,0:0:0:0:
150,194,56961,6,0,L|143:140,1,47.9999985351563,2|0,3:2|0:0,0:0:0:0:
127,0,57121,1,8,0:0:0:0:
289,128,57280,6,0,P|244:205|256:312,1,191.999994140625,6|0,3:2|3:2,0:0:0:0:
377,138,57759,2,0,P|369:88|328:44,1,95.9999970703126,8|0,0:0|0:0,0:0:0:0:
251,32,57998,1,0,3:2:0:0:
256,48,58078,1,2,3:2:0:0:
341,53,58238,1,0,3:2:0:0:
407,0,58397,1,10,0:0:0:0:
512,234,58557,6,0,L|310:216,1,191.999994140625,6|0,3:2|3:2,0:0:0:0:
243,284,59035,2,0,P|209:345|209:387,1,95.9999970703126,10|0,0:0|0:0,0:0:0:0:
132,234,59275,1,0,3:2:0:0:
114,225,59355,2,0,P|44:226|7:247,1,95.9999970703126,2|0,3:2|3:2,0:0:0:0:
163,87,59674,2,0,P|199:117|219:161,1,95.9999970703126,10|0,0:0|0:0,0:0:0:0:
340,314,59993,6,0,P|385:272|378:138,1,191.999994140625,6|10,3:2|0:0,0:0:0:0:
500,93,60472,1,2,0:0:0:0:
500,93,60551,1,0,3:2:0:0:
500,93,60631,2,0,L|489:191,1,95.9999970703126,2|2,3:2|3:2,0:0:0:0:
340,314,60950,2,0,L|329:216,1,95.9999970703126,10|2,0:0|0:0,0:0:0:0:
157,94,61270,5,2,3:2:0:0:
226,149,61429,1,2,0:0:0:0:
308,118,61589,1,10,0:0:0:0:
144,181,61748,2,0,P|111:241|117:371,1,191.999994140625,6|0,3:2|3:2,0:0:0:0:
190,308,62227,1,10,0:0:0:0:
24,236,62387,5,0,3:2:0:0:
24,236,62466,1,0,3:2:0:0:
24,236,62546,2,0,B|12:95|12:95|50:46,1,191.999994140625,6|8,3:2|0:0,0:0:0:0:
194,142,63025,1,2,0:0:0:0:
194,142,63105,1,0,3:2:0:0:
194,142,63184,2,0,P|137:144|99:123,1,95.9999970703126,2|0,3:2|3:2,0:0:0:0:
257,74,63504,2,0,P|284:112|289:160,1,95.9999970703126,10|2,0:0|0:0,0:0:0:0:
260,347,63823,6,0,P|182:308|222:232,1,191.999994140625,6|8,3:2|0:0,0:0:0:0:
367,256,64301,1,2,3:2:0:0:
343,253,64381,1,0,3:2:0:0:
319,250,64461,1,2,3:2:0:0:
357,349,64621,1,0,3:2:0:0:
448,208,64780,2,0,P|461:137|435:72,1,143.999995605469,10|0,0:0|3:2,0:0:0:0:
353,35,65099,6,0,L|247:48,1,95.9999970703126,6|0,3:2|3:2,0:0:0:0:
30,205,65418,2,0,L|136:218,1,95.9999970703126,10|0,0:0|3:2,0:0:0:0:
340,128,65738,6,0,L|234:141,1,95.9999970703126,10|0,0:0|3:2,0:0:0:0:
43,298,66057,2,0,L|149:311,1,95.9999970703126,10|0,0:0|3:2,0:0:0:0:
332,216,66376,5,14,0:0:0:0:
238,229,66535,1,0,0:0:0:0:
238,229,66695,1,8,0:0:0:0:
340,128,66855,5,2,1:2:0:0:
368,133,66934,1,0,1:2:0:0:
387,153,67014,1,2,1:2:0:0:
324,231,67174,1,8,3:0:0:0:
397,282,67333,5,8,3:0:0:0:
361,312,67493,1,6,3:0:0:0:
400,382,67652,6,0,B|493:369|493:369|451:354,1,128,6|0,3:2|0:0,0:0:0:0:
474,228,68131,1,0,3:2:0:0:
474,228,68291,2,0,P|506:163|478:104,1,128,8|2,0:0|0:0,0:0:0:0:
436,45,68770,1,2,3:2:0:0:
340,133,68929,5,2,0:0:0:0:
340,133,69089,2,0,L|416:123,1,64,0|2,1:2|0:0,0:0:0:0:
262,83,69408,1,2,3:2:0:0:
262,83,69567,2,0,L|252:7,1,64,8|0,0:0|0:0,0:0:0:0:
279,213,69887,2,0,L|289:289,1,64,2|0,3:2|0:0,0:0:0:0:
201,163,70206,6,0,L|63:182,1,128,6|2,3:2|0:0,0:0:0:0:
0,295,70684,1,0,3:2:0:0:
0,295,70844,2,0,P|49:281|120:319,1,128,10|2,0:0|0:0,0:0:0:0:
161,384,71323,1,0,3:2:0:0:
266,295,71482,5,2,0:0:0:0:
266,295,71642,2,0,L|195:305,1,64,0|2,1:2|0:0,0:0:0:0:
348,312,71961,1,2,3:2:0:0:
348,312,72121,2,0,P|350:279|336:248,1,64,8|0,0:0|0:0,0:0:0:0:
401,154,72440,2,0,P|403:194|474:178,1,120,0|0,3:2|0:0,0:0:0:0:
454,95,72759,6,0,P|358:127|259:119,1,191.999994140625,4|0,3:2|0:0,0:0:0:0:
218,192,73238,1,0,3:2:0:0:
218,192,73397,2,0,P|179:196|151:211,1,64,8|0,0:0|0:0,0:0:0:0:
48,111,73716,2,0,P|70:142|97:159,1,64,2|2,0:0|3:2,0:0:0:0:
50,359,74035,5,2,0:0:0:0:
50,359,74195,2,0,P|50:296|79:240,1,128,0|2,1:2|3:2,0:0:0:0:
208,275,74674,2,0,P|221:313|219:353,1,64,10|0,0:0|0:0,0:0:0:0:
349,384,74993,2,0,P|362:346|360:306,1,64,2|0,3:2|0:0,0:0:0:0:
437,274,75312,5,6,3:2:0:0:
510,323,75631,5,0,3:2:0:0:
510,323,75791,1,0,3:2:0:0:
360,232,75950,5,0,3:2:0:0:
360,232,76110,1,0,3:2:0:0:
483,124,76270,5,0,3:2:0:0:
504,206,76429,1,0,3:2:0:0:
349,148,76589,6,0,P|294:153|362:230,1,223.999993164063,4|0,3:2|3:2,0:0:0:0:
91,123,77546,2,0,L|101:214,1,83.9999974365235,4|0,3:0|0:0,0:0:0:0:
120,202,77865,6,0,P|165:364|35:257,1,448,6|2,3:2|0:0,0:0:0:0:
338,45,80418,2,0,P|295:208|423:99,1,448,2|8,3:2|0:0,0:0:0:0:
423,99,82972,6,0,P|395:169|432:250,1,160,4|8,3:2|0:0,0:0:0:0:
304,240,83450,2,0,P|334:311|306:384,1,160,0|8,3:2|3:0,0:0:0:0:
235,328,83929,1,8,0:0:0:0:
81,329,84089,6,0,B|114:348|114:348|240:327,1,160,4|0,3:2|3:2,0:0:0:0:
234,327,84488,1,0,3:2:0:0:
234,327,84567,1,8,0:0:0:0:
304,240,84727,1,0,3:2:0:0:
164,137,84887,5,8,3:2:0:0:
205,249,85046,1,0,3:2:0:0:
317,208,85206,1,8,3:2:0:0:
276,96,85365,1,4,3:2:0:0:
256,192,85445,12,0,88078,0:0:0:0:
