osu file format v14

[General]
AudioFilename: audio.mp3
AudioLeadIn: 0
PreviewTime: 46509
Countdown: 0
SampleSet: Soft
StackLeniency: 0.7
Mode: 0
LetterboxInBreaks: 0
WidescreenStoryboard: 1

[Editor]
Bookmarks: 6391,11497,21710,47082,67667,77880,85380
DistanceSpacing: 1
BeatDivisor: 4
GridSize: 4
TimelineZoom: 1.2

[Metadata]
Title:Darling in the Night (TV Size)
TitleUnicode:Darling in the Night (TV Size)
Artist:Alpha (CV: Seto Asami)
ArtistUnicode:アルファ(CV: 瀬戸麻沙美)
Creator:pnky
Version:Easy
Source:陰の実力者になりたくて!
Tags:japanese j-rock jrock rock female vocalist vocals kagejitsu! kage no jitsuryokusha ni naritakute! eminence in shadow garden To Be a Power in the Shadows! season 1 one 1st ed ending
BeatmapID:4033391
BeatmapSetID:1948591

[Difficulty]
HPDrainRate:3
CircleSize:2
OverallDifficulty:3
ApproachRate:4
SliderMultiplier:1
SliderTickRate:1

[Events]
//Background and Video events
0,0,"alpha.jpg",0,0
//Break Periods
2,11682,19098
2,78065,81652
//Storyboard Layer 0 (Background)
//Storyboard Layer 1 (Fail)
//Storyboard Layer 2 (Pass)
//Storyboard Layer 3 (Foreground)
//Storyboard Layer 4 (Overlay)
//Storyboard Sound Samples

[TimingPoints]
1270,319.148936170213,4,2,1,50,1,0
6376,-100,4,2,1,75,0,0
11482,-100,4,2,1,45,0,0
21695,-100,4,2,1,60,0,0
29674,-100,4,2,1,42,0,0
29833,-100,4,2,1,45,0,0
29993,-100,4,2,1,48,0,0
30152,-100,4,2,1,51,0,0
30312,-100,4,2,1,54,0,0
30472,-100,4,2,1,57,0,0
30631,-100,4,2,1,60,0,0
31908,-100,4,2,1,55,0,0
39567,-100,4,2,1,65,0,0
44674,-100,4,2,1,75,0,0
46589,-100,4,2,1,50,0,0
47067,-100,4,2,1,80,0,1
56163,-100,4,2,1,75,0,0
57280,-100,4,2,1,80,0,1
67652,-100,4,2,1,65,0,0
75631,-100,4,2,1,40,0,0
75791,-100,4,2,1,45,0,0
75950,-100,4,2,1,50,0,0
76110,-100,4,2,1,55,0,0
76270,-100,4,2,1,60,0,0
76429,-100,4,2,1,65,0,0
77227,-100,4,2,2,65,0,0
77307,-100,4,2,1,65,0,0
77865,-100,4,2,1,40,0,0
80418,-100,4,2,2,40,0,0
80498,-100,4,2,1,40,0,0
82972,-100,4,2,1,70,0,0
88078,-100,4,2,1,5,0,0
88158,-100,4,2,1,70,0,0

[Colours]
Combo1 : 120,250,120
Combo2 : 225,220,180
Combo3 : 100,160,210
Combo4 : 250,250,140

[HitObjects]
256,192,1270,12,2,5099,0:0:0:0:
88,102,6376,6,0,P|177:57|281:65,1,200,4|0,3:2|3:2,0:0:0:0:
343,135,7333,1,8,0:0:0:0:
319,232,7652,2,0,P|230:277|126:269,1,200,0|0,3:2|3:2,0:0:0:0:
35,295,8610,1,8,0:0:0:0:
50,196,8929,6,0,P|26:143|29:95,1,100,4|0,3:2|3:2,0:0:0:0:
110,46,9567,2,0,P|134:99|131:147,1,100,0|0,3:2|3:2,0:0:0:0:
228,175,10206,2,0,L|436:142,1,200,4|0,3:2|1:2,0:0:0:0:
495,215,11163,1,8,3:0:0:0:
456,307,11482,1,4,3:2:0:0:
456,307,20418,6,0,P|399:290|356:297,1,100,2|8,3:2|2:2,0:0:0:0:
311,207,21057,2,0,P|261:211|214:195,1,100,0|8,3:2|2:2,0:0:0:0:
119,226,21695,6,0,P|36:265|25:374,1,200,6|2,3:2|3:2,0:0:0:0:
118,344,22652,1,10,0:0:0:0:
213,375,22972,2,0,L|315:362,2,100,2|10|2,3:2|0:0|3:2,0:0:0:0:
196,276,23929,1,8,0:0:0:0:
281,223,24248,6,0,P|312:169|262:45,1,200,2|2,3:2|3:2,0:0:0:0:
170,20,25206,1,10,0:0:0:0:
78,60,25525,2,0,L|99:169,1,100,2|10,3:2|0:0,0:0:0:0:
183,208,26163,2,0,L|292:187,1,100,2|10,3:2|0:0,0:0:0:0:
328,101,26801,6,0,P|348:56|488:36,1,200,4|2,3:2|3:2,0:0:0:0:
444,125,27759,1,10,0:0:0:0:
500,207,28078,2,0,L|514:320,1,100,4|8,3:2|0:0,0:0:0:0:
428,360,28716,1,0,3:2:0:0:
360,286,29035,1,10,0:0:0:0:
276,340,29355,6,0,L|163:354,1,100,6|0,3:2|3:2,0:0:0:0:
170,252,29993,2,0,L|269:239,1,100,2|0,3:2|3:2,0:0:0:0:
352,183,30631,2,0,P|352:126|442:90,2,150,6|8|4,3:2|3:0|3:0,0:0:0:0:
269,239,31908,5,6,3:2:0:0:
183,115,32387,1,2,3:2:0:0:
39,159,32865,1,6,0:1:0:0:
88,245,33184,2,0,P|84:298|152:360,1,150,0|0,3:2|3:2,0:0:0:0:
268,266,34142,1,4,3:1:0:0:
354,316,34461,6,0,L|517:332,2,150,6|2|6,3:2|3:2|2:1,0:0:0:0:
268,266,35738,2,0,P|288:187|245:124,1,150,0|0,3:2|0:0,0:0:0:0:
165,12,36695,1,4,3:1:0:0:
79,63,37014,5,6,3:2:0:0:
169,182,37493,1,2,3:2:0:0:
64,290,37972,1,6,2:1:0:0:
140,354,38291,2,0,L|292:333,1,150,0|0,3:2|3:2,0:0:0:0:
432,376,39248,1,8,3:2:0:0:
497,300,39567,6,0,P|518:245|455:120,1,200,6|8,3:2|0:0,0:0:0:0:
364,146,40525,1,2,0:0:0:0:
308,62,40844,2,0,B|257:48|217:86|217:86|176:124|117:113,1,200,2|8,3:2|0:0,0:0:0:0:
40,58,41801,1,10,3:0:0:0:
33,158,42121,6,0,P|47:209|54:268,1,100,6|0,3:2|3:2,0:0:0:0:
127,322,42759,2,0,P|183:275|276:282,2,150,10|0|0,0:0|3:2|0:0,0:0:0:0:
53,255,44035,2,0,P|39:204|32:145,1,100,10|2,3:2|3:2,0:0:0:0:
72,65,44674,6,0,L|124:74,1,50,0|0,3:2|3:2,0:0:0:0:
204,128,45152,1,0,3:2:0:0:
288,74,45472,1,0,3:2:0:0:
378,115,45791,2,0,L|360:280,1,150,0|8,3:2|3:2,0:0:0:0:
133,366,47067,6,0,L|116:216,1,150,6|8,3:2|0:0,0:0:0:0:
41,150,47865,1,2,3:2:0:0:
126,26,48344,2,0,P|192:66|266:65,1,150,6|10,3:2|0:0,0:0:0:0:
338,131,49142,2,0,P|382:109|445:108,1,100,2|10,3:2|0:0,0:0:0:0:
510,167,49780,5,6,3:2:0:0:
485,263,50099,1,10,0:0:0:0:
462,360,50418,2,0,L|353:343,1,100,2|10,3:2|0:0,0:0:0:0:
278,291,51057,2,0,P|232:328|175:331,1,100,2|10,3:2|0:0,0:0:0:0:
148,244,51695,2,0,P|194:207|251:204,1,100,2|10,3:2|0:0,0:0:0:0:
333,202,52333,6,0,P|392:164|369:36,1,200,6|2,3:2|3:2,0:0:0:0:
283,69,53291,1,10,0:0:0:0:
191,28,53610,2,0,L|86:17,1,100,2|8,3:2|0:0,0:0:0:0:
17,84,54248,1,2,3:2:0:0:
93,148,54567,1,10,0:0:0:0:
15,212,54887,6,0,P|9:266|43:308,1,100,6|10,3:2|0:0,0:0:0:0:
117,356,55525,2,0,P|171:342|226:336,1,100,2|10,3:2|0:0,0:0:0:0:
269,252,56163,1,2,3:2:0:0:
242,155,56482,1,8,0:0:0:0:
325,99,56801,1,10,0:0:0:0:
456,171,57280,6,0,L|436:331,1,150,6|8,3:2|0:0,0:0:0:0:
348,366,58078,1,2,3:2:0:0:
234,267,58557,2,0,P|163:271|114:343,1,150,6|10,3:2|0:0,0:0:0:0:
33,272,59355,2,0,P|13:227|21:177,1,100,2|10,3:2|0:0,0:0:0:0:
80,98,59993,5,6,3:2:0:0:
172,135,60312,1,10,0:0:0:0:
254,78,60631,2,0,P|298:55|369:56,1,100,2|10,3:2|0:0,0:0:0:0:
399,137,61270,2,0,B|416:184|416:184|529:215,2,150,2|6|10,3:2|3:2|0:0,0:0:0:0:
304,168,62546,6,0,P|249:231|289:338,1,200,6|2,3:2|3:2,0:0:0:0:
372,375,63504,1,10,0:0:0:0:
463,334,63823,2,0,L|445:230,1,100,6|8,3:2|0:0,0:0:0:0:
391,151,64461,1,2,3:2:0:0:
483,113,64780,1,10,0:0:0:0:
429,28,65099,6,0,L|329:19,1,100,6|10,3:2|0:0,0:0:0:0:
275,103,65738,2,0,L|175:112,1,100,10|10,0:0|0:0,0:0:0:0:
86,66,66376,1,14,0:0:0:0:
16,137,66695,1,8,0:0:0:0:
62,226,67014,1,2,1:2:0:0:
159,209,67333,1,8,3:0:0:0:
174,110,67652,6,0,L|377:128,1,200,6|8,3:2|0:0,0:0:0:0:
432,208,68610,1,2,0:0:0:0:
353,269,68929,2,0,P|301:257|224:368,1,200,2|8,0:0|0:0,0:0:0:0:
122,371,69887,1,2,3:2:0:0:
41,311,70206,6,0,L|53:206,1,100,6|2,3:2|0:0,0:0:0:0:
136,159,70844,1,10,0:0:0:0:
63,89,71163,1,2,0:0:0:0:
146,34,71482,2,0,B|248:3|246:95|347:66,1,200,2|8,0:0|0:0,0:0:0:0:
419,14,72440,1,0,3:2:0:0:
479,93,72759,6,0,P|438:147|435:287,1,200,4|8,3:2|0:0,0:0:0:0:
427,375,73716,1,2,0:0:0:0:
341,323,74035,2,0,P|257:270|158:273,1,200,2|10,0:0|0:0,0:0:0:0:
82,339,74993,1,2,3:2:0:0:
9,269,75312,6,0,P|-5:228|7:164,1,100,6|0,3:2|3:2,0:0:0:0:
96,137,75950,1,0,3:2:0:0:
35,56,76270,1,0,3:2:0:0:
129,23,76589,2,0,L|336:49,1,200,4|0,3:2|3:2,0:0:0:0:
381,132,77546,1,4,3:0:0:0:
470,87,77865,1,6,3:2:0:0:
449,63,82972,6,0,P|358:96|346:161,1,150,4|0,3:2|3:2,0:0:0:0:
425,198,83770,1,8,3:0:0:0:
370,282,84089,2,0,L|216:269,1,150,4|8,3:2|0:0,0:0:0:0:
141,331,84887,1,8,3:2:0:0:
63,202,85365,1,4,3:2:0:0:
256,192,85525,12,0,88078,0:0:0:0:
