osu file format v14

[General]
AudioFilename: audio.mp3
AudioLeadIn: 0
PreviewTime: 46509
Countdown: 0
SampleSet: Soft
StackLeniency: 0.2
Mode: 3
LetterboxInBreaks: 0
SpecialStyle: 0
WidescreenStoryboard: 1

[Editor]
Bookmarks: 6391,11497,21710,47082,67667,77880,85380
DistanceSpacing: 0.7
BeatDivisor: 16
GridSize: 4
TimelineZoom: 1.9

[Metadata]
Title:Darling in the Night (TV Size)
TitleUnicode:Darling in the Night (TV Size)
Artist:Alpha (CV: Seto Asami)
ArtistUnicode:アルファ(CV: 瀬戸麻沙美)
Creator:Amiichii
Version:Alpha
Source:陰の実力者になりたくて!
Tags:Anime japanese j-rock jrock rock female vocalist vocals kagejitsu! kage no jitsuryokusha ni naritakute! eminence in shadow garden To Be a Power in the Shadows! season 1 one 1st ed ending
BeatmapID:4102200
BeatmapSetID:1976410

[Difficulty]
HPDrainRate:8
CircleSize:4
OverallDifficulty:8
ApproachRate:9.2
SliderMultiplier:1.72
SliderTickRate:1

[Events]
//Background and Video events
0,0,"alpha.jpg",0,0
//Break Periods
//Storyboard Layer 0 (Background)
//Storyboard Layer 1 (Fail)
//Storyboard Layer 2 (Pass)
//Storyboard Layer 3 (Foreground)
//Storyboard Layer 4 (Overlay)
//Storyboard Sound Samples

[TimingPoints]
1270,319.148936170213,4,2,1,35,1,0
47067,-100,4,2,1,35,0,1
56163,-100,4,2,1,35,0,0
57280,-100,4,2,1,35,0,1
67652,-100,4,2,1,35,0,0

[HitObjects]
320,192,472,128,0,1270:0:0:0:0:
64,192,1270,128,0,1429:0:0:0:0:
448,192,1270,128,0,1349:0:0:0:0:
192,192,1429,128,0,1509:0:0:0:0:
320,192,1589,128,0,1668:0:0:0:0:
64,192,1748,128,0,1828:0:0:0:0:
448,192,1748,128,0,1908:0:0:0:0:
192,192,1908,128,0,1988:0:0:0:0:
320,192,2067,128,0,2147:0:0:0:0:
448,192,2227,128,0,2307:0:0:0:0:
448,192,2387,128,0,2466:0:0:0:0:
64,192,2546,128,0,2626:0:0:0:0:
448,192,2706,128,0,2785:0:0:0:0:
448,192,2865,128,0,2945:0:0:0:0:
192,192,3025,128,0,3105:0:0:0:0:
320,192,3184,128,0,3264:0:0:0:0:
192,192,3344,128,0,3424:0:0:0:0:
64,192,3504,128,0,3583:0:0:0:0:
448,192,3663,128,0,3743:0:0:0:0:
64,192,3823,128,0,3902:0:0:0:0:
192,192,3823,128,0,3982:0:0:0:0:
320,192,3982,128,0,4062:0:0:0:0:
448,192,4142,128,0,4222:0:0:0:0:
64,192,4301,128,0,4381:0:0:0:0:
320,192,4301,128,0,4461:0:0:0:0:
192,192,4461,128,0,4541:0:0:0:0:
448,192,4621,128,0,4700:0:0:0:0:
64,192,4780,128,0,4860:0:0:0:0:
64,192,4940,128,0,5020:0:0:0:0:
448,192,5099,128,0,5179:0:0:0:0:
64,192,5259,128,0,5339:0:0:0:0:
64,192,5418,128,0,5498:0:0:0:0:
320,192,5578,128,0,5658:0:0:0:0:
192,192,5738,128,0,5817:0:0:0:0:
448,192,5897,128,0,5977:0:0:0:0:
64,192,6057,128,0,6376:0:0:0:50:Tom2.wav
192,192,6057,1,0,0:0:0:0:
192,192,6376,1,2,0:0:0:0:
320,192,6376,128,4,6456:0:0:0:0:
448,192,6376,1,0,0:0:0:0:
320,192,6535,128,0,6615:0:0:0:0:
64,192,6695,1,8,0:0:0:0:
192,192,6695,128,0,6775:0:0:0:0:
448,192,6695,1,0,0:0:0:0:
320,192,6855,128,0,6934:0:0:0:0:
64,192,7014,1,2,0:0:0:0:
448,192,7014,128,0,7094:0:0:0:0:
192,192,7174,128,2,7254:0:0:0:0:
64,192,7333,1,8,0:0:0:0:
320,192,7333,1,0,0:0:0:0:
448,192,7333,128,0,7413:0:0:0:0:
448,192,7493,128,0,7573:0:0:0:0:
64,192,7652,1,2,0:0:0:0:
192,192,7652,128,0,7732:0:0:0:0:
448,192,7812,128,0,7892:0:0:0:0:
64,192,7972,1,8,0:0:0:0:
192,192,7972,1,0,0:0:0:0:
320,192,7972,1,0,0:0:0:0:
448,192,7972,128,0,8051:0:0:0:0:
64,192,8131,128,0,8211:0:0:0:0:
320,192,8291,128,2,8371:0:0:0:0:
448,192,8291,1,0,0:0:0:0:
192,192,8450,128,2,8530:0:0:0:0:
64,192,8610,128,8,8690:0:0:0:0:
320,192,8610,1,0,0:0:0:0:
448,192,8610,1,0,0:0:0:0:
192,192,8770,128,0,8849:0:0:0:0:
64,192,8929,1,2,0:0:0:0:
320,192,8929,1,0,0:0:0:0:
448,192,8929,128,4,9009:0:0:0:0:
448,192,9089,128,0,9168:0:0:0:0:
64,192,9248,1,8,0:0:0:0:
192,192,9248,128,0,9328:0:0:0:0:
192,192,9408,1,2,0:0:0:0:
320,192,9408,1,0,0:0:0:0:
448,192,9408,128,0,9488:0:0:0:0:
64,192,9567,1,2,0:0:0:0:
320,192,9567,1,0,0:0:0:0:
448,192,9567,128,0,9647:0:0:0:0:
64,192,9727,128,2,9807:0:0:0:0:
192,192,9727,1,0,0:0:0:0:
192,192,9887,1,8,0:0:0:0:
320,192,9887,128,0,9966:0:0:0:0:
448,192,9887,1,0,0:0:0:0:
64,192,10046,1,2,0:0:0:0:
320,192,10046,128,0,10126:0:0:0:0:
448,192,10046,1,0,0:0:0:0:
64,192,10206,128,2,10285:0:0:0:0:
192,192,10206,1,0,0:0:0:0:
448,192,10206,1,0,0:0:0:0:
192,192,10365,1,2,0:0:0:0:
320,192,10365,128,0,10445:0:0:0:0:
64,192,10445,1,8,0:0:0:0:
448,192,10445,1,0,0:0:0:0:
192,192,10525,1,8,0:0:0:0:
320,192,10525,128,0,10605:0:0:0:0:
320,192,10684,1,2,0:0:0:0:
448,192,10684,128,0,10764:0:0:0:0:
64,192,10764,1,8,0:0:0:0:
192,192,10764,1,0,0:0:0:0:
320,192,10844,128,8,10924:0:0:0:0:
448,192,10844,1,0,0:0:0:0:
64,192,11004,128,0,11083:0:0:0:50:Tom1.wav
192,192,11004,1,0,0:0:0:0:
64,192,11163,128,0,11243:0:0:0:50:Tom2.wav
320,192,11163,1,0,0:0:0:0:
192,192,11323,1,0,0:0:0:50:Tom3.wav
448,192,11323,128,0,11402:0:0:0:0:
320,192,11402,1,0,0:0:0:50:Tom3.wav
64,192,11482,1,2,0:0:0:0:
192,192,11482,1,4,0:0:0:0:
448,192,11482,1,0,0:0:0:0:
320,192,11642,1,0,0:0:0:0:
64,192,11801,128,2,11961:0:0:0:0:
448,192,11801,1,0,0:0:0:0:
192,192,11961,128,0,12121:0:0:0:0:
320,192,12121,1,2,0:0:0:0:
448,192,12121,128,0,12440:0:0:0:0:
192,192,12280,1,0,0:0:0:0:
64,192,12440,128,2,12759:0:0:0:0:
320,192,12440,1,0,0:0:0:0:
448,192,12599,128,0,12918:0:0:0:0:
192,192,12759,1,2,0:0:0:0:
320,192,12759,1,0,0:0:0:0:
64,192,12918,128,0,13238:0:0:0:0:
320,192,13078,1,2,0:0:0:0:
448,192,13078,1,0,0:0:0:0:
192,192,13238,1,0,0:0:0:0:
64,192,13397,1,2,0:0:0:0:
448,192,13397,1,0,0:0:0:0:
320,192,13557,1,0,0:0:0:0:
64,192,13716,1,2,0:0:0:0:
192,192,13716,128,0,14035:0:0:0:0:
320,192,13876,128,0,14035:0:0:0:0:
64,192,14035,1,2,0:0:0:0:
448,192,14035,128,0,14355:0:0:0:0:
192,192,14195,1,0,0:0:0:0:
64,192,14355,1,2,0:0:0:0:
320,192,14355,1,0,0:0:0:0:
192,192,14514,128,0,14833:0:0:0:0:
64,192,14674,128,2,14993:0:0:0:0:
448,192,14674,1,0,0:0:0:0:
320,192,14833,1,0,0:0:0:0:
192,192,14993,1,2,0:0:0:0:
448,192,14993,1,0,0:0:0:0:
320,192,15152,128,0,15472:0:0:0:0:
64,192,15312,1,2,0:0:0:0:
448,192,15312,128,0,15631:0:0:0:0:
192,192,15472,1,0,0:0:0:0:
64,192,15631,1,2,0:0:0:0:
320,192,15631,128,0,15950:0:0:0:0:
192,192,15791,1,0,0:0:0:0:
64,192,15950,1,2,0:0:0:0:
192,192,15950,128,8,16270:0:0:0:0:
448,192,15950,1,0,0:0:0:0:
320,192,16110,1,0,0:0:0:0:
64,192,16270,128,2,16589:0:0:0:0:
448,192,16270,1,0,0:0:0:0:
192,192,16349,1,0,0:0:0:0:
320,192,16429,1,8,0:0:0:0:
448,192,16429,1,0,0:0:0:0:
192,192,16589,1,2,0:0:0:0:
320,192,16589,1,0,0:0:0:0:
448,192,16748,1,0,0:0:0:0:
64,192,16908,128,2,17067:0:0:0:0:
192,192,16908,1,0,0:0:0:0:
320,192,17067,128,0,17227:0:0:0:0:
192,192,17227,1,2,0:0:0:0:
448,192,17227,128,0,17546:0:0:0:0:
64,192,17387,128,0,17546:0:0:0:0:
192,192,17546,128,2,17865:0:0:0:0:
320,192,17546,1,0,0:0:0:0:
448,192,17706,128,0,18025:0:0:0:0:
64,192,17865,1,2,0:0:0:0:
320,192,17865,1,0,0:0:0:0:
192,192,18025,128,0,18344:0:0:0:0:
64,192,18184,1,2,0:0:0:0:
448,192,18184,1,0,0:0:0:0:
320,192,18344,1,0,0:0:0:0:
192,192,18504,1,2,0:0:0:0:
448,192,18504,1,0,0:0:0:0:
64,192,18663,1,0,0:0:0:0:
192,192,18823,1,2,0:0:0:0:
320,192,18823,128,0,19142:0:0:0:0:
64,192,18982,128,0,19142:0:0:0:0:
192,192,19142,1,2,0:0:0:0:
448,192,19142,128,0,19461:0:0:0:0:
320,192,19301,1,0,0:0:0:0:
64,192,19461,1,2,0:0:0:0:
192,192,19461,1,0,0:0:0:0:
320,192,19621,128,0,19940:0:0:0:0:
64,192,19780,128,2,20099:0:0:0:0:
448,192,19780,1,0,0:0:0:0:
192,192,19940,1,0,0:0:0:0:
320,192,20099,1,2,0:0:0:0:
448,192,20099,1,0,0:0:0:0:
192,192,20259,128,0,20578:0:0:0:0:
320,192,20418,1,2,0:0:0:0:
448,192,20418,128,0,20738:0:0:0:0:
64,192,20578,1,2,0:0:0:0:
320,192,20578,1,0,0:0:0:0:
64,192,20738,1,8,0:0:0:0:
192,192,20738,1,0,0:0:0:0:
320,192,20738,1,0,0:0:0:0:
448,192,20897,1,0,0:0:0:0:
64,192,21057,1,2,0:0:0:0:
320,192,21057,1,0,0:0:0:0:
192,192,21216,1,2,0:0:0:0:
448,192,21216,1,0,0:0:0:0:
64,192,21376,1,8,0:0:0:0:
320,192,21376,1,0,0:0:0:0:
448,192,21376,1,0,0:0:0:0:
64,192,21535,1,0,0:0:0:0:
192,192,21535,1,0,0:0:0:50:Tom2.wav
320,192,21615,1,0,0:0:0:50:Tom2.wav
64,192,21695,128,2,22014:0:0:0:0:
192,192,21695,1,4,0:0:0:0:
448,192,21695,1,0,0:0:0:0:
192,192,22014,1,8,0:0:0:0:
320,192,22014,128,0,22174:0:0:0:0:
448,192,22014,1,0,0:0:0:0:
64,192,22174,128,0,22333:0:0:0:0:
192,192,22254,1,8,0:0:0:0:
320,192,22333,1,2,0:0:0:0:
448,192,22333,128,0,22493:0:0:0:0:
64,192,22493,1,2,0:0:0:0:
192,192,22493,1,0,0:0:0:0:
64,192,22652,1,8,0:0:0:0:
320,192,22652,128,0,22812:0:0:0:0:
448,192,22652,1,0,0:0:0:0:
192,192,22812,128,0,22972:0:0:0:0:
320,192,22972,1,2,0:0:0:0:
448,192,22972,128,0,23131:0:0:0:0:
64,192,23131,128,0,23291:0:0:0:0:
192,192,23291,1,8,0:0:0:0:
320,192,23291,128,0,23450:0:0:0:0:
448,192,23291,1,0,0:0:0:0:
64,192,23450,1,0,0:0:0:0:
192,192,23530,1,8,0:0:0:0:
448,192,23530,1,0,0:0:0:0:
64,192,23610,128,2,23770:0:0:0:0:
320,192,23610,1,0,0:0:0:0:
192,192,23770,1,2,0:0:0:0:
448,192,23770,1,0,0:0:0:0:
64,192,23929,1,8,0:0:0:0:
320,192,23929,1,0,0:0:0:0:
448,192,23929,1,0,0:0:0:0:
192,192,24089,1,0,0:0:0:0:
64,192,24248,1,2,0:0:0:0:
448,192,24248,128,0,24567:0:0:0:0:
320,192,24408,1,0,0:0:0:0:
64,192,24567,128,8,24727:0:0:0:0:
192,192,24567,1,0,0:0:0:0:
320,192,24727,128,0,24887:0:0:0:0:
192,192,24807,1,8,0:0:0:0:
64,192,24887,1,2,0:0:0:0:
448,192,24887,128,0,25046:0:0:0:0:
192,192,25046,128,2,25206:0:0:0:0:
320,192,25046,1,0,0:0:0:0:
64,192,25206,1,8,0:0:0:0:
320,192,25206,1,0,0:0:0:0:
448,192,25206,128,0,25365:0:0:0:0:
192,192,25365,128,0,25525:0:0:0:0:
64,192,25525,128,2,25684:0:0:0:0:
320,192,25525,1,0,0:0:0:0:
192,192,25684,1,2,0:0:0:0:
448,192,25684,128,0,25844:0:0:0:0:
64,192,25844,1,8,0:0:0:0:
192,192,25844,128,0,26004:0:0:0:0:
320,192,25844,1,0,0:0:0:0:
448,192,26004,1,0,0:0:0:0:
64,192,26083,1,8,0:0:0:0:
192,192,26083,1,0,0:0:0:0:
320,192,26163,128,2,26323:0:0:0:0:
448,192,26163,1,0,0:0:0:0:
64,192,26323,1,2,0:0:0:0:
192,192,26323,1,0,0:0:0:0:
64,192,26482,1,8,0:0:0:0:
320,192,26482,1,0,0:0:0:0:
448,192,26482,1,0,0:0:0:0:
192,192,26642,1,0,0:0:0:0:
64,192,26801,1,2,0:0:0:0:
192,192,26801,1,4,0:0:0:0:
448,192,26801,1,0,0:0:0:0:
320,192,26961,1,0,0:0:0:0:
64,192,27121,1,8,0:0:0:0:
192,192,27121,1,0,0:0:0:0:
448,192,27121,128,0,27440:0:0:0:0:
320,192,27280,1,0,0:0:0:0:
192,192,27360,1,8,0:0:0:0:
64,192,27440,128,2,27759:0:0:0:0:
320,192,27440,1,0,0:0:0:0:
192,192,27599,1,2,0:0:0:0:
448,192,27599,1,0,0:0:0:0:
192,192,27759,1,8,0:0:0:0:
320,192,27759,128,0,27918:0:0:0:0:
448,192,27759,1,0,0:0:0:0:
64,192,27918,128,0,28078:0:0:0:0:
192,192,28078,1,2,0:0:0:0:
320,192,28078,1,4,0:0:0:0:
448,192,28078,1,0,0:0:0:0:
448,192,28238,128,0,28397:0:0:0:0:
64,192,28397,1,8,0:0:0:0:
192,192,28397,1,0,0:0:0:0:
320,192,28397,1,0,0:0:0:0:
448,192,28557,1,0,0:0:0:0:
64,192,28637,1,8,0:0:0:0:
192,192,28637,1,0,0:0:0:0:
320,192,28716,1,2,0:0:0:0:
448,192,28716,1,0,0:0:0:0:
192,192,28876,1,2,0:0:0:0:
320,192,28876,1,0,0:0:0:0:
64,192,29035,128,8,29195:0:0:0:0:
192,192,29035,1,0,0:0:0:0:
448,192,29035,1,0,0:0:0:0:
320,192,29195,128,0,29355:0:0:0:0:
192,192,29275,1,0,0:0:0:0:
64,192,29355,1,2,0:0:0:0:
448,192,29355,128,4,29674:0:0:0:0:
320,192,29514,1,0,0:0:0:0:
64,192,29674,1,0,0:0:0:0:
192,192,29674,1,0,0:0:0:50:Tom2.wav
192,192,29833,1,0,0:0:0:0:
320,192,29833,128,0,29993:0:0:0:50:Tom2.wav
64,192,29993,128,8,30312:0:0:0:0:
448,192,29993,1,0,0:0:0:50:Tom2.wav
192,192,30152,1,8,0:0:0:0:
448,192,30152,1,0,0:0:0:50:Tom2.wav
192,192,30312,1,8,0:0:0:0:
320,192,30312,1,0,0:0:0:0:
448,192,30312,1,0,0:0:0:50:Tom2.wav
64,192,30472,128,8,30631:0:0:0:0:
320,192,30472,1,0,0:0:0:50:Tom2.wav
192,192,30631,1,2,0:0:0:0:
320,192,30631,1,8,0:0:0:0:
448,192,30631,128,4,30950:0:0:0:0:
64,192,30791,1,2,0:0:0:0:
192,192,30791,1,0,0:0:0:0:
64,192,30950,1,8,0:0:0:0:
192,192,30950,1,0,0:0:0:0:
320,192,30950,1,0,0:0:0:0:
320,192,31110,1,0,0:0:0:50:Tom1.wav
448,192,31110,1,0,0:0:0:0:
192,192,31270,1,0,0:0:0:0:
64,192,31429,1,0,0:0:0:50:Tom2.wav
448,192,31429,1,0,0:0:0:0:
64,192,31589,1,0,0:0:0:50:Tom3.wav
320,192,31589,1,0,0:0:0:0:
192,192,31748,1,0,0:0:0:50:Tom3.wav
448,192,31748,1,0,0:0:0:0:
64,192,31908,128,2,32067:0:0:0:0:
320,192,31908,1,4,0:0:0:0:
448,192,31908,128,0,32067:0:0:0:0:
192,192,32067,1,0,0:0:0:0:
320,192,32227,1,0,0:0:0:0:
64,192,32387,1,2,0:0:0:0:
192,192,32387,128,0,32546:0:0:0:0:
448,192,32387,128,0,32546:0:0:0:0:
64,192,32546,1,2,0:0:0:0:
320,192,32546,1,0,0:0:0:0:
192,192,32706,1,0,0:0:0:0:
64,192,32865,1,2,0:0:0:0:
320,192,32865,128,0,33025:0:0:0:0:
448,192,32865,128,0,33025:0:0:0:0:
192,192,33025,128,0,33184:0:0:0:0:
64,192,33184,1,2,0:0:0:0:
448,192,33184,128,0,33504:0:0:0:0:
192,192,33344,1,2,0:0:0:0:
320,192,33344,1,0,0:0:0:0:
64,192,33504,128,0,33663:0:0:0:0:
320,192,33663,128,2,33982:0:0:0:0:
448,192,33663,1,0,0:0:0:0:
192,192,33823,1,0,0:0:0:0:
64,192,33982,128,2,34142:0:0:0:0:
448,192,33982,1,0,0:0:0:0:
192,192,34142,1,2,0:0:0:0:
448,192,34142,128,0,34461:0:0:0:0:
320,192,34301,1,0,0:0:0:0:
64,192,34461,128,2,34621:0:0:0:0:
192,192,34461,1,4,0:0:0:0:
320,192,34461,128,0,34621:0:0:0:0:
448,192,34621,1,0,0:0:0:0:
64,192,34780,1,0,0:0:0:0:
192,192,34940,128,2,35099:0:0:0:0:
320,192,34940,1,0,0:0:0:0:
448,192,34940,128,0,35099:0:0:0:0:
64,192,35099,1,2,0:0:0:0:
320,192,35099,1,0,0:0:0:0:
192,192,35259,1,0,0:0:0:0:
320,192,35418,128,2,35578:0:0:0:0:
448,192,35418,128,0,35578:0:0:0:0:
64,192,35578,128,0,35738:0:0:0:0:
192,192,35738,1,2,0:0:0:0:
448,192,35738,128,0,36057:0:0:0:0:
64,192,35897,1,2,0:0:0:0:
320,192,35897,1,0,0:0:0:0:
192,192,36057,128,0,36216:0:0:0:0:
64,192,36216,1,2,0:0:0:0:
320,192,36216,128,0,36535:0:0:0:0:
448,192,36376,1,0,0:0:0:0:
64,192,36535,128,2,36695:0:0:0:0:
192,192,36535,1,0,0:0:0:0:
320,192,36695,1,2,0:0:0:0:
448,192,36695,128,0,37014:0:0:0:0:
192,192,36855,1,0,0:0:0:0:
64,192,37014,128,2,37174:0:0:0:0:
192,192,37014,128,4,37174:0:0:0:0:
320,192,37014,1,0,0:0:0:0:
448,192,37174,1,0,0:0:0:0:
64,192,37333,1,0,0:0:0:0:
192,192,37493,1,2,0:0:0:0:
320,192,37493,128,0,37652:0:0:0:0:
448,192,37493,128,0,37652:0:0:0:0:
64,192,37652,1,2,0:0:0:0:
192,192,37652,1,0,0:0:0:0:
448,192,37812,1,0,0:0:0:0:
64,192,37972,1,2,0:0:0:0:
192,192,37972,128,0,38131:0:0:0:0:
320,192,37972,128,0,38131:0:0:0:0:
448,192,38131,128,0,38291:0:0:0:0:
64,192,38291,128,2,38610:0:0:0:0:
192,192,38291,1,0,0:0:0:0:
320,192,38450,1,2,0:0:0:0:
448,192,38450,1,0,0:0:0:0:
192,192,38610,128,0,38770:0:0:0:0:
320,192,38770,1,2,0:0:0:0:
448,192,38770,128,0,39089:0:0:0:0:
64,192,38929,1,0,0:0:0:0:
320,192,39089,128,2,39248:0:0:0:0:
64,192,39248,1,8,0:0:0:0:
192,192,39248,1,0,0:0:0:0:
448,192,39248,1,0,0:0:0:0:
64,192,39408,128,0,39727:0:0:0:0:
192,192,39567,1,2,0:0:0:0:
320,192,39567,1,4,0:0:0:0:
448,192,39567,128,0,40525:0:0:0:0:
192,192,39887,1,0,0:0:0:0:
64,192,40046,1,2,0:0:0:0:
320,192,40046,1,0,0:0:0:0:
64,192,40206,1,8,0:0:0:0:
192,192,40206,1,0,0:0:0:0:
320,192,40206,1,0,0:0:0:0:
192,192,40365,1,0,0:0:0:0:
320,192,40525,128,0,40844:0:0:0:0:
64,192,40684,1,8,0:0:0:0:
192,192,40684,1,0,0:0:0:0:
448,192,40764,1,8,0:0:0:0:
64,192,40844,128,2,41801:0:0:0:0:
192,192,40844,1,0,0:0:0:0:
320,192,41004,1,2,0:0:0:0:
448,192,41004,1,0,0:0:0:0:
192,192,41163,1,0,0:0:0:0:
320,192,41323,1,2,0:0:0:0:
448,192,41323,1,0,0:0:0:0:
192,192,41482,1,8,0:0:0:0:
320,192,41482,1,0,0:0:0:0:
448,192,41482,1,0,0:0:0:0:
192,192,41642,1,0,0:0:0:50:Tom1.wav
448,192,41642,1,0,0:0:0:0:
192,192,41801,128,0,42121:0:0:0:50:Tom2.wav
320,192,41801,1,0,0:0:0:0:
64,192,41961,1,0,0:0:0:50:Tom3.wav
448,192,41961,1,0,0:0:0:0:
64,192,42121,1,4,0:0:0:0:
320,192,42121,1,2,0:0:0:0:
448,192,42121,128,0,44674:0:0:0:0:
192,192,42280,1,0,0:0:0:0:
320,192,42440,1,0,0:0:0:0:
64,192,42599,1,2,0:0:0:0:
192,192,42599,1,0,0:0:0:0:
64,192,42759,1,8,0:0:0:0:
192,192,42759,1,0,0:0:0:0:
320,192,42759,1,0,0:0:0:0:
320,192,42918,1,0,0:0:0:0:
64,192,43078,1,0,0:0:0:0:
192,192,43238,1,2,0:0:0:0:
320,192,43238,1,0,0:0:0:0:
64,192,43397,1,0,0:0:0:0:
64,192,43557,1,8,0:0:0:0:
192,192,43557,1,0,0:0:0:0:
320,192,43557,1,0,0:0:0:0:
320,192,43716,1,0,0:0:0:0:
64,192,43876,1,2,0:0:0:0:
192,192,43876,1,0,0:0:0:0:
64,192,44035,1,8,0:0:0:0:
192,192,44035,1,0,0:0:0:0:
320,192,44035,1,0,0:0:0:0:
320,192,44195,1,0,0:0:0:0:
64,192,44355,1,2,0:0:0:0:
192,192,44355,1,0,0:0:0:0:
192,192,44514,1,0,0:0:0:0:
64,192,44674,1,2,0:0:0:0:
192,192,44674,1,0,0:0:0:20:soft-hitclap.wav
320,192,44674,1,0,0:0:0:0:
64,192,44833,1,2,0:0:0:0:
320,192,44833,1,0,0:0:0:20:soft-hitclap.wav
448,192,44833,1,0,0:0:0:0:
192,192,45152,1,2,0:0:0:0:
320,192,45152,1,0,0:0:0:20:soft-hitclap.wav
448,192,45152,1,0,0:0:0:0:
192,192,45472,1,2,0:0:0:0:
320,192,45472,1,0,0:0:0:20:soft-hitclap.wav
448,192,45472,1,0,0:0:0:0:
64,192,45631,1,8,0:0:0:0:
320,192,45631,1,0,0:0:0:0:
448,192,45631,1,0,0:0:0:0:
64,192,45791,1,2,0:0:0:0:
192,192,45791,1,4,0:0:0:0:
320,192,45791,1,0,0:0:0:20:soft-hitclap.wav
64,192,46110,1,2,0:0:0:0:
192,192,46110,1,4,0:0:0:0:
320,192,46110,1,0,0:0:0:20:soft-hitclap.wav
448,192,46110,1,0,0:0:0:0:
64,192,46270,1,4,0:0:0:0:
192,192,46270,1,2,0:0:0:0:
320,192,46270,1,0,0:0:0:20:soft-hitclap.wav
448,192,46270,1,0,0:0:0:0:
448,192,46589,1,0,0:0:0:0:
320,192,46629,1,0,0:0:0:0:
192,192,46668,1,0,0:0:0:0:
64,192,46708,1,0,0:0:0:0:
448,192,46748,1,0,0:0:0:0:
320,192,46788,1,0,0:0:0:0:
192,192,46828,1,0,0:0:0:0:
64,192,46868,1,0,0:0:0:0:
448,192,46908,1,0,0:0:0:0:
320,192,46948,1,0,0:0:0:0:
192,192,46988,1,0,0:0:0:0:
64,192,47027,1,0,0:0:0:0:
320,192,47067,128,2,47387:0:0:0:0:
448,192,47067,128,4,47546:0:0:0:0:
64,192,47387,1,2,0:0:0:0:
192,192,47387,1,0,0:0:0:0:
64,192,47546,128,8,47865:0:0:0:0:
192,192,47546,1,0,0:0:0:0:
320,192,47546,1,0,0:0:0:0:
448,192,47706,1,0,0:0:0:0:
192,192,47785,1,8,0:0:0:0:
320,192,47865,128,2,48025:0:0:0:0:
448,192,47865,128,0,48184:0:0:0:0:
64,192,48025,1,2,0:0:0:0:
192,192,48025,1,0,0:0:0:0:
64,192,48184,128,8,48504:0:0:0:0:
192,192,48184,128,0,48344:0:0:0:0:
320,192,48184,1,0,0:0:0:0:
320,192,48344,128,2,48504:0:0:0:0:
448,192,48344,128,4,48663:0:0:0:0:
192,192,48504,1,0,0:0:0:0:
64,192,48663,1,2,0:0:0:0:
320,192,48663,1,0,0:0:0:0:
64,192,48823,128,8,49142:0:0:0:0:
192,192,48823,128,0,48982:0:0:0:0:
448,192,48823,1,0,0:0:0:0:
320,192,48982,1,0,0:0:0:0:
448,192,49062,1,8,0:0:0:0:
192,192,49142,128,2,49301:0:0:0:0:
320,192,49142,128,0,49461:0:0:0:0:
64,192,49301,1,2,0:0:0:0:
448,192,49301,1,0,0:0:0:0:
64,192,49461,128,8,49621:0:0:0:0:
192,192,49461,1,0,0:0:0:0:
448,192,49461,128,0,49780:0:0:0:0:
320,192,49621,1,0,0:0:0:0:
64,192,49780,128,2,50099:0:0:0:0:
192,192,49780,1,4,0:0:0:0:
320,192,49780,128,0,49940:0:0:0:0:
448,192,49940,1,0,0:0:0:0:
192,192,50099,128,8,50179:0:0:0:0:
320,192,50099,1,0,0:0:0:0:
448,192,50099,128,0,50259:0:0:0:0:
64,192,50259,128,0,51535:0:0:0:0:
320,192,50259,128,0,50339:0:0:0:0:
192,192,50339,1,8,0:0:0:0:
320,192,50418,1,2,0:0:0:0:
448,192,50418,128,0,50498:0:0:0:0:
192,192,50578,1,2,0:0:0:0:
320,192,50578,128,0,50658:0:0:0:0:
192,192,50738,128,8,50817:0:0:0:0:
448,192,50738,1,0,0:0:0:0:
320,192,50897,128,0,50977:0:0:0:0:
192,192,50977,1,0,0:0:0:0:
320,192,51057,1,2,0:0:0:0:
448,192,51057,128,0,51137:0:0:0:0:
192,192,51216,128,0,51296:0:0:0:0:
192,192,51376,1,8,0:0:0:0:
320,192,51376,1,4,0:0:0:0:
448,192,51376,128,0,51456:0:0:0:0:
320,192,51535,128,0,51615:0:0:0:0:
64,192,51695,128,2,51775:0:0:0:0:
192,192,51695,1,0,0:0:0:0:
320,192,51855,128,2,51934:0:0:0:0:
448,192,51855,1,0,0:0:0:0:
64,192,52014,1,8,0:0:0:0:
192,192,52014,128,4,52094:0:0:0:0:
448,192,52014,128,0,52333:0:0:0:0:
64,192,52174,1,8,0:0:0:0:
320,192,52174,128,0,52254:0:0:0:0:
192,192,52254,1,8,0:0:0:0:
64,192,52333,128,2,52652:0:0:0:0:
320,192,52333,1,4,0:0:0:0:
192,192,52652,1,8,0:0:0:0:
320,192,52652,1,0,0:0:0:0:
448,192,52652,1,0,0:0:0:0:
64,192,52812,128,0,53131:0:0:0:0:
320,192,52972,1,2,0:0:0:0:
448,192,52972,128,0,53291:0:0:0:0:
192,192,53131,1,2,0:0:0:0:
320,192,53131,1,0,0:0:0:0:
64,192,53291,1,8,0:0:0:0:
192,192,53291,1,4,0:0:0:0:
320,192,53291,1,0,0:0:0:0:
448,192,53450,128,0,53770:0:0:0:0:
320,192,53530,1,0,0:0:0:0:
64,192,53610,128,2,53929:0:0:0:0:
192,192,53610,1,0,0:0:0:0:
320,192,53770,1,0,0:0:0:0:
192,192,53929,1,8,0:0:0:0:
320,192,53929,1,0,0:0:0:0:
448,192,53929,1,0,0:0:0:0:
64,192,54089,128,0,54408:0:0:0:0:
320,192,54248,128,2,54567:0:0:0:0:
448,192,54248,1,0,0:0:0:0:
192,192,54408,1,2,0:0:0:0:
448,192,54408,1,0,0:0:0:0:
64,192,54567,128,8,54887:0:0:0:0:
192,192,54567,1,4,0:0:0:0:
448,192,54567,1,0,0:0:0:0:
320,192,54727,1,0,0:0:0:0:
192,192,54807,1,0,0:0:0:0:
320,192,54887,1,2,0:0:0:0:
448,192,54887,128,4,55206:0:0:0:0:
64,192,55206,128,8,55525:0:0:0:0:
192,192,55206,1,0,0:0:0:0:
320,192,55206,1,0,0:0:0:0:
448,192,55365,1,0,0:0:0:0:
192,192,55445,1,0,0:0:0:0:
320,192,55525,128,2,55844:0:0:0:0:
448,192,55525,1,0,0:0:0:0:
64,192,55684,1,2,0:0:0:0:
192,192,55684,1,0,0:0:0:0:
64,192,55844,1,8,0:0:0:0:
192,192,55844,1,0,0:0:0:0:
448,192,55844,128,0,56163:0:0:0:0:
320,192,56004,1,0,0:0:0:0:
64,192,56163,128,2,56482:0:0:0:0:
192,192,56163,1,0,0:0:0:0:
320,192,56323,1,2,0:0:0:0:
448,192,56323,1,0,0:0:0:0:
192,192,56482,1,8,0:0:0:0:
320,192,56482,1,4,0:0:0:0:
448,192,56482,1,0,0:0:0:0:
64,192,56642,1,2,0:0:0:0:
192,192,56642,1,0,0:0:0:0:
320,192,56722,1,2,0:0:0:0:
64,192,56801,1,4,0:0:0:0:
192,192,56801,1,8,0:0:0:0:
448,192,56801,128,0,57121:0:0:0:0:
192,192,56961,1,2,0:0:0:0:
320,192,56961,1,0,0:0:0:0:
64,192,57121,1,8,0:0:0:0:
192,192,57121,1,4,0:0:0:0:
320,192,57121,1,0,0:0:0:0:
64,192,57280,128,2,57759:0:0:0:0:
320,192,57280,128,4,57599:0:0:0:0:
448,192,57280,1,0,0:0:0:0:
192,192,57599,1,2,0:0:0:0:
448,192,57599,1,0,0:0:0:0:
192,192,57759,1,8,0:0:0:0:
320,192,57759,1,0,0:0:0:0:
448,192,57759,128,0,58078:0:0:0:0:
64,192,57918,1,0,0:0:0:0:
320,192,57998,1,8,0:0:0:0:
64,192,58078,128,2,58397:0:0:0:0:
192,192,58078,128,0,58238:0:0:0:0:
320,192,58238,1,2,0:0:0:0:
448,192,58238,1,0,0:0:0:0:
192,192,58397,1,8,0:0:0:0:
320,192,58397,128,0,58557:0:0:0:0:
448,192,58397,128,0,58716:0:0:0:0:
64,192,58557,128,2,58876:0:0:0:0:
192,192,58557,128,4,58716:0:0:0:0:
320,192,58716,1,0,0:0:0:0:
192,192,58876,1,2,0:0:0:0:
448,192,58876,1,0,0:0:0:0:
64,192,59035,1,8,0:0:0:0:
320,192,59035,128,0,59195:0:0:0:0:
448,192,59035,128,0,59355:0:0:0:0:
192,192,59195,1,0,0:0:0:0:
64,192,59275,1,8,0:0:0:0:
192,192,59355,128,2,59674:0:0:0:0:
320,192,59355,128,0,59514:0:0:0:0:
64,192,59514,1,2,0:0:0:0:
448,192,59514,1,0,0:0:0:0:
64,192,59674,128,8,59993:0:0:0:0:
320,192,59674,1,0,0:0:0:0:
448,192,59674,128,0,59833:0:0:0:0:
192,192,59833,1,0,0:0:0:0:
192,192,59993,128,2,60152:0:0:0:0:
320,192,59993,1,4,0:0:0:0:
448,192,59993,128,0,60312:0:0:0:0:
64,192,60152,1,0,0:0:0:0:
64,192,60312,128,8,60472:0:0:0:0:
192,192,60312,1,0,0:0:0:0:
320,192,60312,128,0,60392:0:0:0:0:
192,192,60472,128,0,60551:0:0:0:0:
448,192,60472,128,0,61748:0:0:0:0:
320,192,60551,1,8,0:0:0:0:
64,192,60631,128,2,60711:0:0:0:0:
192,192,60631,1,0,0:0:0:0:
64,192,60791,128,2,60871:0:0:0:0:
320,192,60791,1,0,0:0:0:0:
192,192,60950,1,8,0:0:0:0:
320,192,60950,128,0,61030:0:0:0:0:
64,192,61110,128,0,61190:0:0:0:0:
320,192,61190,1,0,0:0:0:0:
64,192,61270,128,2,61349:0:0:0:0:
192,192,61270,128,0,61349:0:0:0:0:
320,192,61429,1,0,0:0:0:0:
64,192,61589,1,8,0:0:0:0:
192,192,61589,1,4,0:0:0:0:
320,192,61589,1,0,0:0:0:0:
64,192,61748,128,2,61828:0:0:0:0:
192,192,61748,128,4,61828:0:0:0:0:
448,192,61908,1,0,0:0:0:0:
192,192,62067,1,2,0:0:0:0:
320,192,62067,1,0,0:0:0:0:
64,192,62227,128,8,62546:0:0:0:0:
320,192,62227,1,4,0:0:0:0:
448,192,62227,1,0,0:0:0:0:
192,192,62387,1,8,0:0:0:0:
448,192,62387,1,0,0:0:0:0:
320,192,62466,1,8,0:0:0:0:
192,192,62546,1,2,0:0:0:0:
448,192,62546,128,4,62865:0:0:0:0:
64,192,62865,1,8,0:0:0:0:
192,192,62865,1,0,0:0:0:0:
320,192,62865,1,0,0:0:0:0:
448,192,63025,128,0,63344:0:0:0:0:
320,192,63105,1,8,0:0:0:0:
64,192,63184,128,2,63504:0:0:0:0:
192,192,63184,1,0,0:0:0:0:
192,192,63344,1,2,0:0:0:0:
320,192,63344,1,0,0:0:0:0:
192,192,63504,1,8,0:0:0:0:
320,192,63504,1,4,0:0:0:0:
448,192,63504,1,0,0:0:0:0:
64,192,63663,128,0,63982:0:0:0:0:
320,192,63823,1,2,0:0:0:0:
448,192,63823,128,4,64142:0:0:0:0:
192,192,63982,1,0,0:0:0:0:
64,192,64142,1,8,0:0:0:0:
192,192,64142,1,0,0:0:0:0:
320,192,64142,1,0,0:0:0:0:
448,192,64301,128,0,64621:0:0:0:0:
320,192,64381,1,8,0:0:0:0:
64,192,64461,1,2,0:0:0:0:
192,192,64461,128,0,64780:0:0:0:0:
64,192,64621,1,2,0:0:0:0:
320,192,64621,1,0,0:0:0:0:
64,192,64780,1,8,0:0:0:0:
320,192,64780,1,0,0:0:0:0:
448,192,64780,128,0,65099:0:0:0:0:
192,192,64940,1,0,0:0:0:0:
64,192,65099,128,2,65418:0:0:0:0:
192,192,65099,1,4,0:0:0:0:
320,192,65099,1,0,0:0:0:0:
320,192,65259,1,2,0:0:0:0:
448,192,65259,1,0,0:0:0:0:
192,192,65418,1,8,0:0:0:0:
320,192,65418,1,0,0:0:0:0:
448,192,65418,128,0,65738:0:0:0:0:
64,192,65578,1,2,0:0:0:0:
192,192,65578,1,0,0:0:0:0:
64,192,65738,1,8,0:0:0:0:
192,192,65738,128,0,66057:0:0:0:0:
320,192,65738,1,0,0:0:0:0:
320,192,65897,1,2,0:0:0:0:
448,192,65897,1,0,0:0:0:0:
64,192,66057,1,8,0:0:0:0:
320,192,66057,128,0,66376:0:0:0:0:
448,192,66057,1,0,0:0:0:0:
64,192,66216,1,2,0:0:0:0:
192,192,66216,1,0,0:0:0:0:
64,192,66376,128,8,66695:0:0:0:0:
192,192,66376,1,0,0:0:0:0:
448,192,66376,1,0,0:0:0:0:
320,192,66535,1,0,0:0:0:0:
192,192,66695,1,8,0:0:0:0:
320,192,66695,1,0,0:0:0:0:
448,192,66695,1,0,0:0:0:0:
64,192,66855,128,8,67174:0:0:0:0:
448,192,66855,1,0,0:0:0:0:
320,192,66934,1,8,0:0:0:0:
192,192,67014,1,8,0:0:0:0:
448,192,67014,128,0,67333:0:0:0:0:
192,192,67174,1,0,0:0:0:50:Tom1.wav
320,192,67174,1,0,0:0:0:0:
64,192,67333,1,0,0:0:0:50:Tom2.wav
320,192,67333,1,0,0:0:0:0:
192,192,67493,128,0,67812:0:0:0:50:Tom3.wav
448,192,67493,1,0,0:0:0:0:
64,192,67652,1,2,0:0:0:0:
320,192,67652,1,4,0:0:0:0:
448,192,67652,128,0,67972:0:0:0:0:
64,192,67812,1,0,0:0:0:0:
320,192,67972,1,0,0:0:0:0:
64,192,68131,1,2,0:0:0:0:
192,192,68131,1,0,0:0:0:0:
64,192,68291,1,8,0:0:0:0:
320,192,68291,1,0,0:0:0:0:
448,192,68291,1,0,0:0:0:0:
192,192,68450,1,0,0:0:0:0:
320,192,68610,128,0,68770:0:0:0:0:
64,192,68770,128,2,68929:0:0:0:0:
192,192,68770,1,0,0:0:0:0:
448,192,68929,128,0,69248:0:0:0:0:
64,192,69089,1,8,0:0:0:0:
192,192,69089,1,0,0:0:0:0:
320,192,69089,1,0,0:0:0:0:
192,192,69248,128,0,69408:0:0:0:0:
320,192,69408,128,2,69727:0:0:0:0:
448,192,69408,1,0,0:0:0:0:
64,192,69567,1,8,0:0:0:0:
192,192,69567,1,0,0:0:0:0:
448,192,69567,1,0,0:0:0:0:
64,192,69887,128,2,70206:0:0:0:0:
192,192,69887,1,0,0:0:0:0:
320,192,70046,1,0,0:0:0:0:
192,192,70206,1,2,0:0:0:0:
320,192,70206,1,4,0:0:0:0:
448,192,70206,128,0,70525:0:0:0:0:
192,192,70525,128,0,70844:0:0:0:0:
64,192,70684,1,2,0:0:0:0:
320,192,70684,1,0,0:0:0:0:
64,192,70844,1,8,0:0:0:0:
320,192,70844,1,0,0:0:0:0:
448,192,70844,128,0,71163:0:0:0:0:
320,192,71163,128,0,71482:0:0:0:0:
64,192,71323,1,2,0:0:0:0:
192,192,71323,1,0,0:0:0:0:
64,192,71482,128,0,71801:0:0:0:0:
192,192,71642,1,8,0:0:0:0:
320,192,71642,1,0,0:0:0:0:
448,192,71642,1,0,0:0:0:0:
448,192,71801,128,0,71961:0:0:0:0:
192,192,71961,128,2,72280:0:0:0:0:
320,192,71961,1,0,0:0:0:0:
64,192,72121,1,8,0:0:0:0:
320,192,72121,1,0,0:0:0:0:
448,192,72121,128,0,72440:0:0:0:0:
64,192,72280,1,0,0:0:0:0:
192,192,72440,1,2,0:0:0:0:
320,192,72440,128,0,72759:0:0:0:0:
64,192,72599,1,0,0:0:0:0:
64,192,72759,128,2,73078:0:0:0:0:
192,192,72759,1,4,0:0:0:0:
448,192,72759,1,0,0:0:0:0:
320,192,73078,1,0,0:0:0:0:
192,192,73238,1,2,0:0:0:0:
448,192,73238,1,0,0:0:0:0:
64,192,73397,1,8,0:0:0:0:
320,192,73397,1,0,0:0:0:0:
448,192,73397,128,0,73716:0:0:0:0:
64,192,73716,128,0,73876:0:0:0:0:
320,192,73876,128,2,74035:0:0:0:0:
448,192,73876,1,0,0:0:0:0:
192,192,74035,128,0,74355:0:0:0:0:
64,192,74195,1,8,0:0:0:0:
320,192,74195,1,0,0:0:0:0:
448,192,74195,1,0,0:0:0:0:
448,192,74355,128,0,74514:0:0:0:0:
64,192,74514,128,2,74833:0:0:0:0:
192,192,74514,1,0,0:0:0:0:
192,192,74674,1,8,0:0:0:0:
320,192,74674,128,0,74993:0:0:0:0:
448,192,74674,1,0,0:0:0:0:
448,192,74833,128,0,74993:0:0:0:0:
64,192,74993,128,2,75312:0:0:0:0:
192,192,74993,1,0,0:0:0:0:
320,192,75152,1,0,0:0:0:0:
192,192,75312,1,2,0:0:0:0:
320,192,75312,1,4,0:0:0:0:
448,192,75312,128,0,76589:0:0:0:0:
64,192,75631,1,2,0:0:0:0:
192,192,75631,1,0,0:0:0:0:
192,192,75791,1,2,0:0:0:0:
320,192,75791,1,0,0:0:0:0:
64,192,75950,1,2,0:0:0:0:
320,192,75950,1,0,0:0:0:0:
64,192,76110,1,2,0:0:0:0:
192,192,76110,1,0,0:0:0:0:
192,192,76270,1,2,0:0:0:0:
320,192,76270,1,0,0:0:0:0:
64,192,76429,1,2,0:0:0:0:
320,192,76429,1,0,0:0:0:0:
64,192,76589,1,2,0:0:0:0:
192,192,76589,1,4,0:0:0:0:
320,192,76589,1,0,0:0:0:0:
448,192,77067,128,0,77387:0:0:0:0:
64,192,77227,128,0,77546:0:0:0:0:
192,192,77227,1,0,0:0:0:0:
192,192,77546,1,0,0:0:0:50:Tom3.wav
320,192,77546,128,0,77865:0:0:0:0:
448,192,77706,128,0,78025:0:0:0:0:
64,192,77865,128,6,78184:0:0:0:0:
192,192,78025,128,0,78344:0:0:0:0:
320,192,78184,128,0,78504:0:0:0:0:
448,192,78344,128,0,78663:0:0:0:0:
64,192,78504,128,0,78823:0:0:0:0:
320,192,78663,128,0,78982:0:0:0:0:
192,192,78823,128,0,79142:0:0:0:0:
64,192,78982,128,0,79301:0:0:0:0:
448,192,79142,128,0,79461:0:0:0:0:
320,192,79301,128,0,79621:0:0:0:0:
64,192,79461,128,0,79780:0:0:0:0:
192,192,79621,128,0,79940:0:0:0:0:
448,192,79780,128,0,80099:0:0:0:0:
320,192,79940,128,0,80259:0:0:0:0:
64,192,80099,128,0,80418:0:0:0:0:
448,192,80259,128,0,80578:0:0:0:0:
192,192,80418,128,0,80738:0:0:0:0:
320,192,80418,1,0,0:0:0:0:
64,192,80578,128,0,80897:0:0:0:0:
320,192,80738,128,0,81057:0:0:0:0:
448,192,80897,128,0,81216:0:0:0:0:
64,192,81057,128,0,81376:0:0:0:0:
192,192,81216,128,0,81535:0:0:0:0:
448,192,81376,128,0,81695:0:0:0:0:
320,192,81535,128,0,81855:0:0:0:0:
64,192,81695,128,0,82014:0:0:0:0:
448,192,81855,128,0,82174:0:0:0:0:
192,192,82014,128,0,82333:0:0:0:0:
320,192,82174,128,0,82493:0:0:0:0:
448,192,82333,128,0,82652:0:0:0:0:
64,192,82493,1,2,0:0:0:0:
192,192,82493,1,0,0:0:0:0:
320,192,82573,1,2,0:0:0:0:
64,192,82652,128,8,82972:0:0:0:0:
192,192,82652,1,0,0:0:0:0:
192,192,82972,1,2,0:0:0:0:
320,192,82972,1,4,0:0:0:0:
448,192,82972,128,0,83291:0:0:0:0:
64,192,83291,1,8,0:0:0:0:
192,192,83291,1,0,0:0:0:0:
320,192,83291,1,0,0:0:0:0:
64,192,83450,128,2,83770:0:0:0:0:
448,192,83450,1,0,0:0:0:0:
192,192,83770,1,2,0:0:0:0:
320,192,83770,1,0,0:0:0:0:
64,192,83929,1,8,0:0:0:0:
192,192,83929,1,0,0:0:0:0:
448,192,83929,1,0,0:0:0:0:
320,192,84089,128,2,84408:0:0:0:0:
448,192,84089,1,4,0:0:0:0:
64,192,84408,1,2,0:0:0:0:
192,192,84408,1,0,0:0:0:0:
320,192,84488,1,2,0:0:0:0:
448,192,84488,1,0,0:0:0:0:
64,192,84567,1,8,0:0:0:0:
192,192,84567,1,0,0:0:0:0:
192,192,84727,1,2,0:0:0:0:
320,192,84727,1,0,0:0:0:0:
64,192,84887,1,8,0:0:0:0:
320,192,84887,1,2,0:0:0:0:
448,192,84887,1,0,0:0:0:0:
64,192,85046,1,2,0:0:0:0:
320,192,85046,1,8,0:0:0:0:
448,192,85046,1,0,0:0:0:0:
64,192,85206,1,8,0:0:0:0:
320,192,85206,1,2,0:0:0:0:
448,192,85206,1,0,0:0:0:0:
64,192,85365,128,2,88317:0:0:0:0:
320,192,85365,128,8,87659:0:0:0:0:
448,192,85365,128,4,87659:0:0:0:0:
192,192,87659,1,0,0:0:0:0:
320,192,87732,1,0,0:0:0:0:
448,192,87732,1,0,0:0:0:0:
448,192,87812,128,0,87972:0:0:0:0:
320,192,87812,128,0,88131:0:0:0:0:
