osu file format v14

[General]
AudioFilename: audio 1.250x.mp3
AudioLeadIn: 0
PreviewTime: 25402
Countdown: 0
SampleSet: None
StackLeniency: 0.7
Mode: 3
LetterboxInBreaks: 0
SpecialStyle: 0
WidescreenStoryboard: 0

[Editor]
Bookmarks: 6358,19056,31753,57148,84130,95240,109525,122223
DistanceSpacing: 0.8
BeatDivisor: 4
GridSize: 4
TimelineZoom: 2.3

[Metadata]
Title:Deep Down (Sped Up Ver.)
TitleUnicode:Deep Down (Sped Up Ver.)
Artist:Alok x Ella Eyre x Kenny Dope feat. Never Dull
ArtistUnicode:Alok x Ella Eyre x Kenny Dope feat. Never Dull
Creator:ShibePlanet
Version:You & I (1.25x)
Source:
Tags:electronic english chordjack cj speedjack jack stamina
BeatmapID:4485053
BeatmapSetID:1900403

[Difficulty]
HPDrainRate:8
CircleSize:4
OverallDifficulty:8
ApproachRate:6.6
SliderMultiplier:1.4
SliderTickRate:1

[Events]
//Background and Video events
0,0,"crumbdance.jpg",0,0
//Break Periods
2,76392,80311
//Storyboard Layer 0 (Background)
//Storyboard Layer 1 (Fail)
//Storyboard Layer 2 (Pass)
//Storyboard Layer 3 (Foreground)
//Storyboard Layer 4 (Overlay)
//Storyboard Sound Samples

[TimingPoints]
7,317.437223482418,4,2,0,40,1,0
25402,-100,4,2,0,40,0,1
35560,-100,4,2,0,40,0,0
67304,-100,4,2,0,40,0,1
76192,-100,4,2,0,40,0,0
87620,-100,4,2,0,40,0,1
97778,-100,4,2,0,40,0,0

[HitObjects]
64,192,5086,5,0,0:0:0:0:
448,192,5086,1,0,0:0:0:0:
192,192,5086,1,0,0:0:0:0:
320,192,5244,1,0,0:0:0:0:
192,192,5404,1,0,0:0:0:0:
64,192,5404,1,0,0:0:0:0:
320,192,5404,1,0,0:0:0:0:
448,192,5483,1,0,0:0:0:0:
64,192,5562,1,0,0:0:0:0:
192,192,5721,1,0,0:0:0:0:
320,192,5721,1,0,0:0:0:0:
448,192,5721,1,0,0:0:0:0:
320,192,5880,1,0,0:0:0:0:
192,192,6038,1,0,0:0:0:0:
64,192,6038,1,0,0:0:0:0:
320,192,6038,1,0,0:0:0:0:
192,192,6197,1,0,0:0:0:0:
64,192,6356,1,0,0:0:0:0:
192,192,6356,1,0,0:0:0:0:
448,192,6356,1,0,0:0:0:0:
320,192,6515,1,0,0:0:0:0:
448,192,6673,1,0,0:0:0:0:
320,192,6673,1,0,0:0:0:0:
192,192,6673,1,0,0:0:0:0:
64,192,6752,1,0,0:0:0:0:
448,192,6832,1,0,0:0:0:0:
320,192,6991,1,0,0:0:0:0:
192,192,6991,1,0,0:0:0:0:
64,192,6991,1,0,0:0:0:0:
320,192,7149,1,0,0:0:0:0:
320,192,7308,1,0,0:0:0:0:
192,192,7308,1,0,0:0:0:0:
448,192,7308,1,0,0:0:0:0:
192,192,7467,1,0,0:0:0:0:
64,192,7625,1,0,0:0:0:0:
320,192,7625,1,0,0:0:0:0:
448,192,7625,1,0,0:0:0:0:
192,192,7784,1,0,0:0:0:0:
320,192,7784,1,0,0:0:0:0:
64,192,7943,1,0,0:0:0:0:
192,192,7943,1,0,0:0:0:0:
320,192,7943,1,0,0:0:0:0:
448,192,8102,1,0,0:0:0:0:
192,192,8102,1,0,0:0:0:0:
64,192,8260,1,0,0:0:0:0:
320,192,8260,1,0,0:0:0:0:
448,192,8260,1,0,0:0:0:0:
64,192,8419,1,0,0:0:0:0:
320,192,8419,1,0,0:0:0:0:
192,192,8578,1,0,0:0:0:0:
320,192,8578,1,0,0:0:0:0:
448,192,8578,1,0,0:0:0:0:
64,192,8736,1,0,0:0:0:0:
448,192,8736,1,0,0:0:0:0:
64,192,8896,1,0,0:0:0:0:
192,192,8896,1,0,0:0:0:0:
320,192,8896,1,0,0:0:0:0:
448,192,8975,1,0,0:0:0:0:
320,192,9054,1,0,0:0:0:0:
192,192,9054,1,0,0:0:0:0:
64,192,9212,1,0,0:0:0:0:
320,192,9212,1,0,0:0:0:0:
448,192,9212,1,0,0:0:0:0:
448,192,9372,1,0,0:0:0:0:
64,192,9530,1,0,0:0:0:0:
192,192,9530,1,0,0:0:0:0:
320,192,9530,1,0,0:0:0:0:
192,192,9689,1,0,0:0:0:0:
64,192,9848,1,0,0:0:0:0:
320,192,9848,1,0,0:0:0:0:
448,192,9848,1,0,0:0:0:0:
320,192,10006,1,0,0:0:0:0:
192,192,10165,1,0,0:0:0:0:
320,192,10165,1,0,0:0:0:0:
448,192,10165,1,0,0:0:0:0:
448,192,10324,1,0,0:0:0:0:
192,192,10483,1,0,0:0:0:0:
64,192,10483,1,0,0:0:0:0:
448,192,10483,1,0,0:0:0:0:
320,192,10562,1,0,0:0:0:0:
64,192,10641,1,0,0:0:0:0:
192,192,10800,1,0,0:0:0:0:
320,192,10800,1,0,0:0:0:0:
448,192,10800,1,0,0:0:0:0:
320,192,10959,1,0,0:0:0:0:
320,192,11117,1,0,0:0:0:0:
192,192,11117,1,0,0:0:0:0:
64,192,11117,1,0,0:0:0:0:
448,192,11276,1,0,0:0:0:0:
448,192,11435,1,0,0:0:0:0:
320,192,11435,1,0,0:0:0:0:
192,192,11435,1,0,0:0:0:0:
192,192,11593,1,0,0:0:0:0:
64,192,11752,1,0,0:0:0:0:
320,192,11752,1,0,0:0:0:0:
448,192,11752,1,0,0:0:0:0:
192,192,11832,1,0,0:0:0:0:
320,192,11911,1,0,0:0:0:0:
192,192,12070,1,0,0:0:0:0:
64,192,12070,1,0,0:0:0:0:
448,192,12070,1,0,0:0:0:0:
64,192,12228,1,0,0:0:0:0:
64,192,12387,1,0,0:0:0:0:
192,192,12387,1,0,0:0:0:0:
320,192,12387,1,0,0:0:0:0:
320,192,12546,1,0,0:0:0:0:
320,192,12704,1,0,0:0:0:0:
448,192,12704,1,0,0:0:0:0:
64,192,12704,1,0,0:0:0:0:
192,192,12864,1,0,0:0:0:0:
64,192,12864,1,0,0:0:0:0:
192,192,13022,1,0,0:0:0:0:
320,192,13022,1,0,0:0:0:0:
448,192,13022,1,0,0:0:0:0:
64,192,13180,1,0,0:0:0:0:
320,192,13180,1,0,0:0:0:0:
192,192,13340,1,0,0:0:0:0:
64,192,13340,1,0,0:0:0:0:
320,192,13340,1,0,0:0:0:0:
192,192,13498,1,0,0:0:0:0:
448,192,13498,1,0,0:0:0:0:
448,192,13657,1,0,0:0:0:0:
192,192,13657,1,0,0:0:0:0:
320,192,13657,1,0,0:0:0:0:
192,192,13816,1,0,0:0:0:0:
320,192,13816,1,0,0:0:0:0:
64,192,13974,1,0,0:0:0:0:
448,192,13974,1,0,0:0:0:0:
320,192,13974,1,0,0:0:0:0:
192,192,14054,1,0,0:0:0:0:
320,192,14133,1,0,0:0:0:0:
448,192,14133,1,0,0:0:0:0:
192,192,14292,128,0,14451:0:0:0:0:
320,192,14292,128,0,14451:0:0:0:0:
64,192,14292,128,0,14451:0:0:0:0:
192,192,14609,128,0,14768:0:0:0:0:
64,192,14609,128,0,14768:0:0:0:0:
448,192,14609,128,0,14768:0:0:0:0:
64,192,14927,128,0,15085:0:0:0:0:
448,192,14927,128,0,15085:0:0:0:0:
320,192,14927,128,0,15085:0:0:0:0:
320,192,15244,1,0,0:0:0:0:
192,192,15244,1,0,0:0:0:0:
64,192,15244,1,0,0:0:0:0:
448,192,15244,128,0,15403:0:0:0:0:
64,192,15561,128,0,15720:0:0:0:0:
320,192,15561,1,0,0:0:0:0:
192,192,15561,1,0,0:0:0:0:
448,192,15561,1,0,0:0:0:0:
64,192,15800,128,0,15958:0:0:0:0:
320,192,15879,1,0,0:0:0:0:
448,192,15879,1,0,0:0:0:0:
64,192,16038,128,0,16196:0:0:0:0:
192,192,16196,1,0,0:0:0:0:
320,192,16196,1,0,0:0:0:0:
448,192,16196,1,0,0:0:0:0:
64,192,16276,128,0,16435:0:0:0:0:
192,192,16514,128,0,16672:0:0:0:0:
64,192,16514,1,0,0:0:0:0:
448,192,16514,1,0,0:0:0:0:
320,192,16832,128,0,16990:0:0:0:0:
448,192,16832,1,0,0:0:0:0:
192,192,16832,1,0,0:0:0:0:
64,192,16832,1,0,0:0:0:0:
320,192,17069,128,0,17228:0:0:0:0:
192,192,17148,1,0,0:0:0:0:
448,192,17148,1,0,0:0:0:0:
320,192,17308,128,0,17466:0:0:0:0:
192,192,17466,1,0,0:0:0:0:
64,192,17466,1,0,0:0:0:0:
448,192,17466,1,0,0:0:0:0:
320,192,17545,128,0,17704:0:0:0:0:
64,192,17784,128,0,17942:0:0:0:0:
192,192,17784,1,0,0:0:0:0:
448,192,17784,1,0,0:0:0:0:
448,192,18101,128,0,18260:0:0:0:0:
320,192,18101,1,0,0:0:0:0:
192,192,18101,1,0,0:0:0:0:
64,192,18101,1,0,0:0:0:0:
448,192,18339,128,0,18498:0:0:0:0:
192,192,18418,1,0,0:0:0:0:
320,192,18418,1,0,0:0:0:0:
448,192,18577,128,0,18736:0:0:0:0:
320,192,18736,1,0,0:0:0:0:
192,192,18736,1,0,0:0:0:0:
64,192,18736,1,0,0:0:0:0:
448,192,18815,128,0,18974:0:0:0:0:
320,192,19053,128,0,19212:0:0:0:0:
192,192,19053,1,0,0:0:0:0:
64,192,19053,1,0,0:0:0:0:
192,192,19371,128,0,19529:0:0:0:0:
64,192,19371,1,0,0:0:0:0:
448,192,19371,1,0,0:0:0:0:
320,192,19371,1,0,0:0:0:0:
192,192,19608,128,0,19768:0:0:0:0:
320,192,19688,1,0,0:0:0:0:
448,192,19688,1,0,0:0:0:0:
192,192,19847,128,0,20005:0:0:0:0:
64,192,20005,1,0,0:0:0:0:
320,192,20005,1,0,0:0:0:0:
448,192,20005,1,0,0:0:0:0:
192,192,20085,128,0,20244:0:0:0:0:
64,192,20323,128,0,20482:0:0:0:0:
448,192,20323,1,0,0:0:0:0:
320,192,20323,1,0,0:0:0:0:
320,192,20640,128,0,20799:0:0:0:0:
64,192,20640,1,0,0:0:0:0:
192,192,20640,1,0,0:0:0:0:
448,192,20640,1,0,0:0:0:0:
320,192,20879,128,0,21037:0:0:0:0:
448,192,20958,1,0,0:0:0:0:
64,192,20958,1,0,0:0:0:0:
320,192,21116,128,0,21276:0:0:0:0:
64,192,21276,1,0,0:0:0:0:
192,192,21276,1,0,0:0:0:0:
448,192,21276,1,0,0:0:0:0:
320,192,21355,128,0,21513:0:0:0:0:
64,192,21592,128,0,21752:0:0:0:0:
192,192,21592,1,0,0:0:0:0:
448,192,21592,1,0,0:0:0:0:
448,192,21910,128,0,22069:0:0:0:0:
320,192,21910,1,0,0:0:0:0:
192,192,21910,1,0,0:0:0:0:
64,192,21910,1,0,0:0:0:0:
448,192,22148,128,0,22307:0:0:0:0:
320,192,22228,1,0,0:0:0:0:
192,192,22228,1,0,0:0:0:0:
448,192,22386,128,0,22545:0:0:0:0:
320,192,22545,1,0,0:0:0:0:
64,192,22545,1,0,0:0:0:0:
192,192,22545,1,0,0:0:0:0:
448,192,22624,128,0,22783:0:0:0:0:
320,192,22863,128,0,23021:0:0:0:0:
192,192,22863,1,0,0:0:0:0:
64,192,22863,1,0,0:0:0:0:
64,192,23180,128,0,23339:0:0:0:0:
192,192,23180,1,0,0:0:0:0:
448,192,23180,1,0,0:0:0:0:
64,192,23418,128,0,23576:0:0:0:0:
448,192,23497,1,0,0:0:0:0:
320,192,23497,1,0,0:0:0:0:
192,192,23497,1,0,0:0:0:0:
64,192,23656,128,0,23815:0:0:0:0:
448,192,23815,1,0,0:0:0:0:
192,192,23815,1,0,0:0:0:0:
64,192,23894,128,0,24053:0:0:0:0:
320,192,24132,1,0,0:0:0:0:
448,192,24132,1,0,0:0:0:0:
192,192,24132,1,0,0:0:0:0:
64,192,24450,1,0,0:0:0:0:
192,192,24450,1,0,0:0:0:0:
320,192,24450,1,0,0:0:0:0:
448,192,24767,1,0,0:0:0:0:
320,192,24767,1,0,0:0:0:0:
64,192,24767,1,0,0:0:0:0:
64,192,25084,1,0,0:0:0:0:
192,192,25084,1,0,0:0:0:0:
448,192,25084,1,0,0:0:0:0:
64,192,25402,1,0,0:0:0:0:
192,192,25402,1,0,0:0:0:0:
320,192,25402,1,0,0:0:0:0:
448,192,25402,1,0,0:0:0:0:
192,192,25481,1,0,0:0:0:0:
448,192,25481,1,0,0:0:0:0:
64,192,25560,1,0,0:0:0:0:
320,192,25560,1,0,0:0:0:0:
192,192,25560,1,0,0:0:0:0:
448,192,25640,1,0,0:0:0:0:
64,192,25640,1,0,0:0:0:0:
320,192,25720,1,0,0:0:0:0:
448,192,25720,1,0,0:0:0:0:
192,192,25720,1,0,0:0:0:0:
64,192,25720,1,0,0:0:0:0:
320,192,25799,1,0,0:0:0:0:
64,192,25799,1,0,0:0:0:0:
192,192,25878,1,0,0:0:0:0:
320,192,25878,1,0,0:0:0:0:
448,192,25878,1,0,0:0:0:0:
64,192,25957,1,0,0:0:0:0:
448,192,25957,1,0,0:0:0:0:
448,192,26037,1,0,0:0:0:0:
320,192,26037,1,0,0:0:0:0:
192,192,26037,1,0,0:0:0:0:
64,192,26037,1,0,0:0:0:0:
320,192,26116,1,0,0:0:0:0:
64,192,26116,1,0,0:0:0:0:
192,192,26196,1,0,0:0:0:0:
448,192,26196,1,0,0:0:0:0:
320,192,26196,1,0,0:0:0:0:
64,192,26275,1,0,0:0:0:0:
448,192,26275,1,0,0:0:0:0:
448,192,26354,1,0,0:0:0:0:
320,192,26354,1,0,0:0:0:0:
192,192,26354,1,0,0:0:0:0:
64,192,26354,1,0,0:0:0:0:
192,192,26434,1,0,0:0:0:0:
448,192,26434,1,0,0:0:0:0:
64,192,26513,1,0,0:0:0:0:
320,192,26513,1,0,0:0:0:0:
192,192,26513,1,0,0:0:0:0:
448,192,26592,1,0,0:0:0:0:
64,192,26592,1,0,0:0:0:0:
64,192,26672,1,0,0:0:0:0:
192,192,26672,1,0,0:0:0:0:
320,192,26672,1,0,0:0:0:0:
448,192,26672,1,0,0:0:0:0:
64,192,26751,1,0,0:0:0:0:
192,192,26751,1,0,0:0:0:0:
320,192,26751,1,0,0:0:0:0:
448,192,26831,1,0,0:0:0:0:
320,192,26831,1,0,0:0:0:0:
192,192,26831,1,0,0:0:0:0:
64,192,26910,1,0,0:0:0:0:
448,192,26910,1,0,0:0:0:0:
320,192,26910,1,0,0:0:0:0:
64,192,26989,1,0,0:0:0:0:
192,192,26989,1,0,0:0:0:0:
320,192,26989,1,0,0:0:0:0:
448,192,26989,1,0,0:0:0:0:
448,192,27068,1,0,0:0:0:0:
320,192,27068,1,0,0:0:0:0:
64,192,27068,1,0,0:0:0:0:
64,192,27148,1,0,0:0:0:0:
192,192,27148,1,0,0:0:0:0:
448,192,27148,1,0,0:0:0:0:
320,192,27228,1,0,0:0:0:0:
192,192,27228,1,0,0:0:0:0:
448,192,27228,1,0,0:0:0:0:
64,192,27307,1,0,0:0:0:0:
192,192,27307,1,0,0:0:0:0:
320,192,27307,1,0,0:0:0:0:
448,192,27307,1,0,0:0:0:0:
64,192,27386,1,0,0:0:0:0:
320,192,27386,1,0,0:0:0:0:
448,192,27386,1,0,0:0:0:0:
448,192,27465,1,0,0:0:0:0:
192,192,27465,1,0,0:0:0:0:
64,192,27465,1,0,0:0:0:0:
320,192,27544,1,0,0:0:0:0:
192,192,27544,1,0,0:0:0:0:
448,192,27624,1,0,0:0:0:0:
320,192,27624,1,0,0:0:0:0:
192,192,27624,1,0,0:0:0:0:
64,192,27624,1,0,0:0:0:0:
64,192,27704,1,0,0:0:0:0:
448,192,27704,1,0,0:0:0:0:
64,192,27783,1,0,0:0:0:0:
320,192,27783,1,0,0:0:0:0:
192,192,27783,1,0,0:0:0:0:
448,192,27862,1,0,0:0:0:0:
192,192,27862,1,0,0:0:0:0:
64,192,27941,1,0,0:0:0:0:
192,192,27941,1,0,0:0:0:0:
320,192,27941,1,0,0:0:0:0:
448,192,27941,1,0,0:0:0:0:
320,192,28021,1,0,0:0:0:0:
64,192,28021,1,0,0:0:0:0:
64,192,28100,1,0,0:0:0:0:
192,192,28100,1,0,0:0:0:0:
448,192,28100,1,0,0:0:0:0:
192,192,28180,1,0,0:0:0:0:
320,192,28180,1,0,0:0:0:0:
64,192,28259,1,0,0:0:0:0:
192,192,28259,1,0,0:0:0:0:
320,192,28259,1,0,0:0:0:0:
448,192,28259,1,0,0:0:0:0:
448,192,28338,1,0,0:0:0:0:
192,192,28338,1,0,0:0:0:0:
64,192,28418,1,0,0:0:0:0:
320,192,28418,1,0,0:0:0:0:
448,192,28418,1,0,0:0:0:0:
64,192,28497,1,0,0:0:0:0:
320,192,28497,1,0,0:0:0:0:
64,192,28576,1,0,0:0:0:0:
192,192,28576,1,0,0:0:0:0:
320,192,28576,1,0,0:0:0:0:
448,192,28576,1,0,0:0:0:0:
192,192,28656,1,0,0:0:0:0:
448,192,28656,1,0,0:0:0:0:
64,192,28735,1,0,0:0:0:0:
192,192,28735,1,0,0:0:0:0:
320,192,28735,1,0,0:0:0:0:
448,192,28815,1,0,0:0:0:0:
320,192,28815,1,0,0:0:0:0:
64,192,28894,1,0,0:0:0:0:
192,192,28894,1,0,0:0:0:0:
320,192,28894,1,0,0:0:0:0:
448,192,28894,1,0,0:0:0:0:
64,192,28973,1,0,0:0:0:0:
192,192,28973,1,0,0:0:0:0:
448,192,29052,1,0,0:0:0:0:
320,192,29052,1,0,0:0:0:0:
192,192,29052,1,0,0:0:0:0:
64,192,29132,1,0,0:0:0:0:
448,192,29132,1,0,0:0:0:0:
448,192,29212,1,0,0:0:0:0:
192,192,29212,1,0,0:0:0:0:
64,192,29212,1,0,0:0:0:0:
320,192,29212,1,0,0:0:0:0:
64,192,29291,1,0,0:0:0:0:
320,192,29291,1,0,0:0:0:0:
448,192,29291,1,0,0:0:0:0:
64,192,29370,1,0,0:0:0:0:
192,192,29370,1,0,0:0:0:0:
448,192,29370,1,0,0:0:0:0:
320,192,29449,1,0,0:0:0:0:
192,192,29449,1,0,0:0:0:0:
64,192,29449,1,0,0:0:0:0:
64,192,29528,1,0,0:0:0:0:
192,192,29528,1,0,0:0:0:0:
320,192,29528,1,0,0:0:0:0:
448,192,29528,1,0,0:0:0:0:
448,192,29608,1,0,0:0:0:0:
320,192,29608,1,0,0:0:0:0:
64,192,29608,1,0,0:0:0:0:
64,192,29688,1,0,0:0:0:0:
192,192,29688,1,0,0:0:0:0:
448,192,29688,1,0,0:0:0:0:
448,192,29767,1,0,0:0:0:0:
192,192,29767,1,0,0:0:0:0:
320,192,29767,1,0,0:0:0:0:
64,192,29846,1,0,0:0:0:0:
192,192,29846,1,0,0:0:0:0:
320,192,29846,1,0,0:0:0:0:
448,192,29846,1,0,0:0:0:0:
64,192,29925,1,0,0:0:0:0:
192,192,29925,1,0,0:0:0:0:
320,192,29925,1,0,0:0:0:0:
448,192,30005,1,0,0:0:0:0:
192,192,30005,1,0,0:0:0:0:
320,192,30005,1,0,0:0:0:0:
64,192,30084,1,0,0:0:0:0:
448,192,30084,1,0,0:0:0:0:
448,192,30164,1,0,0:0:0:0:
320,192,30164,1,0,0:0:0:0:
192,192,30164,1,0,0:0:0:0:
64,192,30164,1,0,0:0:0:0:
448,192,30243,1,0,0:0:0:0:
192,192,30243,1,0,0:0:0:0:
64,192,30322,1,0,0:0:0:0:
192,192,30322,1,0,0:0:0:0:
320,192,30322,1,0,0:0:0:0:
448,192,30402,1,0,0:0:0:0:
64,192,30402,1,0,0:0:0:0:
64,192,30481,1,0,0:0:0:0:
192,192,30481,1,0,0:0:0:0:
320,192,30481,1,0,0:0:0:0:
448,192,30481,1,0,0:0:0:0:
192,192,30560,1,0,0:0:0:0:
320,192,30560,1,0,0:0:0:0:
320,192,30640,1,0,0:0:0:0:
448,192,30640,1,0,0:0:0:0:
64,192,30640,1,0,0:0:0:0:
448,192,30719,1,0,0:0:0:0:
192,192,30719,1,0,0:0:0:0:
64,192,30799,1,0,0:0:0:0:
192,192,30799,1,0,0:0:0:0:
320,192,30799,1,0,0:0:0:0:
448,192,30799,1,0,0:0:0:0:
64,192,30878,1,0,0:0:0:0:
192,192,30878,1,0,0:0:0:0:
448,192,30957,1,0,0:0:0:0:
320,192,30957,1,0,0:0:0:0:
64,192,30957,1,0,0:0:0:0:
192,192,31036,1,0,0:0:0:0:
320,192,31036,1,0,0:0:0:0:
448,192,31116,1,0,0:0:0:0:
320,192,31116,1,0,0:0:0:0:
192,192,31116,1,0,0:0:0:0:
64,192,31116,1,0,0:0:0:0:
64,192,31196,1,0,0:0:0:0:
448,192,31196,1,0,0:0:0:0:
320,192,31275,1,0,0:0:0:0:
192,192,31275,1,0,0:0:0:0:
448,192,31275,1,0,0:0:0:0:
64,192,31354,1,0,0:0:0:0:
192,192,31354,1,0,0:0:0:0:
192,192,31433,1,0,0:0:0:0:
64,192,31433,1,0,0:0:0:0:
448,192,31433,1,0,0:0:0:0:
320,192,31433,1,0,0:0:0:0:
192,192,31512,1,0,0:0:0:0:
448,192,31512,1,0,0:0:0:0:
320,192,31592,1,0,0:0:0:0:
448,192,31592,1,0,0:0:0:0:
192,192,31592,1,0,0:0:0:0:
64,192,31672,1,0,0:0:0:0:
320,192,31672,1,0,0:0:0:0:
192,192,31751,1,0,0:0:0:0:
64,192,31751,1,0,0:0:0:0:
320,192,31751,1,0,0:0:0:0:
448,192,31751,1,0,0:0:0:0:
192,192,31830,1,0,0:0:0:0:
320,192,31830,1,0,0:0:0:0:
64,192,31909,1,0,0:0:0:0:
192,192,31909,1,0,0:0:0:0:
320,192,31909,1,0,0:0:0:0:
448,192,31989,1,0,0:0:0:0:
192,192,31989,1,0,0:0:0:0:
448,192,32068,1,0,0:0:0:0:
320,192,32068,1,0,0:0:0:0:
192,192,32068,1,0,0:0:0:0:
64,192,32068,1,0,0:0:0:0:
64,192,32148,1,0,0:0:0:0:
448,192,32148,1,0,0:0:0:0:
320,192,32227,1,0,0:0:0:0:
448,192,32227,1,0,0:0:0:0:
192,192,32227,1,0,0:0:0:0:
64,192,32306,1,0,0:0:0:0:
320,192,32306,1,0,0:0:0:0:
192,192,32386,1,0,0:0:0:0:
64,192,32386,1,0,0:0:0:0:
448,192,32386,1,0,0:0:0:0:
320,192,32386,1,0,0:0:0:0:
192,192,32465,1,0,0:0:0:0:
320,192,32465,1,0,0:0:0:0:
64,192,32544,1,0,0:0:0:0:
192,192,32544,1,0,0:0:0:0:
448,192,32544,1,0,0:0:0:0:
64,192,32624,1,0,0:0:0:0:
192,192,32624,1,0,0:0:0:0:
64,192,32703,1,0,0:0:0:0:
192,192,32703,1,0,0:0:0:0:
448,192,32703,1,0,0:0:0:0:
320,192,32703,1,0,0:0:0:0:
448,192,32783,1,0,0:0:0:0:
320,192,32783,1,0,0:0:0:0:
448,192,32862,1,0,0:0:0:0:
192,192,32862,1,0,0:0:0:0:
64,192,32862,1,0,0:0:0:0:
64,192,32941,1,0,0:0:0:0:
320,192,32941,1,0,0:0:0:0:
192,192,33020,1,0,0:0:0:0:
64,192,33020,1,0,0:0:0:0:
320,192,33020,1,0,0:0:0:0:
448,192,33020,1,0,0:0:0:0:
64,192,33100,1,0,0:0:0:0:
448,192,33100,1,0,0:0:0:0:
448,192,33180,1,0,0:0:0:0:
192,192,33180,1,0,0:0:0:0:
320,192,33180,1,0,0:0:0:0:
448,192,33259,1,0,0:0:0:0:
192,192,33259,1,0,0:0:0:0:
192,192,33338,1,0,0:0:0:0:
64,192,33338,1,0,0:0:0:0:
320,192,33338,1,0,0:0:0:0:
448,192,33338,1,0,0:0:0:0:
320,192,33417,1,0,0:0:0:0:
192,192,33417,1,0,0:0:0:0:
64,192,33496,1,0,0:0:0:0:
448,192,33496,1,0,0:0:0:0:
320,192,33496,1,0,0:0:0:0:
64,192,33576,1,0,0:0:0:0:
192,192,33576,1,0,0:0:0:0:
64,192,33656,1,0,0:0:0:0:
192,192,33656,1,0,0:0:0:0:
320,192,33656,1,0,0:0:0:0:
448,192,33656,1,0,0:0:0:0:
448,192,33735,1,0,0:0:0:0:
192,192,33735,1,0,0:0:0:0:
192,192,33814,1,0,0:0:0:0:
64,192,33814,1,0,0:0:0:0:
320,192,33814,1,0,0:0:0:0:
64,192,33893,1,0,0:0:0:0:
320,192,33893,1,0,0:0:0:0:
320,192,33973,1,0,0:0:0:0:
448,192,33973,1,0,0:0:0:0:
192,192,33973,1,0,0:0:0:0:
64,192,33973,1,0,0:0:0:0:
192,192,34052,1,0,0:0:0:0:
320,192,34052,1,0,0:0:0:0:
64,192,34132,1,0,0:0:0:0:
448,192,34132,1,0,0:0:0:0:
320,192,34132,1,0,0:0:0:0:
64,192,34211,1,0,0:0:0:0:
448,192,34211,1,0,0:0:0:0:
448,192,34290,1,0,0:0:0:0:
320,192,34290,1,0,0:0:0:0:
192,192,34290,1,0,0:0:0:0:
64,192,34290,1,0,0:0:0:0:
320,192,34370,1,0,0:0:0:0:
448,192,34370,1,0,0:0:0:0:
64,192,34370,1,0,0:0:0:0:
64,192,34449,1,0,0:0:0:0:
192,192,34449,1,0,0:0:0:0:
448,192,34449,1,0,0:0:0:0:
448,192,34528,1,0,0:0:0:0:
320,192,34528,1,0,0:0:0:0:
192,192,34528,1,0,0:0:0:0:
64,192,34608,1,0,0:0:0:0:
192,192,34608,1,0,0:0:0:0:
320,192,34608,1,0,0:0:0:0:
448,192,34608,1,0,0:0:0:0:
64,192,34687,1,0,0:0:0:0:
192,192,34687,1,0,0:0:0:0:
192,192,34767,1,0,0:0:0:0:
320,192,34767,1,0,0:0:0:0:
448,192,34767,1,0,0:0:0:0:
320,192,34846,1,0,0:0:0:0:
448,192,34846,1,0,0:0:0:0:
64,192,34925,1,0,0:0:0:0:
192,192,34925,1,0,0:0:0:0:
320,192,34925,1,0,0:0:0:0:
448,192,34925,1,0,0:0:0:0:
320,192,35004,1,0,0:0:0:0:
192,192,35004,1,0,0:0:0:0:
64,192,35004,1,0,0:0:0:0:
192,192,35084,1,0,0:0:0:0:
320,192,35084,1,0,0:0:0:0:
448,192,35084,1,0,0:0:0:0:
64,192,35164,1,0,0:0:0:0:
192,192,35164,1,0,0:0:0:0:
448,192,35164,1,0,0:0:0:0:
448,192,35243,1,0,0:0:0:0:
320,192,35243,1,0,0:0:0:0:
192,192,35243,1,0,0:0:0:0:
64,192,35243,1,0,0:0:0:0:
320,192,35322,1,0,0:0:0:0:
192,192,35322,1,0,0:0:0:0:
64,192,35322,1,0,0:0:0:0:
64,192,35401,1,0,0:0:0:0:
192,192,35401,1,0,0:0:0:0:
448,192,35401,1,0,0:0:0:0:
448,192,35480,1,0,0:0:0:0:
320,192,35480,1,0,0:0:0:0:
192,192,35480,1,0,0:0:0:0:
64,192,35560,1,0,0:0:0:0:
192,192,35560,1,0,0:0:0:0:
320,192,35560,1,0,0:0:0:0:
448,192,35560,1,0,0:0:0:0:
320,192,35640,1,0,0:0:0:0:
64,192,35640,1,0,0:0:0:0:
320,192,35719,1,0,0:0:0:0:
192,192,35719,1,0,0:0:0:0:
448,192,35798,1,0,0:0:0:0:
192,192,35798,1,0,0:0:0:0:
64,192,35877,1,0,0:0:0:0:
192,192,35877,1,0,0:0:0:0:
448,192,35877,1,0,0:0:0:0:
320,192,35877,1,0,0:0:0:0:
320,192,35956,1,0,0:0:0:0:
64,192,35956,1,0,0:0:0:0:
192,192,36036,1,0,0:0:0:0:
448,192,36036,1,0,0:0:0:0:
64,192,36116,1,0,0:0:0:0:
192,192,36116,1,0,0:0:0:0:
448,192,36195,1,0,0:0:0:0:
320,192,36195,1,0,0:0:0:0:
64,192,36195,1,0,0:0:0:0:
192,192,36274,1,0,0:0:0:0:
320,192,36274,1,0,0:0:0:0:
64,192,36353,1,0,0:0:0:0:
192,192,36353,1,0,0:0:0:0:
448,192,36433,1,0,0:0:0:0:
320,192,36433,1,0,0:0:0:0:
320,192,36512,1,0,0:0:0:0:
192,192,36512,1,0,0:0:0:0:
64,192,36512,1,0,0:0:0:0:
448,192,36592,1,0,0:0:0:0:
192,192,36592,1,0,0:0:0:0:
64,192,36671,1,0,0:0:0:0:
192,192,36671,1,0,0:0:0:0:
448,192,36750,1,0,0:0:0:0:
320,192,36750,1,0,0:0:0:0:
192,192,36830,1,0,0:0:0:0:
64,192,36830,1,0,0:0:0:0:
320,192,36830,1,0,0:0:0:0:
448,192,36830,1,0,0:0:0:0:
448,192,36909,1,0,0:0:0:0:
192,192,36909,1,0,0:0:0:0:
64,192,36988,1,0,0:0:0:0:
192,192,36988,1,0,0:0:0:0:
320,192,37068,1,0,0:0:0:0:
448,192,37068,1,0,0:0:0:0:
448,192,37147,1,0,0:0:0:0:
320,192,37147,1,0,0:0:0:0:
192,192,37147,1,0,0:0:0:0:
64,192,37147,1,0,0:0:0:0:
192,192,37227,1,0,0:0:0:0:
64,192,37227,1,0,0:0:0:0:
320,192,37306,1,0,0:0:0:0:
448,192,37306,1,0,0:0:0:0:
192,192,37385,1,0,0:0:0:0:
448,192,37385,1,0,0:0:0:0:
448,192,37464,1,0,0:0:0:0:
320,192,37464,1,0,0:0:0:0:
64,192,37464,1,0,0:0:0:0:
192,192,37544,1,0,0:0:0:0:
320,192,37544,1,0,0:0:0:0:
64,192,37624,1,0,0:0:0:0:
448,192,37624,1,0,0:0:0:0:
64,192,37703,1,0,0:0:0:0:
192,192,37703,1,0,0:0:0:0:
192,192,37782,1,0,0:0:0:0:
320,192,37782,1,0,0:0:0:0:
448,192,37782,1,0,0:0:0:0:
64,192,37861,1,0,0:0:0:0:
448,192,37861,1,0,0:0:0:0:
448,192,37940,1,0,0:0:0:0:
192,192,37940,1,0,0:0:0:0:
64,192,38020,1,0,0:0:0:0:
192,192,38020,1,0,0:0:0:0:
448,192,38100,1,0,0:0:0:0:
320,192,38100,1,0,0:0:0:0:
192,192,38100,1,0,0:0:0:0:
64,192,38100,1,0,0:0:0:0:
448,192,38179,1,0,0:0:0:0:
320,192,38179,1,0,0:0:0:0:
320,192,38258,1,0,0:0:0:0:
192,192,38258,1,0,0:0:0:0:
64,192,38337,1,0,0:0:0:0:
192,192,38337,1,0,0:0:0:0:
64,192,38417,1,0,0:0:0:0:
192,192,38417,1,0,0:0:0:0:
320,192,38417,1,0,0:0:0:0:
448,192,38417,1,0,0:0:0:0:
192,192,38496,1,0,0:0:0:0:
448,192,38496,1,0,0:0:0:0:
64,192,38576,1,0,0:0:0:0:
192,192,38576,1,0,0:0:0:0:
320,192,38655,1,0,0:0:0:0:
448,192,38655,1,0,0:0:0:0:
320,192,38734,1,0,0:0:0:0:
192,192,38734,1,0,0:0:0:0:
64,192,38734,1,0,0:0:0:0:
448,192,38814,1,0,0:0:0:0:
192,192,38814,1,0,0:0:0:0:
192,192,38893,1,0,0:0:0:0:
320,192,38893,1,0,0:0:0:0:
64,192,38972,1,0,0:0:0:0:
320,192,38972,1,0,0:0:0:0:
64,192,39052,1,0,0:0:0:0:
448,192,39052,1,0,0:0:0:0:
192,192,39052,1,0,0:0:0:0:
64,192,39131,1,0,0:0:0:0:
320,192,39131,1,0,0:0:0:0:
448,192,39211,1,0,0:0:0:0:
320,192,39211,1,0,0:0:0:0:
448,192,39290,1,0,0:0:0:0:
192,192,39290,1,0,0:0:0:0:
64,192,39369,1,0,0:0:0:0:
448,192,39369,1,0,0:0:0:0:
320,192,39369,1,0,0:0:0:0:
64,192,39448,1,0,0:0:0:0:
192,192,39448,1,0,0:0:0:0:
320,192,39448,1,0,0:0:0:0:
448,192,39528,1,0,0:0:0:0:
192,192,39528,1,0,0:0:0:0:
64,192,39528,1,0,0:0:0:0:
320,192,39608,1,0,0:0:0:0:
448,192,39608,1,0,0:0:0:0:
64,192,39608,1,0,0:0:0:0:
448,192,39687,1,0,0:0:0:0:
192,192,39687,1,0,0:0:0:0:
320,192,39687,1,0,0:0:0:0:
64,192,39766,1,0,0:0:0:0:
320,192,39766,1,0,0:0:0:0:
192,192,39845,1,0,0:0:0:0:
320,192,39845,1,0,0:0:0:0:
64,192,39924,1,0,0:0:0:0:
448,192,39924,1,0,0:0:0:0:
64,192,40004,1,0,0:0:0:0:
192,192,40004,1,0,0:0:0:0:
320,192,40004,1,0,0:0:0:0:
448,192,40004,1,0,0:0:0:0:
64,192,40084,1,0,0:0:0:0:
192,192,40084,1,0,0:0:0:0:
320,192,40163,1,0,0:0:0:0:
448,192,40163,1,0,0:0:0:0:
64,192,40242,1,0,0:0:0:0:
448,192,40242,1,0,0:0:0:0:
64,192,40321,1,0,0:0:0:0:
192,192,40321,1,0,0:0:0:0:
320,192,40321,1,0,0:0:0:0:
192,192,40401,1,0,0:0:0:0:
448,192,40401,1,0,0:0:0:0:
64,192,40480,1,0,0:0:0:0:
320,192,40480,1,0,0:0:0:0:
448,192,40560,1,0,0:0:0:0:
320,192,40560,1,0,0:0:0:0:
192,192,40639,1,0,0:0:0:0:
64,192,40639,1,0,0:0:0:0:
448,192,40639,1,0,0:0:0:0:
320,192,40639,1,0,0:0:0:0:
192,192,40718,1,0,0:0:0:0:
64,192,40718,1,0,0:0:0:0:
64,192,40798,1,0,0:0:0:0:
448,192,40798,1,0,0:0:0:0:
192,192,40877,1,0,0:0:0:0:
320,192,40877,1,0,0:0:0:0:
64,192,40956,1,0,0:0:0:0:
192,192,40956,1,0,0:0:0:0:
320,192,40956,1,0,0:0:0:0:
448,192,40956,1,0,0:0:0:0:
64,192,41036,1,0,0:0:0:0:
192,192,41036,1,0,0:0:0:0:
448,192,41115,1,0,0:0:0:0:
64,192,41115,1,0,0:0:0:0:
320,192,41195,1,0,0:0:0:0:
192,192,41195,1,0,0:0:0:0:
64,192,41274,1,0,0:0:0:0:
192,192,41274,1,0,0:0:0:0:
448,192,41274,1,0,0:0:0:0:
448,192,41353,1,0,0:0:0:0:
320,192,41353,1,0,0:0:0:0:
64,192,41432,1,0,0:0:0:0:
192,192,41432,1,0,0:0:0:0:
448,192,41512,1,0,0:0:0:0:
192,192,41512,1,0,0:0:0:0:
64,192,41592,1,0,0:0:0:0:
448,192,41592,1,0,0:0:0:0:
320,192,41592,1,0,0:0:0:0:
64,192,41671,1,0,0:0:0:0:
192,192,41671,1,0,0:0:0:0:
448,192,41750,1,0,0:0:0:0:
320,192,41750,1,0,0:0:0:0:
64,192,41829,1,0,0:0:0:0:
448,192,41829,1,0,0:0:0:0:
320,192,41908,1,0,0:0:0:0:
192,192,41908,1,0,0:0:0:0:
64,192,41908,1,0,0:0:0:0:
448,192,41908,1,0,0:0:0:0:
192,192,41988,1,0,0:0:0:0:
320,192,41988,1,0,0:0:0:0:
448,192,42068,1,0,0:0:0:0:
192,192,42068,1,0,0:0:0:0:
64,192,42147,1,0,0:0:0:0:
320,192,42147,1,0,0:0:0:0:
448,192,42226,1,0,0:0:0:0:
320,192,42226,1,0,0:0:0:0:
192,192,42226,1,0,0:0:0:0:
64,192,42226,1,0,0:0:0:0:
192,192,42305,1,0,0:0:0:0:
448,192,42305,1,0,0:0:0:0:
320,192,42385,1,0,0:0:0:0:
192,192,42385,1,0,0:0:0:0:
64,192,42464,1,0,0:0:0:0:
448,192,42464,1,0,0:0:0:0:
192,192,42544,1,0,0:0:0:0:
320,192,42544,1,0,0:0:0:0:
448,192,42544,1,0,0:0:0:0:
64,192,42623,1,0,0:0:0:0:
320,192,42623,1,0,0:0:0:0:
192,192,42702,1,0,0:0:0:0:
320,192,42702,1,0,0:0:0:0:
448,192,42782,1,0,0:0:0:0:
192,192,42782,1,0,0:0:0:0:
64,192,42861,1,0,0:0:0:0:
448,192,42861,1,0,0:0:0:0:
320,192,42861,1,0,0:0:0:0:
192,192,42940,1,0,0:0:0:0:
320,192,42940,1,0,0:0:0:0:
64,192,43020,1,0,0:0:0:0:
448,192,43020,1,0,0:0:0:0:
448,192,43099,1,0,0:0:0:0:
320,192,43099,1,0,0:0:0:0:
192,192,43179,1,0,0:0:0:0:
64,192,43179,1,0,0:0:0:0:
320,192,43179,1,0,0:0:0:0:
448,192,43179,1,0,0:0:0:0:
64,192,43258,1,0,0:0:0:0:
192,192,43258,1,0,0:0:0:0:
64,192,43337,1,0,0:0:0:0:
320,192,43337,1,0,0:0:0:0:
448,192,43416,1,0,0:0:0:0:
192,192,43416,1,0,0:0:0:0:
448,192,43496,1,0,0:0:0:0:
320,192,43496,1,0,0:0:0:0:
192,192,43496,1,0,0:0:0:0:
64,192,43496,1,0,0:0:0:0:
448,192,43576,1,0,0:0:0:0:
64,192,43576,1,0,0:0:0:0:
192,192,43655,1,0,0:0:0:0:
320,192,43655,1,0,0:0:0:0:
64,192,43734,1,0,0:0:0:0:
320,192,43734,1,0,0:0:0:0:
448,192,43813,1,0,0:0:0:0:
192,192,43813,1,0,0:0:0:0:
320,192,43813,1,0,0:0:0:0:
64,192,43892,1,0,0:0:0:0:
448,192,43892,1,0,0:0:0:0:
320,192,43972,1,0,0:0:0:0:
448,192,43972,1,0,0:0:0:0:
192,192,44052,1,0,0:0:0:0:
64,192,44052,1,0,0:0:0:0:
64,192,44131,1,0,0:0:0:0:
448,192,44131,1,0,0:0:0:0:
320,192,44131,1,0,0:0:0:0:
192,192,44210,1,0,0:0:0:0:
320,192,44210,1,0,0:0:0:0:
64,192,44289,1,0,0:0:0:0:
320,192,44289,1,0,0:0:0:0:
448,192,44369,1,0,0:0:0:0:
192,192,44369,1,0,0:0:0:0:
64,192,44448,1,0,0:0:0:0:
320,192,44448,1,0,0:0:0:0:
448,192,44448,1,0,0:0:0:0:
192,192,44528,1,0,0:0:0:0:
64,192,44528,1,0,0:0:0:0:
192,192,44607,1,0,0:0:0:0:
320,192,44607,1,0,0:0:0:0:
448,192,44686,1,0,0:0:0:0:
192,192,44686,1,0,0:0:0:0:
320,192,44766,1,0,0:0:0:0:
64,192,44766,1,0,0:0:0:0:
64,192,44845,1,0,0:0:0:0:
448,192,44845,1,0,0:0:0:0:
320,192,44924,1,0,0:0:0:0:
192,192,44924,1,0,0:0:0:0:
320,192,45004,1,0,0:0:0:0:
64,192,45004,1,0,0:0:0:0:
192,192,45083,1,0,0:0:0:0:
448,192,45083,1,0,0:0:0:0:
320,192,45163,1,0,0:0:0:0:
192,192,45163,1,0,0:0:0:0:
64,192,45242,1,0,0:0:0:0:
448,192,45242,1,0,0:0:0:0:
192,192,45321,1,0,0:0:0:0:
64,192,45321,1,0,0:0:0:0:
448,192,45400,1,0,0:0:0:0:
320,192,45400,1,0,0:0:0:0:
64,192,45480,1,0,0:0:0:0:
320,192,45480,1,0,0:0:0:0:
448,192,45560,1,0,0:0:0:0:
192,192,45560,1,0,0:0:0:0:
192,192,45639,1,0,0:0:0:0:
64,192,45639,1,0,0:0:0:0:
320,192,45718,1,0,0:0:0:0:
448,192,45718,1,0,0:0:0:0:
64,192,45718,1,0,0:0:0:0:
320,192,45876,1,0,0:0:0:0:
320,192,46036,1,0,0:0:0:0:
192,192,46036,1,0,0:0:0:0:
448,192,46036,1,0,0:0:0:0:
64,192,46115,1,0,0:0:0:0:
320,192,46194,1,0,0:0:0:0:
64,192,46353,1,0,0:0:0:0:
320,192,46353,1,0,0:0:0:0:
448,192,46353,1,0,0:0:0:0:
448,192,46512,1,0,0:0:0:0:
320,192,46670,1,0,0:0:0:0:
192,192,46670,1,0,0:0:0:0:
64,192,46670,1,0,0:0:0:0:
64,192,46829,1,0,0:0:0:0:
192,192,46988,1,0,0:0:0:0:
320,192,46988,1,0,0:0:0:0:
448,192,46988,1,0,0:0:0:0:
320,192,47147,1,0,0:0:0:0:
320,192,47305,1,0,0:0:0:0:
448,192,47305,1,0,0:0:0:0:
64,192,47305,1,0,0:0:0:0:
192,192,47384,1,0,0:0:0:0:
448,192,47464,1,0,0:0:0:0:
320,192,47623,1,0,0:0:0:0:
192,192,47623,1,0,0:0:0:0:
64,192,47623,1,0,0:0:0:0:
64,192,47781,1,0,0:0:0:0:
320,192,47940,1,0,0:0:0:0:
448,192,47940,1,0,0:0:0:0:
64,192,47940,1,0,0:0:0:0:
320,192,48099,1,0,0:0:0:0:
448,192,48257,1,0,0:0:0:0:
192,192,48257,1,0,0:0:0:0:
64,192,48257,1,0,0:0:0:0:
320,192,48337,1,0,0:0:0:0:
320,192,48416,1,0,0:0:0:0:
192,192,48416,1,0,0:0:0:0:
64,192,48416,1,0,0:0:0:0:
448,192,48496,1,0,0:0:0:0:
192,192,48575,1,0,0:0:0:0:
320,192,48575,1,0,0:0:0:0:
448,192,48575,1,0,0:0:0:0:
64,192,48654,1,0,0:0:0:0:
192,192,48734,1,0,0:0:0:0:
448,192,48734,1,0,0:0:0:0:
64,192,48734,1,0,0:0:0:0:
320,192,48813,1,0,0:0:0:0:
448,192,48892,1,0,0:0:0:0:
320,192,48892,1,0,0:0:0:0:
64,192,48892,1,0,0:0:0:0:
192,192,48972,1,0,0:0:0:0:
64,192,49051,1,0,0:0:0:0:
192,192,49051,1,0,0:0:0:0:
448,192,49051,1,0,0:0:0:0:
320,192,49131,1,0,0:0:0:0:
320,192,49210,1,0,0:0:0:0:
192,192,49210,1,0,0:0:0:0:
64,192,49210,1,0,0:0:0:0:
448,192,49289,1,0,0:0:0:0:
448,192,49368,1,0,0:0:0:0:
192,192,49368,1,0,0:0:0:0:
64,192,49368,1,0,0:0:0:0:
320,192,49448,1,0,0:0:0:0:
448,192,49528,1,0,0:0:0:0:
320,192,49528,1,0,0:0:0:0:
192,192,49528,1,0,0:0:0:0:
192,192,49686,1,0,0:0:0:0:
448,192,49844,1,0,0:0:0:0:
320,192,49844,1,0,0:0:0:0:
64,192,49844,1,0,0:0:0:0:
64,192,50004,128,0,50024:0:0:0:0:
192,192,50083,128,0,50103:0:0:0:0:
64,192,50162,128,0,50321:0:0:0:0:
320,192,50162,128,0,50321:0:0:0:0:
448,192,50162,128,0,50400:0:0:0:0:
320,192,50400,128,0,50638:0:0:0:0:
192,192,50400,128,0,50638:0:0:0:0:
64,192,50400,128,0,50638:0:0:0:0:
192,192,50797,1,0,0:0:0:0:
320,192,50797,1,0,0:0:0:0:
448,192,50797,1,0,0:0:0:0:
64,192,50956,1,0,0:0:0:0:
64,192,51115,1,0,0:0:0:0:
192,192,51115,1,0,0:0:0:0:
320,192,51115,1,0,0:0:0:0:
448,192,51194,1,0,0:0:0:0:
192,192,51273,1,0,0:0:0:0:
64,192,51432,1,0,0:0:0:0:
448,192,51432,1,0,0:0:0:0:
320,192,51432,1,0,0:0:0:0:
448,192,51591,1,0,0:0:0:0:
320,192,51749,1,0,0:0:0:0:
192,192,51749,1,0,0:0:0:0:
64,192,51749,1,0,0:0:0:0:
192,192,51908,1,0,0:0:0:0:
320,192,52067,1,0,0:0:0:0:
448,192,52067,1,0,0:0:0:0:
192,192,52067,1,0,0:0:0:0:
64,192,52225,1,0,0:0:0:0:
64,192,52384,1,0,0:0:0:0:
192,192,52384,1,0,0:0:0:0:
448,192,52384,1,0,0:0:0:0:
320,192,52464,1,0,0:0:0:0:
192,192,52543,1,0,0:0:0:0:
320,192,52702,1,0,0:0:0:0:
448,192,52702,1,0,0:0:0:0:
64,192,52702,1,0,0:0:0:0:
448,192,52860,1,0,0:0:0:0:
320,192,53019,1,0,0:0:0:0:
192,192,53019,1,0,0:0:0:0:
64,192,53019,1,0,0:0:0:0:
64,192,53178,1,0,0:0:0:0:
192,192,53336,1,0,0:0:0:0:
320,192,53336,1,0,0:0:0:0:
448,192,53336,1,0,0:0:0:0:
64,192,53416,1,0,0:0:0:0:
448,192,53496,1,0,0:0:0:0:
64,192,53496,1,0,0:0:0:0:
192,192,53496,1,0,0:0:0:0:
320,192,53575,1,0,0:0:0:0:
192,192,53654,1,0,0:0:0:0:
320,192,53654,1,0,0:0:0:0:
448,192,53654,1,0,0:0:0:0:
64,192,53733,1,0,0:0:0:0:
64,192,53812,1,0,0:0:0:0:
320,192,53812,1,0,0:0:0:0:
448,192,53812,1,0,0:0:0:0:
192,192,53892,1,0,0:0:0:0:
64,192,53972,1,0,0:0:0:0:
192,192,53972,1,0,0:0:0:0:
320,192,53972,1,0,0:0:0:0:
448,192,54051,1,0,0:0:0:0:
320,192,54130,1,0,0:0:0:0:
448,192,54130,1,0,0:0:0:0:
64,192,54130,1,0,0:0:0:0:
192,192,54209,1,0,0:0:0:0:
192,192,54288,1,0,0:0:0:0:
320,192,54288,1,0,0:0:0:0:
448,192,54288,1,0,0:0:0:0:
64,192,54368,1,0,0:0:0:0:
64,192,54448,1,0,0:0:0:0:
448,192,54448,1,0,0:0:0:0:
320,192,54448,1,0,0:0:0:0:
192,192,54527,1,0,0:0:0:0:
64,192,54606,1,0,0:0:0:0:
192,192,54606,1,0,0:0:0:0:
320,192,54606,128,0,54924:0:0:0:0:
64,192,54924,1,0,0:0:0:0:
448,192,54924,1,0,0:0:0:0:
192,192,55082,128,0,55400:0:0:0:0:
320,192,55082,1,0,0:0:0:0:
64,192,55400,1,0,0:0:0:0:
448,192,55400,1,0,0:0:0:0:
192,192,55559,1,0,0:0:0:0:
320,192,55559,1,0,0:0:0:0:
64,192,55717,1,0,0:0:0:0:
448,192,55717,1,0,0:0:0:0:
192,192,55876,1,0,0:0:0:0:
320,192,55876,1,0,0:0:0:0:
448,192,55876,1,0,0:0:0:0:
64,192,55876,128,0,56035:0:0:0:0:
448,192,56193,128,0,56352:0:0:0:0:
192,192,56193,1,0,0:0:0:0:
320,192,56193,1,0,0:0:0:0:
64,192,56193,1,0,0:0:0:0:
448,192,56432,128,0,56590:0:0:0:0:
192,192,56511,1,0,0:0:0:0:
64,192,56511,1,0,0:0:0:0:
448,192,56669,128,0,56828:0:0:0:0:
320,192,56828,1,0,0:0:0:0:
192,192,56828,1,0,0:0:0:0:
64,192,56828,1,0,0:0:0:0:
448,192,56908,128,0,57066:0:0:0:0:
320,192,57146,128,0,57304:0:0:0:0:
448,192,57146,1,0,0:0:0:0:
64,192,57146,1,0,0:0:0:0:
192,192,57463,128,0,57622:0:0:0:0:
64,192,57463,1,0,0:0:0:0:
320,192,57463,1,0,0:0:0:0:
448,192,57463,1,0,0:0:0:0:
192,192,57701,128,0,57860:0:0:0:0:
320,192,57780,1,0,0:0:0:0:
64,192,57780,1,0,0:0:0:0:
192,192,57940,128,0,58098:0:0:0:0:
320,192,58098,1,0,0:0:0:0:
448,192,58098,1,0,0:0:0:0:
64,192,58098,1,0,0:0:0:0:
192,192,58177,128,0,58336:0:0:0:0:
448,192,58416,128,0,58574:0:0:0:0:
320,192,58416,1,0,0:0:0:0:
64,192,58416,1,0,0:0:0:0:
64,192,58733,128,0,58892:0:0:0:0:
192,192,58733,1,0,0:0:0:0:
320,192,58733,1,0,0:0:0:0:
448,192,58733,1,0,0:0:0:0:
64,192,58971,128,0,59130:0:0:0:0:
320,192,59050,1,0,0:0:0:0:
192,192,59050,1,0,0:0:0:0:
64,192,59209,128,0,59368:0:0:0:0:
192,192,59368,1,0,0:0:0:0:
320,192,59368,1,0,0:0:0:0:
448,192,59368,1,0,0:0:0:0:
64,192,59447,128,0,59606:0:0:0:0:
192,192,59685,128,0,59844:0:0:0:0:
320,192,59685,1,0,0:0:0:0:
448,192,59685,1,0,0:0:0:0:
320,192,60003,128,0,60161:0:0:0:0:
448,192,60003,1,0,0:0:0:0:
64,192,60003,1,0,0:0:0:0:
192,192,60003,1,0,0:0:0:0:
320,192,60240,128,0,60400:0:0:0:0:
192,192,60320,1,0,0:0:0:0:
64,192,60320,1,0,0:0:0:0:
320,192,60479,128,0,60637:0:0:0:0:
448,192,60637,1,0,0:0:0:0:
192,192,60637,1,0,0:0:0:0:
64,192,60637,1,0,0:0:0:0:
320,192,60717,128,0,60876:0:0:0:0:
448,192,60955,128,0,61114:0:0:0:0:
64,192,60955,1,0,0:0:0:0:
192,192,60955,1,0,0:0:0:0:
192,192,61272,128,0,61431:0:0:0:0:
448,192,61272,1,0,0:0:0:0:
320,192,61272,1,0,0:0:0:0:
64,192,61272,1,0,0:0:0:0:
192,192,61511,128,0,61669:0:0:0:0:
64,192,61590,1,0,0:0:0:0:
448,192,61590,1,0,0:0:0:0:
192,192,61748,128,0,61908:0:0:0:0:
448,192,61908,1,0,0:0:0:0:
320,192,61908,1,0,0:0:0:0:
64,192,61908,1,0,0:0:0:0:
192,192,61987,128,0,62145:0:0:0:0:
448,192,62224,128,0,62384:0:0:0:0:
320,192,62224,1,0,0:0:0:0:
64,192,62224,1,0,0:0:0:0:
64,192,62542,128,0,62701:0:0:0:0:
192,192,62542,1,0,0:0:0:0:
320,192,62542,1,0,0:0:0:0:
448,192,62542,1,0,0:0:0:0:
64,192,62780,128,0,62939:0:0:0:0:
192,192,62860,1,0,0:0:0:0:
320,192,62860,1,0,0:0:0:0:
64,192,63018,128,0,63177:0:0:0:0:
192,192,63177,1,0,0:0:0:0:
448,192,63177,1,0,0:0:0:0:
320,192,63177,1,0,0:0:0:0:
64,192,63256,128,0,63415:0:0:0:0:
192,192,63495,128,0,63653:0:0:0:0:
320,192,63495,1,0,0:0:0:0:
448,192,63495,1,0,0:0:0:0:
448,192,63812,128,0,63971:0:0:0:0:
320,192,63812,1,0,0:0:0:0:
64,192,63812,1,0,0:0:0:0:
448,192,64050,128,0,64208:0:0:0:0:
64,192,64129,1,0,0:0:0:0:
192,192,64129,1,0,0:0:0:0:
320,192,64129,1,0,0:0:0:0:
448,192,64288,128,0,64447:0:0:0:0:
64,192,64447,1,0,0:0:0:0:
320,192,64447,1,0,0:0:0:0:
448,192,64526,128,0,64685:0:0:0:0:
192,192,64764,1,0,0:0:0:0:
64,192,64764,1,0,0:0:0:0:
320,192,64764,1,0,0:0:0:0:
448,192,65082,1,0,0:0:0:0:
320,192,65082,1,0,0:0:0:0:
192,192,65082,1,0,0:0:0:0:
64,192,65399,1,0,0:0:0:0:
192,192,65399,1,0,0:0:0:0:
448,192,65399,1,0,0:0:0:0:
448,192,65716,1,0,0:0:0:0:
320,192,65716,1,0,0:0:0:0:
64,192,65716,1,0,0:0:0:0:
64,192,66034,1,0,0:0:0:0:
192,192,66034,1,0,0:0:0:0:
320,192,66034,1,0,0:0:0:0:
448,192,66034,1,0,0:0:0:0:
64,192,66352,1,0,0:0:0:0:
320,192,66352,1,0,0:0:0:0:
192,192,66669,1,0,0:0:0:0:
320,192,66669,1,0,0:0:0:0:
448,192,66669,1,0,0:0:0:0:
64,192,66828,1,0,0:0:0:0:
448,192,66828,1,0,0:0:0:0:
64,192,66986,1,0,0:0:0:0:
192,192,66986,1,0,0:0:0:0:
320,192,66986,1,0,0:0:0:0:
448,192,67145,1,0,0:0:0:0:
320,192,67145,1,0,0:0:0:0:
64,192,67304,1,0,0:0:0:0:
192,192,67304,1,0,0:0:0:0:
320,192,67304,1,0,0:0:0:0:
448,192,67304,1,0,0:0:0:0:
192,192,67383,1,0,0:0:0:0:
320,192,67383,1,0,0:0:0:0:
64,192,67383,1,0,0:0:0:0:
64,192,67463,1,0,0:0:0:0:
192,192,67463,1,0,0:0:0:0:
448,192,67463,1,0,0:0:0:0:
448,192,67542,1,0,0:0:0:0:
320,192,67542,1,0,0:0:0:0:
192,192,67542,1,0,0:0:0:0:
64,192,67621,1,0,0:0:0:0:
192,192,67621,1,0,0:0:0:0:
320,192,67621,1,0,0:0:0:0:
448,192,67621,1,0,0:0:0:0:
64,192,67700,1,0,0:0:0:0:
320,192,67700,1,0,0:0:0:0:
448,192,67700,1,0,0:0:0:0:
448,192,67780,1,0,0:0:0:0:
64,192,67780,1,0,0:0:0:0:
192,192,67780,1,0,0:0:0:0:
192,192,67860,1,0,0:0:0:0:
448,192,67860,1,0,0:0:0:0:
320,192,67860,1,0,0:0:0:0:
448,192,67939,1,0,0:0:0:0:
320,192,67939,1,0,0:0:0:0:
192,192,67939,1,0,0:0:0:0:
64,192,67939,1,0,0:0:0:0:
64,192,68018,1,0,0:0:0:0:
192,192,68018,1,0,0:0:0:0:
448,192,68018,1,0,0:0:0:0:
448,192,68097,1,0,0:0:0:0:
320,192,68097,1,0,0:0:0:0:
192,192,68097,1,0,0:0:0:0:
64,192,68176,1,0,0:0:0:0:
192,192,68176,1,0,0:0:0:0:
320,192,68176,1,0,0:0:0:0:
448,192,68256,1,0,0:0:0:0:
320,192,68256,1,0,0:0:0:0:
192,192,68256,1,0,0:0:0:0:
64,192,68256,1,0,0:0:0:0:
448,192,68336,1,0,0:0:0:0:
192,192,68336,1,0,0:0:0:0:
64,192,68336,1,0,0:0:0:0:
320,192,68415,1,0,0:0:0:0:
448,192,68415,1,0,0:0:0:0:
64,192,68415,1,0,0:0:0:0:
192,192,68494,1,0,0:0:0:0:
320,192,68494,1,0,0:0:0:0:
448,192,68573,1,0,0:0:0:0:
320,192,68573,1,0,0:0:0:0:
192,192,68573,1,0,0:0:0:0:
64,192,68573,1,0,0:0:0:0:
64,192,68653,1,0,0:0:0:0:
320,192,68653,1,0,0:0:0:0:
448,192,68732,1,0,0:0:0:0:
192,192,68732,1,0,0:0:0:0:
64,192,68732,1,0,0:0:0:0:
192,192,68812,1,0,0:0:0:0:
320,192,68812,1,0,0:0:0:0:
320,192,68891,1,0,0:0:0:0:
192,192,68891,1,0,0:0:0:0:
64,192,68891,1,0,0:0:0:0:
448,192,68891,1,0,0:0:0:0:
448,192,68970,1,0,0:0:0:0:
64,192,68970,1,0,0:0:0:0:
192,192,69050,1,0,0:0:0:0:
320,192,69050,1,0,0:0:0:0:
448,192,69050,1,0,0:0:0:0:
192,192,69129,1,0,0:0:0:0:
64,192,69129,1,0,0:0:0:0:
64,192,69208,1,0,0:0:0:0:
192,192,69208,1,0,0:0:0:0:
320,192,69208,1,0,0:0:0:0:
448,192,69208,1,0,0:0:0:0:
448,192,69288,1,0,0:0:0:0:
192,192,69288,1,0,0:0:0:0:
64,192,69367,1,0,0:0:0:0:
320,192,69367,1,0,0:0:0:0:
192,192,69367,1,0,0:0:0:0:
64,192,69447,1,0,0:0:0:0:
448,192,69447,1,0,0:0:0:0:
448,192,69526,1,0,0:0:0:0:
320,192,69526,1,0,0:0:0:0:
192,192,69526,1,0,0:0:0:0:
64,192,69526,1,0,0:0:0:0:
192,192,69605,1,0,0:0:0:0:
320,192,69605,1,0,0:0:0:0:
448,192,69684,1,0,0:0:0:0:
320,192,69684,1,0,0:0:0:0:
64,192,69684,1,0,0:0:0:0:
192,192,69764,1,0,0:0:0:0:
64,192,69764,1,0,0:0:0:0:
448,192,69844,1,0,0:0:0:0:
320,192,69844,1,0,0:0:0:0:
192,192,69844,1,0,0:0:0:0:
64,192,69844,1,0,0:0:0:0:
192,192,69923,1,0,0:0:0:0:
320,192,69923,1,0,0:0:0:0:
448,192,69923,1,0,0:0:0:0:
64,192,70002,1,0,0:0:0:0:
320,192,70002,1,0,0:0:0:0:
448,192,70002,1,0,0:0:0:0:
64,192,70081,1,0,0:0:0:0:
192,192,70081,1,0,0:0:0:0:
448,192,70081,1,0,0:0:0:0:
320,192,70160,1,0,0:0:0:0:
448,192,70160,1,0,0:0:0:0:
64,192,70160,1,0,0:0:0:0:
192,192,70160,1,0,0:0:0:0:
320,192,70240,1,0,0:0:0:0:
192,192,70240,1,0,0:0:0:0:
64,192,70240,1,0,0:0:0:0:
448,192,70320,1,0,0:0:0:0:
192,192,70320,1,0,0:0:0:0:
320,192,70320,1,0,0:0:0:0:
64,192,70399,1,0,0:0:0:0:
192,192,70399,1,0,0:0:0:0:
448,192,70399,1,0,0:0:0:0:
448,192,70478,1,0,0:0:0:0:
320,192,70478,1,0,0:0:0:0:
192,192,70478,1,0,0:0:0:0:
64,192,70478,1,0,0:0:0:0:
320,192,70557,1,0,0:0:0:0:
192,192,70557,1,0,0:0:0:0:
64,192,70557,1,0,0:0:0:0:
448,192,70637,1,0,0:0:0:0:
192,192,70637,1,0,0:0:0:0:
64,192,70637,1,0,0:0:0:0:
320,192,70716,1,0,0:0:0:0:
448,192,70716,1,0,0:0:0:0:
64,192,70796,1,0,0:0:0:0:
192,192,70796,1,0,0:0:0:0:
320,192,70796,1,0,0:0:0:0:
448,192,70796,1,0,0:0:0:0:
64,192,70875,1,0,0:0:0:0:
192,192,70875,1,0,0:0:0:0:
448,192,70954,1,0,0:0:0:0:
320,192,70954,1,0,0:0:0:0:
192,192,70954,1,0,0:0:0:0:
64,192,71034,1,0,0:0:0:0:
320,192,71034,1,0,0:0:0:0:
448,192,71113,1,0,0:0:0:0:
320,192,71113,1,0,0:0:0:0:
64,192,71113,1,0,0:0:0:0:
192,192,71113,1,0,0:0:0:0:
192,192,71192,1,0,0:0:0:0:
448,192,71192,1,0,0:0:0:0:
320,192,71272,1,0,0:0:0:0:
192,192,71272,1,0,0:0:0:0:
64,192,71272,1,0,0:0:0:0:
448,192,71351,1,0,0:0:0:0:
64,192,71351,1,0,0:0:0:0:
192,192,71431,1,0,0:0:0:0:
320,192,71431,1,0,0:0:0:0:
448,192,71431,1,0,0:0:0:0:
64,192,71431,1,0,0:0:0:0:
448,192,71510,1,0,0:0:0:0:
320,192,71510,1,0,0:0:0:0:
64,192,71589,1,0,0:0:0:0:
192,192,71589,1,0,0:0:0:0:
320,192,71589,1,0,0:0:0:0:
64,192,71668,1,0,0:0:0:0:
192,192,71668,1,0,0:0:0:0:
448,192,71748,1,0,0:0:0:0:
320,192,71748,1,0,0:0:0:0:
192,192,71748,1,0,0:0:0:0:
64,192,71748,1,0,0:0:0:0:
64,192,71828,1,0,0:0:0:0:
320,192,71828,1,0,0:0:0:0:
448,192,71907,1,0,0:0:0:0:
320,192,71907,1,0,0:0:0:0:
192,192,71907,1,0,0:0:0:0:
192,192,71986,1,0,0:0:0:0:
320,192,71986,1,0,0:0:0:0:
448,192,72065,1,0,0:0:0:0:
320,192,72065,1,0,0:0:0:0:
192,192,72065,1,0,0:0:0:0:
64,192,72065,1,0,0:0:0:0:
64,192,72144,1,0,0:0:0:0:
448,192,72144,1,0,0:0:0:0:
64,192,72224,1,0,0:0:0:0:
192,192,72224,1,0,0:0:0:0:
320,192,72224,1,0,0:0:0:0:
192,192,72304,1,0,0:0:0:0:
448,192,72304,1,0,0:0:0:0:
448,192,72383,1,0,0:0:0:0:
320,192,72383,1,0,0:0:0:0:
64,192,72383,1,0,0:0:0:0:
192,192,72383,1,0,0:0:0:0:
64,192,72462,1,0,0:0:0:0:
192,192,72462,1,0,0:0:0:0:
448,192,72541,1,0,0:0:0:0:
192,192,72541,1,0,0:0:0:0:
320,192,72541,1,0,0:0:0:0:
448,192,72620,1,0,0:0:0:0:
320,192,72620,1,0,0:0:0:0:
64,192,72700,1,0,0:0:0:0:
192,192,72700,1,0,0:0:0:0:
320,192,72700,1,0,0:0:0:0:
448,192,72700,1,0,0:0:0:0:
320,192,72780,1,0,0:0:0:0:
64,192,72780,1,0,0:0:0:0:
192,192,72859,1,0,0:0:0:0:
320,192,72859,1,0,0:0:0:0:
64,192,72859,1,0,0:0:0:0:
448,192,72938,1,0,0:0:0:0:
192,192,72938,1,0,0:0:0:0:
448,192,73017,1,0,0:0:0:0:
320,192,73017,1,0,0:0:0:0:
192,192,73017,1,0,0:0:0:0:
64,192,73017,1,0,0:0:0:0:
192,192,73097,1,0,0:0:0:0:
448,192,73097,1,0,0:0:0:0:
192,192,73176,1,0,0:0:0:0:
64,192,73176,1,0,0:0:0:0:
320,192,73176,1,0,0:0:0:0:
64,192,73256,1,0,0:0:0:0:
192,192,73256,1,0,0:0:0:0:
64,192,73335,1,0,0:0:0:0:
192,192,73335,1,0,0:0:0:0:
320,192,73335,1,0,0:0:0:0:
448,192,73335,1,0,0:0:0:0:
320,192,73414,1,0,0:0:0:0:
448,192,73414,1,0,0:0:0:0:
448,192,73494,1,0,0:0:0:0:
320,192,73494,1,0,0:0:0:0:
64,192,73494,1,0,0:0:0:0:
192,192,73573,1,0,0:0:0:0:
320,192,73573,1,0,0:0:0:0:
448,192,73652,1,0,0:0:0:0:
320,192,73652,1,0,0:0:0:0:
192,192,73652,1,0,0:0:0:0:
64,192,73652,1,0,0:0:0:0:
448,192,73732,1,0,0:0:0:0:
64,192,73732,1,0,0:0:0:0:
448,192,73811,1,0,0:0:0:0:
64,192,73811,1,0,0:0:0:0:
192,192,73811,1,0,0:0:0:0:
320,192,73891,1,0,0:0:0:0:
64,192,73891,1,0,0:0:0:0:
448,192,73970,1,0,0:0:0:0:
320,192,73970,1,0,0:0:0:0:
192,192,73970,1,0,0:0:0:0:
64,192,73970,1,0,0:0:0:0:
448,192,74049,1,0,0:0:0:0:
320,192,74049,1,0,0:0:0:0:
192,192,74128,1,0,0:0:0:0:
64,192,74128,1,0,0:0:0:0:
448,192,74128,1,0,0:0:0:0:
64,192,74208,1,0,0:0:0:0:
320,192,74208,1,0,0:0:0:0:
320,192,74288,1,0,0:0:0:0:
448,192,74288,1,0,0:0:0:0:
64,192,74288,1,0,0:0:0:0:
192,192,74288,1,0,0:0:0:0:
192,192,74367,1,0,0:0:0:0:
448,192,74367,1,0,0:0:0:0:
448,192,74446,1,0,0:0:0:0:
320,192,74446,1,0,0:0:0:0:
192,192,74446,1,0,0:0:0:0:
64,192,74525,1,0,0:0:0:0:
192,192,74525,1,0,0:0:0:0:
64,192,74604,1,0,0:0:0:0:
192,192,74604,1,0,0:0:0:0:
320,192,74604,1,0,0:0:0:0:
448,192,74604,1,0,0:0:0:0:
64,192,74684,1,0,0:0:0:0:
320,192,74684,1,0,0:0:0:0:
448,192,74764,1,0,0:0:0:0:
320,192,74764,1,0,0:0:0:0:
192,192,74764,1,0,0:0:0:0:
64,192,74843,1,0,0:0:0:0:
192,192,74843,1,0,0:0:0:0:
448,192,74922,1,0,0:0:0:0:
320,192,74922,1,0,0:0:0:0:
64,192,74922,1,0,0:0:0:0:
192,192,74922,1,0,0:0:0:0:
64,192,75001,1,0,0:0:0:0:
192,192,75001,1,0,0:0:0:0:
320,192,75001,1,0,0:0:0:0:
448,192,75081,1,0,0:0:0:0:
320,192,75081,1,0,0:0:0:0:
192,192,75081,1,0,0:0:0:0:
64,192,75160,1,0,0:0:0:0:
192,192,75160,1,0,0:0:0:0:
448,192,75160,1,0,0:0:0:0:
448,192,75240,1,0,0:0:0:0:
320,192,75240,1,0,0:0:0:0:
192,192,75240,1,0,0:0:0:0:
64,192,75240,1,0,0:0:0:0:
192,192,75319,1,0,0:0:0:0:
320,192,75319,1,0,0:0:0:0:
448,192,75398,1,0,0:0:0:0:
320,192,75398,1,0,0:0:0:0:
64,192,75398,1,0,0:0:0:0:
64,192,75478,1,0,0:0:0:0:
192,192,75478,1,0,0:0:0:0:
448,192,75557,1,0,0:0:0:0:
320,192,75557,1,0,0:0:0:0:
192,192,75557,1,0,0:0:0:0:
64,192,75557,1,0,0:0:0:0:
448,192,75636,1,0,0:0:0:0:
320,192,75636,1,0,0:0:0:0:
64,192,75636,1,0,0:0:0:0:
64,192,75716,1,0,0:0:0:0:
192,192,75716,1,0,0:0:0:0:
448,192,75716,1,0,0:0:0:0:
448,192,75795,1,0,0:0:0:0:
320,192,75795,1,0,0:0:0:0:
192,192,75795,1,0,0:0:0:0:
64,192,75875,1,0,0:0:0:0:
192,192,75875,1,0,0:0:0:0:
320,192,75875,1,0,0:0:0:0:
448,192,75875,1,0,0:0:0:0:
320,192,75954,1,0,0:0:0:0:
448,192,75954,1,0,0:0:0:0:
64,192,75954,1,0,0:0:0:0:
64,192,76033,1,0,0:0:0:0:
192,192,76033,1,0,0:0:0:0:
320,192,76033,1,0,0:0:0:0:
448,192,76112,1,0,0:0:0:0:
320,192,76112,1,0,0:0:0:0:
192,192,76112,1,0,0:0:0:0:
64,192,76192,1,0,0:0:0:0:
192,192,76192,1,0,0:0:0:0:
320,192,76192,1,0,0:0:0:0:
448,192,76192,1,0,0:0:0:0:
64,192,81271,5,0,0:0:0:0:
448,192,81271,1,0,0:0:0:0:
320,192,81271,1,0,0:0:0:0:
64,192,81350,1,0,0:0:0:0:
320,192,81350,1,0,0:0:0:0:
320,192,81430,1,0,0:0:0:0:
192,192,81430,1,0,0:0:0:0:
64,192,81509,1,0,0:0:0:0:
448,192,81509,1,0,0:0:0:0:
320,192,81588,1,0,0:0:0:0:
192,192,81588,1,0,0:0:0:0:
448,192,81588,1,0,0:0:0:0:
64,192,81668,1,0,0:0:0:0:
192,192,81668,1,0,0:0:0:0:
192,192,81747,1,0,0:0:0:0:
448,192,81747,1,0,0:0:0:0:
448,192,81827,1,0,0:0:0:0:
320,192,81827,1,0,0:0:0:0:
64,192,81906,1,0,0:0:0:0:
192,192,81906,1,0,0:0:0:0:
320,192,81906,1,0,0:0:0:0:
448,192,81985,1,0,0:0:0:0:
192,192,81985,1,0,0:0:0:0:
320,192,82064,1,0,0:0:0:0:
192,192,82064,1,0,0:0:0:0:
320,192,82144,1,0,0:0:0:0:
64,192,82144,1,0,0:0:0:0:
448,192,82224,1,0,0:0:0:0:
320,192,82224,1,0,0:0:0:0:
192,192,82224,1,0,0:0:0:0:
64,192,82303,1,0,0:0:0:0:
192,192,82303,1,0,0:0:0:0:
192,192,82382,1,0,0:0:0:0:
320,192,82382,1,0,0:0:0:0:
448,192,82461,1,0,0:0:0:0:
320,192,82461,1,0,0:0:0:0:
192,192,82540,1,0,0:0:0:0:
64,192,82540,1,0,0:0:0:0:
448,192,82540,1,0,0:0:0:0:
192,192,82620,1,0,0:0:0:0:
448,192,82620,1,0,0:0:0:0:
64,192,82700,1,0,0:0:0:0:
320,192,82700,1,0,0:0:0:0:
64,192,82779,1,0,0:0:0:0:
192,192,82779,1,0,0:0:0:0:
320,192,82858,1,0,0:0:0:0:
448,192,82858,1,0,0:0:0:0:
64,192,82858,1,0,0:0:0:0:
192,192,82937,1,0,0:0:0:0:
320,192,82937,1,0,0:0:0:0:
320,192,83017,1,0,0:0:0:0:
64,192,83017,1,0,0:0:0:0:
448,192,83096,1,0,0:0:0:0:
192,192,83096,1,0,0:0:0:0:
64,192,83176,1,0,0:0:0:0:
320,192,83176,1,0,0:0:0:0:
448,192,83176,1,0,0:0:0:0:
192,192,83255,1,0,0:0:0:0:
64,192,83255,1,0,0:0:0:0:
192,192,83334,1,0,0:0:0:0:
448,192,83334,1,0,0:0:0:0:
448,192,83414,1,0,0:0:0:0:
64,192,83414,1,0,0:0:0:0:
320,192,83493,1,0,0:0:0:0:
64,192,83493,1,0,0:0:0:0:
448,192,83493,1,0,0:0:0:0:
192,192,83572,1,0,0:0:0:0:
320,192,83572,1,0,0:0:0:0:
448,192,83652,1,0,0:0:0:0:
64,192,83652,1,0,0:0:0:0:
64,192,83731,1,0,0:0:0:0:
192,192,83731,1,0,0:0:0:0:
64,192,83811,1,0,0:0:0:0:
448,192,83811,1,0,0:0:0:0:
320,192,83811,1,0,0:0:0:0:
192,192,83811,1,0,0:0:0:0:
448,192,83890,1,0,0:0:0:0:
320,192,83890,1,0,0:0:0:0:
64,192,83969,1,0,0:0:0:0:
320,192,83969,1,0,0:0:0:0:
192,192,84048,1,0,0:0:0:0:
64,192,84048,1,0,0:0:0:0:
64,192,84128,1,0,0:0:0:0:
192,192,84128,1,0,0:0:0:0:
320,192,84128,1,0,0:0:0:0:
448,192,84128,1,0,0:0:0:0:
448,192,84208,1,0,0:0:0:0:
64,192,84208,1,0,0:0:0:0:
320,192,84287,1,0,0:0:0:0:
192,192,84287,1,0,0:0:0:0:
64,192,84366,1,0,0:0:0:0:
320,192,84366,1,0,0:0:0:0:
448,192,84445,1,0,0:0:0:0:
64,192,84445,1,0,0:0:0:0:
192,192,84445,1,0,0:0:0:0:
320,192,84524,1,0,0:0:0:0:
448,192,84524,1,0,0:0:0:0:
320,192,84604,1,0,0:0:0:0:
192,192,84604,1,0,0:0:0:0:
64,192,84684,1,0,0:0:0:0:
320,192,84684,1,0,0:0:0:0:
64,192,84763,1,0,0:0:0:0:
192,192,84763,1,0,0:0:0:0:
448,192,84763,1,0,0:0:0:0:
320,192,84842,1,0,0:0:0:0:
192,192,84842,1,0,0:0:0:0:
64,192,84921,1,0,0:0:0:0:
448,192,84921,1,0,0:0:0:0:
448,192,85001,1,0,0:0:0:0:
192,192,85001,1,0,0:0:0:0:
320,192,85080,1,0,0:0:0:0:
192,192,85080,1,0,0:0:0:0:
64,192,85080,1,0,0:0:0:0:
448,192,85080,1,0,0:0:0:0:
448,192,85160,1,0,0:0:0:0:
64,192,85160,1,0,0:0:0:0:
64,192,85239,1,0,0:0:0:0:
192,192,85239,1,0,0:0:0:0:
448,192,85318,1,0,0:0:0:0:
320,192,85318,1,0,0:0:0:0:
64,192,85398,1,0,0:0:0:0:
192,192,85398,1,0,0:0:0:0:
320,192,85398,1,0,0:0:0:0:
448,192,85398,1,0,0:0:0:0:
64,192,85477,1,0,0:0:0:0:
320,192,85477,1,0,0:0:0:0:
192,192,85556,1,0,0:0:0:0:
320,192,85556,1,0,0:0:0:0:
448,192,85636,1,0,0:0:0:0:
64,192,85636,1,0,0:0:0:0:
192,192,85715,1,0,0:0:0:0:
64,192,85715,1,0,0:0:0:0:
448,192,85715,1,0,0:0:0:0:
320,192,85715,1,0,0:0:0:0:
192,192,85795,1,0,0:0:0:0:
64,192,85795,1,0,0:0:0:0:
448,192,85874,1,0,0:0:0:0:
320,192,85874,1,0,0:0:0:0:
192,192,85874,1,0,0:0:0:0:
64,192,85953,1,0,0:0:0:0:
320,192,85953,1,0,0:0:0:0:
448,192,86032,1,0,0:0:0:0:
320,192,86032,1,0,0:0:0:0:
192,192,86032,1,0,0:0:0:0:
64,192,86032,1,0,0:0:0:0:
192,192,86112,1,0,0:0:0:0:
448,192,86112,1,0,0:0:0:0:
320,192,86192,1,0,0:0:0:0:
64,192,86192,1,0,0:0:0:0:
192,192,86192,1,0,0:0:0:0:
448,192,86271,1,0,0:0:0:0:
64,192,86271,1,0,0:0:0:0:
64,192,87620,1,0,0:0:0:0:
192,192,87620,1,0,0:0:0:0:
448,192,87620,1,0,0:0:0:0:
320,192,87620,1,0,0:0:0:0:
64,192,87699,1,0,0:0:0:0:
320,192,87699,1,0,0:0:0:0:
192,192,87779,1,0,0:0:0:0:
320,192,87779,1,0,0:0:0:0:
448,192,87779,1,0,0:0:0:0:
64,192,87858,1,0,0:0:0:0:
192,192,87858,1,0,0:0:0:0:
320,192,87937,1,0,0:0:0:0:
192,192,87937,1,0,0:0:0:0:
64,192,87937,1,0,0:0:0:0:
448,192,87937,1,0,0:0:0:0:
448,192,88016,1,0,0:0:0:0:
320,192,88016,1,0,0:0:0:0:
64,192,88096,1,0,0:0:0:0:
448,192,88096,1,0,0:0:0:0:
192,192,88096,1,0,0:0:0:0:
320,192,88176,1,0,0:0:0:0:
192,192,88176,1,0,0:0:0:0:
64,192,88255,1,0,0:0:0:0:
192,192,88255,1,0,0:0:0:0:
320,192,88255,1,0,0:0:0:0:
448,192,88255,1,0,0:0:0:0:
192,192,88334,1,0,0:0:0:0:
448,192,88334,1,0,0:0:0:0:
64,192,88413,1,0,0:0:0:0:
320,192,88413,1,0,0:0:0:0:
448,192,88413,1,0,0:0:0:0:
64,192,88492,1,0,0:0:0:0:
192,192,88492,1,0,0:0:0:0:
448,192,88572,1,0,0:0:0:0:
320,192,88572,1,0,0:0:0:0:
192,192,88572,1,0,0:0:0:0:
64,192,88572,1,0,0:0:0:0:
448,192,88652,1,0,0:0:0:0:
192,192,88652,1,0,0:0:0:0:
64,192,88731,1,0,0:0:0:0:
320,192,88731,1,0,0:0:0:0:
448,192,88731,1,0,0:0:0:0:
320,192,88810,1,0,0:0:0:0:
192,192,88810,1,0,0:0:0:0:
64,192,88889,1,0,0:0:0:0:
192,192,88889,1,0,0:0:0:0:
320,192,88889,1,0,0:0:0:0:
448,192,88889,1,0,0:0:0:0:
192,192,88969,1,0,0:0:0:0:
448,192,88969,1,0,0:0:0:0:
64,192,88969,1,0,0:0:0:0:
448,192,89048,1,0,0:0:0:0:
320,192,89048,1,0,0:0:0:0:
64,192,89048,1,0,0:0:0:0:
192,192,89128,1,0,0:0:0:0:
320,192,89128,1,0,0:0:0:0:
448,192,89128,1,0,0:0:0:0:
448,192,89207,1,0,0:0:0:0:
320,192,89207,1,0,0:0:0:0:
192,192,89207,1,0,0:0:0:0:
64,192,89207,1,0,0:0:0:0:
64,192,89286,1,0,0:0:0:0:
320,192,89286,1,0,0:0:0:0:
448,192,89286,1,0,0:0:0:0:
192,192,89366,1,0,0:0:0:0:
64,192,89366,1,0,0:0:0:0:
320,192,89366,1,0,0:0:0:0:
448,192,89445,1,0,0:0:0:0:
320,192,89445,1,0,0:0:0:0:
192,192,89445,1,0,0:0:0:0:
64,192,89524,1,0,0:0:0:0:
192,192,89524,1,0,0:0:0:0:
320,192,89524,1,0,0:0:0:0:
448,192,89524,1,0,0:0:0:0:
64,192,89604,1,0,0:0:0:0:
192,192,89604,1,0,0:0:0:0:
448,192,89604,1,0,0:0:0:0:
448,192,89683,1,0,0:0:0:0:
320,192,89683,1,0,0:0:0:0:
192,192,89683,1,0,0:0:0:0:
64,192,89763,1,0,0:0:0:0:
320,192,89763,1,0,0:0:0:0:
64,192,89842,1,0,0:0:0:0:
192,192,89842,1,0,0:0:0:0:
320,192,89842,1,0,0:0:0:0:
448,192,89842,1,0,0:0:0:0:
192,192,89921,1,0,0:0:0:0:
448,192,89921,1,0,0:0:0:0:
320,192,90000,1,0,0:0:0:0:
64,192,90000,1,0,0:0:0:0:
192,192,90000,1,0,0:0:0:0:
448,192,90080,1,0,0:0:0:0:
64,192,90080,1,0,0:0:0:0:
448,192,90160,1,0,0:0:0:0:
320,192,90160,1,0,0:0:0:0:
64,192,90160,1,0,0:0:0:0:
192,192,90160,1,0,0:0:0:0:
192,192,90239,1,0,0:0:0:0:
320,192,90239,1,0,0:0:0:0:
64,192,90318,1,0,0:0:0:0:
192,192,90318,1,0,0:0:0:0:
448,192,90318,1,0,0:0:0:0:
320,192,90397,1,0,0:0:0:0:
64,192,90397,1,0,0:0:0:0:
64,192,90476,1,0,0:0:0:0:
192,192,90476,1,0,0:0:0:0:
320,192,90476,1,0,0:0:0:0:
448,192,90476,1,0,0:0:0:0:
192,192,90556,1,0,0:0:0:0:
448,192,90556,1,0,0:0:0:0:
64,192,90636,1,0,0:0:0:0:
320,192,90636,1,0,0:0:0:0:
192,192,90636,1,0,0:0:0:0:
320,192,90715,1,0,0:0:0:0:
448,192,90715,1,0,0:0:0:0:
448,192,90794,1,0,0:0:0:0:
320,192,90794,1,0,0:0:0:0:
192,192,90794,1,0,0:0:0:0:
64,192,90794,1,0,0:0:0:0:
320,192,90873,1,0,0:0:0:0:
192,192,90873,1,0,0:0:0:0:
64,192,90952,1,0,0:0:0:0:
320,192,90952,1,0,0:0:0:0:
448,192,90952,1,0,0:0:0:0:
64,192,91032,1,0,0:0:0:0:
192,192,91032,1,0,0:0:0:0:
64,192,91112,1,0,0:0:0:0:
192,192,91112,1,0,0:0:0:0:
320,192,91112,1,0,0:0:0:0:
448,192,91112,1,0,0:0:0:0:
448,192,91191,1,0,0:0:0:0:
320,192,91191,1,0,0:0:0:0:
448,192,91270,1,0,0:0:0:0:
192,192,91270,1,0,0:0:0:0:
64,192,91270,1,0,0:0:0:0:
64,192,91349,1,0,0:0:0:0:
192,192,91349,1,0,0:0:0:0:
448,192,91429,1,0,0:0:0:0:
320,192,91429,1,0,0:0:0:0:
192,192,91429,1,0,0:0:0:0:
64,192,91429,1,0,0:0:0:0:
192,192,91508,1,0,0:0:0:0:
448,192,91508,1,0,0:0:0:0:
320,192,91508,1,0,0:0:0:0:
64,192,91588,1,0,0:0:0:0:
320,192,91588,1,0,0:0:0:0:
448,192,91588,1,0,0:0:0:0:
320,192,91667,1,0,0:0:0:0:
64,192,91667,1,0,0:0:0:0:
192,192,91667,1,0,0:0:0:0:
64,192,91746,1,0,0:0:0:0:
192,192,91746,1,0,0:0:0:0:
320,192,91746,1,0,0:0:0:0:
448,192,91746,1,0,0:0:0:0:
448,192,91826,1,0,0:0:0:0:
192,192,91826,1,0,0:0:0:0:
64,192,91826,1,0,0:0:0:0:
320,192,91905,1,0,0:0:0:0:
448,192,91905,1,0,0:0:0:0:
64,192,91905,1,0,0:0:0:0:
192,192,91984,1,0,0:0:0:0:
320,192,91984,1,0,0:0:0:0:
448,192,91984,1,0,0:0:0:0:
448,192,92064,1,0,0:0:0:0:
320,192,92064,1,0,0:0:0:0:
192,192,92064,1,0,0:0:0:0:
64,192,92064,1,0,0:0:0:0:
64,192,92143,1,0,0:0:0:0:
192,192,92143,1,0,0:0:0:0:
448,192,92143,1,0,0:0:0:0:
448,192,92223,1,0,0:0:0:0:
320,192,92223,1,0,0:0:0:0:
64,192,92223,1,0,0:0:0:0:
192,192,92302,1,0,0:0:0:0:
320,192,92302,1,0,0:0:0:0:
448,192,92381,1,0,0:0:0:0:
320,192,92381,1,0,0:0:0:0:
192,192,92381,1,0,0:0:0:0:
64,192,92381,1,0,0:0:0:0:
64,192,92460,1,0,0:0:0:0:
448,192,92460,1,0,0:0:0:0:
64,192,92540,1,0,0:0:0:0:
192,192,92540,1,0,0:0:0:0:
320,192,92540,1,0,0:0:0:0:
448,192,92620,1,0,0:0:0:0:
192,192,92620,1,0,0:0:0:0:
64,192,92699,1,0,0:0:0:0:
192,192,92699,1,0,0:0:0:0:
448,192,92699,1,0,0:0:0:0:
320,192,92699,1,0,0:0:0:0:
448,192,92778,1,0,0:0:0:0:
320,192,92778,1,0,0:0:0:0:
64,192,92857,1,0,0:0:0:0:
320,192,92857,1,0,0:0:0:0:
192,192,92857,1,0,0:0:0:0:
448,192,92936,1,0,0:0:0:0:
64,192,92936,1,0,0:0:0:0:
64,192,93016,1,0,0:0:0:0:
192,192,93016,1,0,0:0:0:0:
320,192,93016,1,0,0:0:0:0:
448,192,93016,1,0,0:0:0:0:
192,192,93096,1,0,0:0:0:0:
320,192,93096,1,0,0:0:0:0:
448,192,93175,1,0,0:0:0:0:
320,192,93175,1,0,0:0:0:0:
64,192,93175,1,0,0:0:0:0:
64,192,93254,1,0,0:0:0:0:
192,192,93254,1,0,0:0:0:0:
448,192,93333,1,0,0:0:0:0:
320,192,93333,1,0,0:0:0:0:
192,192,93333,1,0,0:0:0:0:
64,192,93333,1,0,0:0:0:0:
320,192,93413,1,0,0:0:0:0:
448,192,93413,1,0,0:0:0:0:
64,192,93492,1,0,0:0:0:0:
192,192,93492,1,0,0:0:0:0:
448,192,93492,1,0,0:0:0:0:
64,192,93572,1,0,0:0:0:0:
320,192,93572,1,0,0:0:0:0:
448,192,93651,1,0,0:0:0:0:
320,192,93651,1,0,0:0:0:0:
192,192,93651,1,0,0:0:0:0:
64,192,93651,1,0,0:0:0:0:
448,192,93730,1,0,0:0:0:0:
192,192,93730,1,0,0:0:0:0:
64,192,93810,1,0,0:0:0:0:
320,192,93810,1,0,0:0:0:0:
192,192,93810,1,0,0:0:0:0:
320,192,93889,1,0,0:0:0:0:
448,192,93889,1,0,0:0:0:0:
448,192,93968,1,0,0:0:0:0:
320,192,93968,1,0,0:0:0:0:
192,192,93968,1,0,0:0:0:0:
64,192,93968,1,0,0:0:0:0:
192,192,94048,1,0,0:0:0:0:
64,192,94048,1,0,0:0:0:0:
64,192,94127,1,0,0:0:0:0:
320,192,94127,1,0,0:0:0:0:
448,192,94127,1,0,0:0:0:0:
192,192,94207,1,0,0:0:0:0:
320,192,94207,1,0,0:0:0:0:
64,192,94286,1,0,0:0:0:0:
192,192,94286,1,0,0:0:0:0:
320,192,94286,1,0,0:0:0:0:
448,192,94286,1,0,0:0:0:0:
448,192,94365,1,0,0:0:0:0:
64,192,94365,1,0,0:0:0:0:
64,192,94444,1,0,0:0:0:0:
192,192,94444,1,0,0:0:0:0:
320,192,94444,1,0,0:0:0:0:
448,192,94524,1,0,0:0:0:0:
192,192,94524,1,0,0:0:0:0:
320,192,94604,1,0,0:0:0:0:
448,192,94604,1,0,0:0:0:0:
192,192,94604,1,0,0:0:0:0:
64,192,94604,1,0,0:0:0:0:
448,192,94683,1,0,0:0:0:0:
320,192,94683,1,0,0:0:0:0:
64,192,94762,1,0,0:0:0:0:
192,192,94762,1,0,0:0:0:0:
320,192,94762,1,0,0:0:0:0:
192,192,94841,1,0,0:0:0:0:
64,192,94841,1,0,0:0:0:0:
64,192,94920,1,0,0:0:0:0:
192,192,94920,1,0,0:0:0:0:
320,192,94920,1,0,0:0:0:0:
448,192,94920,1,0,0:0:0:0:
448,192,95000,1,0,0:0:0:0:
192,192,95000,1,0,0:0:0:0:
64,192,95080,1,0,0:0:0:0:
448,192,95080,1,0,0:0:0:0:
320,192,95080,1,0,0:0:0:0:
320,192,95159,1,0,0:0:0:0:
192,192,95159,1,0,0:0:0:0:
64,192,95238,1,0,0:0:0:0:
192,192,95238,1,0,0:0:0:0:
320,192,95238,1,0,0:0:0:0:
448,192,95238,1,0,0:0:0:0:
448,192,95317,1,0,0:0:0:0:
64,192,95317,1,0,0:0:0:0:
64,192,95397,1,0,0:0:0:0:
192,192,95397,1,0,0:0:0:0:
320,192,95397,1,0,0:0:0:0:
320,192,95476,1,0,0:0:0:0:
448,192,95476,1,0,0:0:0:0:
64,192,95556,1,0,0:0:0:0:
192,192,95556,1,0,0:0:0:0:
320,192,95556,1,0,0:0:0:0:
448,192,95556,1,0,0:0:0:0:
64,192,95635,1,0,0:0:0:0:
320,192,95635,1,0,0:0:0:0:
192,192,95714,1,0,0:0:0:0:
320,192,95714,1,0,0:0:0:0:
448,192,95714,1,0,0:0:0:0:
64,192,95794,1,0,0:0:0:0:
192,192,95794,1,0,0:0:0:0:
64,192,95873,1,0,0:0:0:0:
192,192,95873,1,0,0:0:0:0:
320,192,95873,1,0,0:0:0:0:
448,192,95873,1,0,0:0:0:0:
448,192,95952,1,0,0:0:0:0:
320,192,95952,1,0,0:0:0:0:
64,192,96032,1,0,0:0:0:0:
448,192,96032,1,0,0:0:0:0:
192,192,96032,1,0,0:0:0:0:
192,192,96111,1,0,0:0:0:0:
320,192,96111,1,0,0:0:0:0:
192,192,96191,1,0,0:0:0:0:
64,192,96191,1,0,0:0:0:0:
320,192,96191,1,0,0:0:0:0:
448,192,96191,1,0,0:0:0:0:
448,192,96270,1,0,0:0:0:0:
192,192,96270,1,0,0:0:0:0:
64,192,96349,1,0,0:0:0:0:
192,192,96349,1,0,0:0:0:0:
320,192,96349,1,0,0:0:0:0:
64,192,96428,1,0,0:0:0:0:
320,192,96428,1,0,0:0:0:0:
64,192,96508,1,0,0:0:0:0:
192,192,96508,1,0,0:0:0:0:
320,192,96508,1,0,0:0:0:0:
448,192,96508,1,0,0:0:0:0:
192,192,96588,1,0,0:0:0:0:
448,192,96588,1,0,0:0:0:0:
320,192,96667,1,0,0:0:0:0:
192,192,96667,1,0,0:0:0:0:
64,192,96667,1,0,0:0:0:0:
448,192,96746,1,0,0:0:0:0:
64,192,96746,1,0,0:0:0:0:
192,192,96825,1,0,0:0:0:0:
64,192,96825,1,0,0:0:0:0:
448,192,96825,1,0,0:0:0:0:
320,192,96904,1,0,0:0:0:0:
192,192,96904,1,0,0:0:0:0:
64,192,96984,1,0,0:0:0:0:
320,192,96984,1,0,0:0:0:0:
448,192,96984,1,0,0:0:0:0:
192,192,96984,1,0,0:0:0:0:
448,192,97064,1,0,0:0:0:0:
192,192,97064,1,0,0:0:0:0:
64,192,97143,1,0,0:0:0:0:
192,192,97143,1,0,0:0:0:0:
320,192,97143,1,0,0:0:0:0:
448,192,97143,1,0,0:0:0:0:
64,192,97222,1,0,0:0:0:0:
192,192,97222,1,0,0:0:0:0:
448,192,97222,1,0,0:0:0:0:
64,192,97301,1,0,0:0:0:0:
448,192,97301,1,0,0:0:0:0:
320,192,97301,1,0,0:0:0:0:
320,192,97381,1,0,0:0:0:0:
448,192,97381,1,0,0:0:0:0:
192,192,97381,1,0,0:0:0:0:
64,192,97460,1,0,0:0:0:0:
192,192,97460,1,0,0:0:0:0:
320,192,97460,1,0,0:0:0:0:
448,192,97460,1,0,0:0:0:0:
320,192,97540,1,0,0:0:0:0:
448,192,97540,1,0,0:0:0:0:
64,192,97540,1,0,0:0:0:0:
64,192,97619,1,0,0:0:0:0:
448,192,97619,1,0,0:0:0:0:
192,192,97619,1,0,0:0:0:0:
320,192,97698,1,0,0:0:0:0:
192,192,97698,1,0,0:0:0:0:
64,192,97698,1,0,0:0:0:0:
448,192,97778,1,0,0:0:0:0:
320,192,97778,1,0,0:0:0:0:
192,192,97778,1,0,0:0:0:0:
64,192,97778,1,0,0:0:0:0:
