osu file format v14

[General]
AudioFilename: audio 1.050x.mp3
AudioLeadIn: 0
PreviewTime: 30240
Countdown: 0
SampleSet: None
StackLeniency: 0.7
Mode: 3
LetterboxInBreaks: 0
SpecialStyle: 0
WidescreenStoryboard: 0

[Editor]
Bookmarks: 6358,19056,31753,57148,84130,95240,109525,122223
DistanceSpacing: 0.8
BeatDivisor: 4
GridSize: 4
TimelineZoom: 2.3

[Metadata]
Title:Deep Down (Sped Up Ver.)
TitleUnicode:Deep Down (Sped Up Ver.)
Artist:Alok x Ella Eyre x Kenny Dope feat. Never Dull
ArtistUnicode:Alok x Ella Eyre x Kenny Dope feat. Never Dull
Creator:ShibePlanet
Version:You & I (1.05x)
Source:
Tags:electronic english chordjack cj speedjack jack stamina
BeatmapID:4485051
BeatmapSetID:1900403

[Difficulty]
HPDrainRate:8
CircleSize:4
OverallDifficulty:8
ApproachRate:5
SliderMultiplier:1.4
SliderTickRate:1

[Events]
//Background and Video events
0,0,"crumbdance.jpg",0,0
//Break Periods
2,90904,95551
//Storyboard Layer 0 (Background)
//Storyboard Layer 1 (Fail)
//Storyboard Layer 2 (Pass)
//Storyboard Layer 3 (Foreground)
//Storyboard Layer 4 (Overlay)
//Storyboard Sound Samples

[TimingPoints]
8,377.901456526689,4,2,0,40,1,0
30240,-100,4,2,0,40,0,1
42334,-100,4,2,0,40,0,0
80123,-100,4,2,0,40,0,1
90704,-100,4,2,0,40,0,0
104309,-100,4,2,0,40,0,1
116402,-100,4,2,0,40,0,0

[HitObjects]
64,192,6055,5,0,0:0:0:0:
448,192,6055,1,0,0:0:0:0:
192,192,6055,1,0,0:0:0:0:
320,192,6243,1,0,0:0:0:0:
192,192,6433,1,0,0:0:0:0:
64,192,6433,1,0,0:0:0:0:
320,192,6433,1,0,0:0:0:0:
448,192,6527,1,0,0:0:0:0:
64,192,6621,1,0,0:0:0:0:
192,192,6811,1,0,0:0:0:0:
320,192,6811,1,0,0:0:0:0:
448,192,6811,1,0,0:0:0:0:
320,192,7000,1,0,0:0:0:0:
192,192,7188,1,0,0:0:0:0:
64,192,7188,1,0,0:0:0:0:
320,192,7188,1,0,0:0:0:0:
192,192,7378,1,0,0:0:0:0:
64,192,7566,1,0,0:0:0:0:
192,192,7566,1,0,0:0:0:0:
448,192,7566,1,0,0:0:0:0:
320,192,7756,1,0,0:0:0:0:
448,192,7944,1,0,0:0:0:0:
320,192,7944,1,0,0:0:0:0:
192,192,7944,1,0,0:0:0:0:
64,192,8039,1,0,0:0:0:0:
448,192,8133,1,0,0:0:0:0:
320,192,8322,1,0,0:0:0:0:
192,192,8322,1,0,0:0:0:0:
64,192,8322,1,0,0:0:0:0:
320,192,8511,1,0,0:0:0:0:
320,192,8700,1,0,0:0:0:0:
192,192,8700,1,0,0:0:0:0:
448,192,8700,1,0,0:0:0:0:
192,192,8889,1,0,0:0:0:0:
64,192,9078,1,0,0:0:0:0:
320,192,9078,1,0,0:0:0:0:
448,192,9078,1,0,0:0:0:0:
192,192,9267,1,0,0:0:0:0:
320,192,9267,1,0,0:0:0:0:
64,192,9456,1,0,0:0:0:0:
192,192,9456,1,0,0:0:0:0:
320,192,9456,1,0,0:0:0:0:
448,192,9645,1,0,0:0:0:0:
192,192,9645,1,0,0:0:0:0:
64,192,9834,1,0,0:0:0:0:
320,192,9834,1,0,0:0:0:0:
448,192,9834,1,0,0:0:0:0:
64,192,10022,1,0,0:0:0:0:
320,192,10022,1,0,0:0:0:0:
192,192,10212,1,0,0:0:0:0:
320,192,10212,1,0,0:0:0:0:
448,192,10212,1,0,0:0:0:0:
64,192,10400,1,0,0:0:0:0:
448,192,10400,1,0,0:0:0:0:
64,192,10590,1,0,0:0:0:0:
192,192,10590,1,0,0:0:0:0:
320,192,10590,1,0,0:0:0:0:
448,192,10684,1,0,0:0:0:0:
320,192,10779,1,0,0:0:0:0:
192,192,10779,1,0,0:0:0:0:
64,192,10967,1,0,0:0:0:0:
320,192,10967,1,0,0:0:0:0:
448,192,10967,1,0,0:0:0:0:
448,192,11157,1,0,0:0:0:0:
64,192,11345,1,0,0:0:0:0:
192,192,11345,1,0,0:0:0:0:
320,192,11345,1,0,0:0:0:0:
192,192,11535,1,0,0:0:0:0:
64,192,11723,1,0,0:0:0:0:
320,192,11723,1,0,0:0:0:0:
448,192,11723,1,0,0:0:0:0:
320,192,11912,1,0,0:0:0:0:
192,192,12101,1,0,0:0:0:0:
320,192,12101,1,0,0:0:0:0:
448,192,12101,1,0,0:0:0:0:
448,192,12290,1,0,0:0:0:0:
192,192,12480,1,0,0:0:0:0:
64,192,12480,1,0,0:0:0:0:
448,192,12480,1,0,0:0:0:0:
320,192,12574,1,0,0:0:0:0:
64,192,12668,1,0,0:0:0:0:
192,192,12857,1,0,0:0:0:0:
320,192,12857,1,0,0:0:0:0:
448,192,12857,1,0,0:0:0:0:
320,192,13046,1,0,0:0:0:0:
320,192,13235,1,0,0:0:0:0:
192,192,13235,1,0,0:0:0:0:
64,192,13235,1,0,0:0:0:0:
448,192,13424,1,0,0:0:0:0:
448,192,13613,1,0,0:0:0:0:
320,192,13613,1,0,0:0:0:0:
192,192,13613,1,0,0:0:0:0:
192,192,13801,1,0,0:0:0:0:
64,192,13991,1,0,0:0:0:0:
320,192,13991,1,0,0:0:0:0:
448,192,13991,1,0,0:0:0:0:
192,192,14085,1,0,0:0:0:0:
320,192,14180,1,0,0:0:0:0:
192,192,14369,1,0,0:0:0:0:
64,192,14369,1,0,0:0:0:0:
448,192,14369,1,0,0:0:0:0:
64,192,14558,1,0,0:0:0:0:
64,192,14746,1,0,0:0:0:0:
192,192,14746,1,0,0:0:0:0:
320,192,14746,1,0,0:0:0:0:
320,192,14936,1,0,0:0:0:0:
320,192,15124,1,0,0:0:0:0:
448,192,15124,1,0,0:0:0:0:
64,192,15124,1,0,0:0:0:0:
192,192,15314,1,0,0:0:0:0:
64,192,15314,1,0,0:0:0:0:
192,192,15502,1,0,0:0:0:0:
320,192,15502,1,0,0:0:0:0:
448,192,15502,1,0,0:0:0:0:
64,192,15691,1,0,0:0:0:0:
320,192,15691,1,0,0:0:0:0:
192,192,15880,1,0,0:0:0:0:
64,192,15880,1,0,0:0:0:0:
320,192,15880,1,0,0:0:0:0:
192,192,16069,1,0,0:0:0:0:
448,192,16069,1,0,0:0:0:0:
448,192,16259,1,0,0:0:0:0:
192,192,16259,1,0,0:0:0:0:
320,192,16259,1,0,0:0:0:0:
192,192,16447,1,0,0:0:0:0:
320,192,16447,1,0,0:0:0:0:
64,192,16636,1,0,0:0:0:0:
448,192,16636,1,0,0:0:0:0:
320,192,16636,1,0,0:0:0:0:
192,192,16731,1,0,0:0:0:0:
320,192,16825,1,0,0:0:0:0:
448,192,16825,1,0,0:0:0:0:
192,192,17014,128,0,17203:0:0:0:0:
320,192,17014,128,0,17203:0:0:0:0:
64,192,17014,128,0,17203:0:0:0:0:
192,192,17392,128,0,17580:0:0:0:0:
64,192,17392,128,0,17580:0:0:0:0:
448,192,17392,128,0,17580:0:0:0:0:
64,192,17770,128,0,17959:0:0:0:0:
448,192,17770,128,0,17959:0:0:0:0:
320,192,17770,128,0,17959:0:0:0:0:
320,192,18148,1,0,0:0:0:0:
192,192,18148,1,0,0:0:0:0:
64,192,18148,1,0,0:0:0:0:
448,192,18148,128,0,18337:0:0:0:0:
64,192,18525,128,0,18715:0:0:0:0:
320,192,18525,1,0,0:0:0:0:
192,192,18525,1,0,0:0:0:0:
448,192,18525,1,0,0:0:0:0:
64,192,18809,128,0,18998:0:0:0:0:
320,192,18903,1,0,0:0:0:0:
448,192,18903,1,0,0:0:0:0:
64,192,19093,128,0,19281:0:0:0:0:
192,192,19281,1,0,0:0:0:0:
320,192,19281,1,0,0:0:0:0:
448,192,19281,1,0,0:0:0:0:
64,192,19376,128,0,19565:0:0:0:0:
192,192,19660,128,0,19848:0:0:0:0:
64,192,19660,1,0,0:0:0:0:
448,192,19660,1,0,0:0:0:0:
320,192,20038,128,0,20226:0:0:0:0:
448,192,20038,1,0,0:0:0:0:
192,192,20038,1,0,0:0:0:0:
64,192,20038,1,0,0:0:0:0:
320,192,20320,128,0,20510:0:0:0:0:
192,192,20415,1,0,0:0:0:0:
448,192,20415,1,0,0:0:0:0:
320,192,20604,128,0,20793:0:0:0:0:
192,192,20793,1,0,0:0:0:0:
64,192,20793,1,0,0:0:0:0:
448,192,20793,1,0,0:0:0:0:
320,192,20887,128,0,21077:0:0:0:0:
64,192,21171,128,0,21360:0:0:0:0:
192,192,21171,1,0,0:0:0:0:
448,192,21171,1,0,0:0:0:0:
448,192,21549,128,0,21738:0:0:0:0:
320,192,21549,1,0,0:0:0:0:
192,192,21549,1,0,0:0:0:0:
64,192,21549,1,0,0:0:0:0:
448,192,21832,128,0,22021:0:0:0:0:
192,192,21926,1,0,0:0:0:0:
320,192,21926,1,0,0:0:0:0:
448,192,22116,128,0,22304:0:0:0:0:
320,192,22304,1,0,0:0:0:0:
192,192,22304,1,0,0:0:0:0:
64,192,22304,1,0,0:0:0:0:
448,192,22399,128,0,22588:0:0:0:0:
320,192,22682,128,0,22871:0:0:0:0:
192,192,22682,1,0,0:0:0:0:
64,192,22682,1,0,0:0:0:0:
192,192,23060,128,0,23249:0:0:0:0:
64,192,23060,1,0,0:0:0:0:
448,192,23060,1,0,0:0:0:0:
320,192,23060,1,0,0:0:0:0:
192,192,23343,128,0,23533:0:0:0:0:
320,192,23439,1,0,0:0:0:0:
448,192,23439,1,0,0:0:0:0:
192,192,23627,128,0,23816:0:0:0:0:
64,192,23816,1,0,0:0:0:0:
320,192,23816,1,0,0:0:0:0:
448,192,23816,1,0,0:0:0:0:
192,192,23911,128,0,24100:0:0:0:0:
64,192,24194,128,0,24383:0:0:0:0:
448,192,24194,1,0,0:0:0:0:
320,192,24194,1,0,0:0:0:0:
320,192,24572,128,0,24760:0:0:0:0:
64,192,24572,1,0,0:0:0:0:
192,192,24572,1,0,0:0:0:0:
448,192,24572,1,0,0:0:0:0:
320,192,24856,128,0,25044:0:0:0:0:
448,192,24950,1,0,0:0:0:0:
64,192,24950,1,0,0:0:0:0:
320,192,25139,128,0,25328:0:0:0:0:
64,192,25328,1,0,0:0:0:0:
192,192,25328,1,0,0:0:0:0:
448,192,25328,1,0,0:0:0:0:
320,192,25422,128,0,25611:0:0:0:0:
64,192,25705,128,0,25895:0:0:0:0:
192,192,25705,1,0,0:0:0:0:
448,192,25705,1,0,0:0:0:0:
448,192,26083,128,0,26273:0:0:0:0:
320,192,26083,1,0,0:0:0:0:
192,192,26083,1,0,0:0:0:0:
64,192,26083,1,0,0:0:0:0:
448,192,26367,128,0,26556:0:0:0:0:
320,192,26461,1,0,0:0:0:0:
192,192,26461,1,0,0:0:0:0:
448,192,26650,128,0,26840:0:0:0:0:
320,192,26840,1,0,0:0:0:0:
64,192,26840,1,0,0:0:0:0:
192,192,26840,1,0,0:0:0:0:
448,192,26934,128,0,27122:0:0:0:0:
320,192,27218,128,0,27406:0:0:0:0:
192,192,27218,1,0,0:0:0:0:
64,192,27218,1,0,0:0:0:0:
64,192,27595,128,0,27784:0:0:0:0:
192,192,27595,1,0,0:0:0:0:
448,192,27595,1,0,0:0:0:0:
64,192,27879,128,0,28067:0:0:0:0:
448,192,27973,1,0,0:0:0:0:
320,192,27973,1,0,0:0:0:0:
192,192,27973,1,0,0:0:0:0:
64,192,28162,128,0,28351:0:0:0:0:
448,192,28351,1,0,0:0:0:0:
192,192,28351,1,0,0:0:0:0:
64,192,28445,128,0,28635:0:0:0:0:
320,192,28729,1,0,0:0:0:0:
448,192,28729,1,0,0:0:0:0:
192,192,28729,1,0,0:0:0:0:
64,192,29107,1,0,0:0:0:0:
192,192,29107,1,0,0:0:0:0:
320,192,29107,1,0,0:0:0:0:
448,192,29484,1,0,0:0:0:0:
320,192,29484,1,0,0:0:0:0:
64,192,29484,1,0,0:0:0:0:
64,192,29862,1,0,0:0:0:0:
192,192,29862,1,0,0:0:0:0:
448,192,29862,1,0,0:0:0:0:
64,192,30240,1,0,0:0:0:0:
192,192,30240,1,0,0:0:0:0:
320,192,30240,1,0,0:0:0:0:
448,192,30240,1,0,0:0:0:0:
192,192,30335,1,0,0:0:0:0:
448,192,30335,1,0,0:0:0:0:
64,192,30429,1,0,0:0:0:0:
320,192,30429,1,0,0:0:0:0:
192,192,30429,1,0,0:0:0:0:
448,192,30524,1,0,0:0:0:0:
64,192,30524,1,0,0:0:0:0:
320,192,30619,1,0,0:0:0:0:
448,192,30619,1,0,0:0:0:0:
192,192,30619,1,0,0:0:0:0:
64,192,30619,1,0,0:0:0:0:
320,192,30713,1,0,0:0:0:0:
64,192,30713,1,0,0:0:0:0:
192,192,30807,1,0,0:0:0:0:
320,192,30807,1,0,0:0:0:0:
448,192,30807,1,0,0:0:0:0:
64,192,30901,1,0,0:0:0:0:
448,192,30901,1,0,0:0:0:0:
448,192,30997,1,0,0:0:0:0:
320,192,30997,1,0,0:0:0:0:
192,192,30997,1,0,0:0:0:0:
64,192,30997,1,0,0:0:0:0:
320,192,31091,1,0,0:0:0:0:
64,192,31091,1,0,0:0:0:0:
192,192,31185,1,0,0:0:0:0:
448,192,31185,1,0,0:0:0:0:
320,192,31185,1,0,0:0:0:0:
64,192,31280,1,0,0:0:0:0:
448,192,31280,1,0,0:0:0:0:
448,192,31374,1,0,0:0:0:0:
320,192,31374,1,0,0:0:0:0:
192,192,31374,1,0,0:0:0:0:
64,192,31374,1,0,0:0:0:0:
192,192,31469,1,0,0:0:0:0:
448,192,31469,1,0,0:0:0:0:
64,192,31563,1,0,0:0:0:0:
320,192,31563,1,0,0:0:0:0:
192,192,31563,1,0,0:0:0:0:
448,192,31658,1,0,0:0:0:0:
64,192,31658,1,0,0:0:0:0:
64,192,31752,1,0,0:0:0:0:
192,192,31752,1,0,0:0:0:0:
320,192,31752,1,0,0:0:0:0:
448,192,31752,1,0,0:0:0:0:
64,192,31846,1,0,0:0:0:0:
192,192,31846,1,0,0:0:0:0:
320,192,31846,1,0,0:0:0:0:
448,192,31941,1,0,0:0:0:0:
320,192,31941,1,0,0:0:0:0:
192,192,31941,1,0,0:0:0:0:
64,192,32036,1,0,0:0:0:0:
448,192,32036,1,0,0:0:0:0:
320,192,32036,1,0,0:0:0:0:
64,192,32130,1,0,0:0:0:0:
192,192,32130,1,0,0:0:0:0:
320,192,32130,1,0,0:0:0:0:
448,192,32130,1,0,0:0:0:0:
448,192,32224,1,0,0:0:0:0:
320,192,32224,1,0,0:0:0:0:
64,192,32224,1,0,0:0:0:0:
64,192,32319,1,0,0:0:0:0:
192,192,32319,1,0,0:0:0:0:
448,192,32319,1,0,0:0:0:0:
320,192,32414,1,0,0:0:0:0:
192,192,32414,1,0,0:0:0:0:
448,192,32414,1,0,0:0:0:0:
64,192,32508,1,0,0:0:0:0:
192,192,32508,1,0,0:0:0:0:
320,192,32508,1,0,0:0:0:0:
448,192,32508,1,0,0:0:0:0:
64,192,32602,1,0,0:0:0:0:
320,192,32602,1,0,0:0:0:0:
448,192,32602,1,0,0:0:0:0:
448,192,32697,1,0,0:0:0:0:
192,192,32697,1,0,0:0:0:0:
64,192,32697,1,0,0:0:0:0:
320,192,32791,1,0,0:0:0:0:
192,192,32791,1,0,0:0:0:0:
448,192,32886,1,0,0:0:0:0:
320,192,32886,1,0,0:0:0:0:
192,192,32886,1,0,0:0:0:0:
64,192,32886,1,0,0:0:0:0:
64,192,32980,1,0,0:0:0:0:
448,192,32980,1,0,0:0:0:0:
64,192,33075,1,0,0:0:0:0:
320,192,33075,1,0,0:0:0:0:
192,192,33075,1,0,0:0:0:0:
448,192,33169,1,0,0:0:0:0:
192,192,33169,1,0,0:0:0:0:
64,192,33263,1,0,0:0:0:0:
192,192,33263,1,0,0:0:0:0:
320,192,33263,1,0,0:0:0:0:
448,192,33263,1,0,0:0:0:0:
320,192,33359,1,0,0:0:0:0:
64,192,33359,1,0,0:0:0:0:
64,192,33453,1,0,0:0:0:0:
192,192,33453,1,0,0:0:0:0:
448,192,33453,1,0,0:0:0:0:
192,192,33547,1,0,0:0:0:0:
320,192,33547,1,0,0:0:0:0:
64,192,33641,1,0,0:0:0:0:
192,192,33641,1,0,0:0:0:0:
320,192,33641,1,0,0:0:0:0:
448,192,33641,1,0,0:0:0:0:
448,192,33736,1,0,0:0:0:0:
192,192,33736,1,0,0:0:0:0:
64,192,33831,1,0,0:0:0:0:
320,192,33831,1,0,0:0:0:0:
448,192,33831,1,0,0:0:0:0:
64,192,33925,1,0,0:0:0:0:
320,192,33925,1,0,0:0:0:0:
64,192,34020,1,0,0:0:0:0:
192,192,34020,1,0,0:0:0:0:
320,192,34020,1,0,0:0:0:0:
448,192,34020,1,0,0:0:0:0:
192,192,34114,1,0,0:0:0:0:
448,192,34114,1,0,0:0:0:0:
64,192,34208,1,0,0:0:0:0:
192,192,34208,1,0,0:0:0:0:
320,192,34208,1,0,0:0:0:0:
448,192,34303,1,0,0:0:0:0:
320,192,34303,1,0,0:0:0:0:
64,192,34398,1,0,0:0:0:0:
192,192,34398,1,0,0:0:0:0:
320,192,34398,1,0,0:0:0:0:
448,192,34398,1,0,0:0:0:0:
64,192,34492,1,0,0:0:0:0:
192,192,34492,1,0,0:0:0:0:
448,192,34586,1,0,0:0:0:0:
320,192,34586,1,0,0:0:0:0:
192,192,34586,1,0,0:0:0:0:
64,192,34680,1,0,0:0:0:0:
448,192,34680,1,0,0:0:0:0:
448,192,34776,1,0,0:0:0:0:
192,192,34776,1,0,0:0:0:0:
64,192,34776,1,0,0:0:0:0:
320,192,34776,1,0,0:0:0:0:
64,192,34870,1,0,0:0:0:0:
320,192,34870,1,0,0:0:0:0:
448,192,34870,1,0,0:0:0:0:
64,192,34964,1,0,0:0:0:0:
192,192,34964,1,0,0:0:0:0:
448,192,34964,1,0,0:0:0:0:
320,192,35059,1,0,0:0:0:0:
192,192,35059,1,0,0:0:0:0:
64,192,35059,1,0,0:0:0:0:
64,192,35153,1,0,0:0:0:0:
192,192,35153,1,0,0:0:0:0:
320,192,35153,1,0,0:0:0:0:
448,192,35153,1,0,0:0:0:0:
448,192,35248,1,0,0:0:0:0:
320,192,35248,1,0,0:0:0:0:
64,192,35248,1,0,0:0:0:0:
64,192,35342,1,0,0:0:0:0:
192,192,35342,1,0,0:0:0:0:
448,192,35342,1,0,0:0:0:0:
448,192,35437,1,0,0:0:0:0:
192,192,35437,1,0,0:0:0:0:
320,192,35437,1,0,0:0:0:0:
64,192,35531,1,0,0:0:0:0:
192,192,35531,1,0,0:0:0:0:
320,192,35531,1,0,0:0:0:0:
448,192,35531,1,0,0:0:0:0:
64,192,35625,1,0,0:0:0:0:
192,192,35625,1,0,0:0:0:0:
320,192,35625,1,0,0:0:0:0:
448,192,35720,1,0,0:0:0:0:
192,192,35720,1,0,0:0:0:0:
320,192,35720,1,0,0:0:0:0:
64,192,35815,1,0,0:0:0:0:
448,192,35815,1,0,0:0:0:0:
448,192,35909,1,0,0:0:0:0:
320,192,35909,1,0,0:0:0:0:
192,192,35909,1,0,0:0:0:0:
64,192,35909,1,0,0:0:0:0:
448,192,36003,1,0,0:0:0:0:
192,192,36003,1,0,0:0:0:0:
64,192,36098,1,0,0:0:0:0:
192,192,36098,1,0,0:0:0:0:
320,192,36098,1,0,0:0:0:0:
448,192,36193,1,0,0:0:0:0:
64,192,36193,1,0,0:0:0:0:
64,192,36287,1,0,0:0:0:0:
192,192,36287,1,0,0:0:0:0:
320,192,36287,1,0,0:0:0:0:
448,192,36287,1,0,0:0:0:0:
192,192,36381,1,0,0:0:0:0:
320,192,36381,1,0,0:0:0:0:
320,192,36476,1,0,0:0:0:0:
448,192,36476,1,0,0:0:0:0:
64,192,36476,1,0,0:0:0:0:
448,192,36570,1,0,0:0:0:0:
192,192,36570,1,0,0:0:0:0:
64,192,36665,1,0,0:0:0:0:
192,192,36665,1,0,0:0:0:0:
320,192,36665,1,0,0:0:0:0:
448,192,36665,1,0,0:0:0:0:
64,192,36760,1,0,0:0:0:0:
192,192,36760,1,0,0:0:0:0:
448,192,36854,1,0,0:0:0:0:
320,192,36854,1,0,0:0:0:0:
64,192,36854,1,0,0:0:0:0:
192,192,36948,1,0,0:0:0:0:
320,192,36948,1,0,0:0:0:0:
448,192,37042,1,0,0:0:0:0:
320,192,37042,1,0,0:0:0:0:
192,192,37042,1,0,0:0:0:0:
64,192,37042,1,0,0:0:0:0:
64,192,37138,1,0,0:0:0:0:
448,192,37138,1,0,0:0:0:0:
320,192,37232,1,0,0:0:0:0:
192,192,37232,1,0,0:0:0:0:
448,192,37232,1,0,0:0:0:0:
64,192,37326,1,0,0:0:0:0:
192,192,37326,1,0,0:0:0:0:
192,192,37420,1,0,0:0:0:0:
64,192,37420,1,0,0:0:0:0:
448,192,37420,1,0,0:0:0:0:
320,192,37420,1,0,0:0:0:0:
192,192,37515,1,0,0:0:0:0:
448,192,37515,1,0,0:0:0:0:
320,192,37610,1,0,0:0:0:0:
448,192,37610,1,0,0:0:0:0:
192,192,37610,1,0,0:0:0:0:
64,192,37704,1,0,0:0:0:0:
320,192,37704,1,0,0:0:0:0:
192,192,37799,1,0,0:0:0:0:
64,192,37799,1,0,0:0:0:0:
320,192,37799,1,0,0:0:0:0:
448,192,37799,1,0,0:0:0:0:
192,192,37893,1,0,0:0:0:0:
320,192,37893,1,0,0:0:0:0:
64,192,37987,1,0,0:0:0:0:
192,192,37987,1,0,0:0:0:0:
320,192,37987,1,0,0:0:0:0:
448,192,38082,1,0,0:0:0:0:
192,192,38082,1,0,0:0:0:0:
448,192,38177,1,0,0:0:0:0:
320,192,38177,1,0,0:0:0:0:
192,192,38177,1,0,0:0:0:0:
64,192,38177,1,0,0:0:0:0:
64,192,38271,1,0,0:0:0:0:
448,192,38271,1,0,0:0:0:0:
320,192,38365,1,0,0:0:0:0:
448,192,38365,1,0,0:0:0:0:
192,192,38365,1,0,0:0:0:0:
64,192,38460,1,0,0:0:0:0:
320,192,38460,1,0,0:0:0:0:
192,192,38555,1,0,0:0:0:0:
64,192,38555,1,0,0:0:0:0:
448,192,38555,1,0,0:0:0:0:
320,192,38555,1,0,0:0:0:0:
192,192,38649,1,0,0:0:0:0:
320,192,38649,1,0,0:0:0:0:
64,192,38743,1,0,0:0:0:0:
192,192,38743,1,0,0:0:0:0:
448,192,38743,1,0,0:0:0:0:
64,192,38838,1,0,0:0:0:0:
192,192,38838,1,0,0:0:0:0:
64,192,38932,1,0,0:0:0:0:
192,192,38932,1,0,0:0:0:0:
448,192,38932,1,0,0:0:0:0:
320,192,38932,1,0,0:0:0:0:
448,192,39027,1,0,0:0:0:0:
320,192,39027,1,0,0:0:0:0:
448,192,39121,1,0,0:0:0:0:
192,192,39121,1,0,0:0:0:0:
64,192,39121,1,0,0:0:0:0:
64,192,39216,1,0,0:0:0:0:
320,192,39216,1,0,0:0:0:0:
192,192,39310,1,0,0:0:0:0:
64,192,39310,1,0,0:0:0:0:
320,192,39310,1,0,0:0:0:0:
448,192,39310,1,0,0:0:0:0:
64,192,39404,1,0,0:0:0:0:
448,192,39404,1,0,0:0:0:0:
448,192,39500,1,0,0:0:0:0:
192,192,39500,1,0,0:0:0:0:
320,192,39500,1,0,0:0:0:0:
448,192,39594,1,0,0:0:0:0:
192,192,39594,1,0,0:0:0:0:
192,192,39688,1,0,0:0:0:0:
64,192,39688,1,0,0:0:0:0:
320,192,39688,1,0,0:0:0:0:
448,192,39688,1,0,0:0:0:0:
320,192,39782,1,0,0:0:0:0:
192,192,39782,1,0,0:0:0:0:
64,192,39877,1,0,0:0:0:0:
448,192,39877,1,0,0:0:0:0:
320,192,39877,1,0,0:0:0:0:
64,192,39972,1,0,0:0:0:0:
192,192,39972,1,0,0:0:0:0:
64,192,40066,1,0,0:0:0:0:
192,192,40066,1,0,0:0:0:0:
320,192,40066,1,0,0:0:0:0:
448,192,40066,1,0,0:0:0:0:
448,192,40160,1,0,0:0:0:0:
192,192,40160,1,0,0:0:0:0:
192,192,40255,1,0,0:0:0:0:
64,192,40255,1,0,0:0:0:0:
320,192,40255,1,0,0:0:0:0:
64,192,40349,1,0,0:0:0:0:
320,192,40349,1,0,0:0:0:0:
320,192,40444,1,0,0:0:0:0:
448,192,40444,1,0,0:0:0:0:
192,192,40444,1,0,0:0:0:0:
64,192,40444,1,0,0:0:0:0:
192,192,40539,1,0,0:0:0:0:
320,192,40539,1,0,0:0:0:0:
64,192,40633,1,0,0:0:0:0:
448,192,40633,1,0,0:0:0:0:
320,192,40633,1,0,0:0:0:0:
64,192,40727,1,0,0:0:0:0:
448,192,40727,1,0,0:0:0:0:
448,192,40821,1,0,0:0:0:0:
320,192,40821,1,0,0:0:0:0:
192,192,40821,1,0,0:0:0:0:
64,192,40821,1,0,0:0:0:0:
320,192,40917,1,0,0:0:0:0:
448,192,40917,1,0,0:0:0:0:
64,192,40917,1,0,0:0:0:0:
64,192,41011,1,0,0:0:0:0:
192,192,41011,1,0,0:0:0:0:
448,192,41011,1,0,0:0:0:0:
448,192,41105,1,0,0:0:0:0:
320,192,41105,1,0,0:0:0:0:
192,192,41105,1,0,0:0:0:0:
64,192,41200,1,0,0:0:0:0:
192,192,41200,1,0,0:0:0:0:
320,192,41200,1,0,0:0:0:0:
448,192,41200,1,0,0:0:0:0:
64,192,41294,1,0,0:0:0:0:
192,192,41294,1,0,0:0:0:0:
192,192,41389,1,0,0:0:0:0:
320,192,41389,1,0,0:0:0:0:
448,192,41389,1,0,0:0:0:0:
320,192,41483,1,0,0:0:0:0:
448,192,41483,1,0,0:0:0:0:
64,192,41578,1,0,0:0:0:0:
192,192,41578,1,0,0:0:0:0:
320,192,41578,1,0,0:0:0:0:
448,192,41578,1,0,0:0:0:0:
320,192,41672,1,0,0:0:0:0:
192,192,41672,1,0,0:0:0:0:
64,192,41672,1,0,0:0:0:0:
192,192,41766,1,0,0:0:0:0:
320,192,41766,1,0,0:0:0:0:
448,192,41766,1,0,0:0:0:0:
64,192,41861,1,0,0:0:0:0:
192,192,41861,1,0,0:0:0:0:
448,192,41861,1,0,0:0:0:0:
448,192,41956,1,0,0:0:0:0:
320,192,41956,1,0,0:0:0:0:
192,192,41956,1,0,0:0:0:0:
64,192,41956,1,0,0:0:0:0:
320,192,42050,1,0,0:0:0:0:
192,192,42050,1,0,0:0:0:0:
64,192,42050,1,0,0:0:0:0:
64,192,42144,1,0,0:0:0:0:
192,192,42144,1,0,0:0:0:0:
448,192,42144,1,0,0:0:0:0:
448,192,42239,1,0,0:0:0:0:
320,192,42239,1,0,0:0:0:0:
192,192,42239,1,0,0:0:0:0:
64,192,42334,1,0,0:0:0:0:
192,192,42334,1,0,0:0:0:0:
320,192,42334,1,0,0:0:0:0:
448,192,42334,1,0,0:0:0:0:
320,192,42428,1,0,0:0:0:0:
64,192,42428,1,0,0:0:0:0:
320,192,42522,1,0,0:0:0:0:
192,192,42522,1,0,0:0:0:0:
448,192,42617,1,0,0:0:0:0:
192,192,42617,1,0,0:0:0:0:
64,192,42711,1,0,0:0:0:0:
192,192,42711,1,0,0:0:0:0:
448,192,42711,1,0,0:0:0:0:
320,192,42711,1,0,0:0:0:0:
320,192,42805,1,0,0:0:0:0:
64,192,42805,1,0,0:0:0:0:
192,192,42900,1,0,0:0:0:0:
448,192,42900,1,0,0:0:0:0:
64,192,42995,1,0,0:0:0:0:
192,192,42995,1,0,0:0:0:0:
448,192,43089,1,0,0:0:0:0:
320,192,43089,1,0,0:0:0:0:
64,192,43089,1,0,0:0:0:0:
192,192,43183,1,0,0:0:0:0:
320,192,43183,1,0,0:0:0:0:
64,192,43278,1,0,0:0:0:0:
192,192,43278,1,0,0:0:0:0:
448,192,43373,1,0,0:0:0:0:
320,192,43373,1,0,0:0:0:0:
320,192,43467,1,0,0:0:0:0:
192,192,43467,1,0,0:0:0:0:
64,192,43467,1,0,0:0:0:0:
448,192,43561,1,0,0:0:0:0:
192,192,43561,1,0,0:0:0:0:
64,192,43656,1,0,0:0:0:0:
192,192,43656,1,0,0:0:0:0:
448,192,43750,1,0,0:0:0:0:
320,192,43750,1,0,0:0:0:0:
192,192,43845,1,0,0:0:0:0:
64,192,43845,1,0,0:0:0:0:
320,192,43845,1,0,0:0:0:0:
448,192,43845,1,0,0:0:0:0:
448,192,43940,1,0,0:0:0:0:
192,192,43940,1,0,0:0:0:0:
64,192,44034,1,0,0:0:0:0:
192,192,44034,1,0,0:0:0:0:
320,192,44128,1,0,0:0:0:0:
448,192,44128,1,0,0:0:0:0:
448,192,44222,1,0,0:0:0:0:
320,192,44222,1,0,0:0:0:0:
192,192,44222,1,0,0:0:0:0:
64,192,44222,1,0,0:0:0:0:
192,192,44318,1,0,0:0:0:0:
64,192,44318,1,0,0:0:0:0:
320,192,44412,1,0,0:0:0:0:
448,192,44412,1,0,0:0:0:0:
192,192,44506,1,0,0:0:0:0:
448,192,44506,1,0,0:0:0:0:
448,192,44600,1,0,0:0:0:0:
320,192,44600,1,0,0:0:0:0:
64,192,44600,1,0,0:0:0:0:
192,192,44695,1,0,0:0:0:0:
320,192,44695,1,0,0:0:0:0:
64,192,44790,1,0,0:0:0:0:
448,192,44790,1,0,0:0:0:0:
64,192,44884,1,0,0:0:0:0:
192,192,44884,1,0,0:0:0:0:
192,192,44979,1,0,0:0:0:0:
320,192,44979,1,0,0:0:0:0:
448,192,44979,1,0,0:0:0:0:
64,192,45073,1,0,0:0:0:0:
448,192,45073,1,0,0:0:0:0:
448,192,45167,1,0,0:0:0:0:
192,192,45167,1,0,0:0:0:0:
64,192,45262,1,0,0:0:0:0:
192,192,45262,1,0,0:0:0:0:
448,192,45357,1,0,0:0:0:0:
320,192,45357,1,0,0:0:0:0:
192,192,45357,1,0,0:0:0:0:
64,192,45357,1,0,0:0:0:0:
448,192,45451,1,0,0:0:0:0:
320,192,45451,1,0,0:0:0:0:
320,192,45545,1,0,0:0:0:0:
192,192,45545,1,0,0:0:0:0:
64,192,45640,1,0,0:0:0:0:
192,192,45640,1,0,0:0:0:0:
64,192,45735,1,0,0:0:0:0:
192,192,45735,1,0,0:0:0:0:
320,192,45735,1,0,0:0:0:0:
448,192,45735,1,0,0:0:0:0:
192,192,45829,1,0,0:0:0:0:
448,192,45829,1,0,0:0:0:0:
64,192,45923,1,0,0:0:0:0:
192,192,45923,1,0,0:0:0:0:
320,192,46018,1,0,0:0:0:0:
448,192,46018,1,0,0:0:0:0:
320,192,46112,1,0,0:0:0:0:
192,192,46112,1,0,0:0:0:0:
64,192,46112,1,0,0:0:0:0:
448,192,46207,1,0,0:0:0:0:
192,192,46207,1,0,0:0:0:0:
192,192,46301,1,0,0:0:0:0:
320,192,46301,1,0,0:0:0:0:
64,192,46396,1,0,0:0:0:0:
320,192,46396,1,0,0:0:0:0:
64,192,46490,1,0,0:0:0:0:
448,192,46490,1,0,0:0:0:0:
192,192,46490,1,0,0:0:0:0:
64,192,46584,1,0,0:0:0:0:
320,192,46584,1,0,0:0:0:0:
448,192,46680,1,0,0:0:0:0:
320,192,46680,1,0,0:0:0:0:
448,192,46774,1,0,0:0:0:0:
192,192,46774,1,0,0:0:0:0:
64,192,46868,1,0,0:0:0:0:
448,192,46868,1,0,0:0:0:0:
320,192,46868,1,0,0:0:0:0:
64,192,46962,1,0,0:0:0:0:
192,192,46962,1,0,0:0:0:0:
320,192,46962,1,0,0:0:0:0:
448,192,47057,1,0,0:0:0:0:
192,192,47057,1,0,0:0:0:0:
64,192,47057,1,0,0:0:0:0:
320,192,47152,1,0,0:0:0:0:
448,192,47152,1,0,0:0:0:0:
64,192,47152,1,0,0:0:0:0:
448,192,47246,1,0,0:0:0:0:
192,192,47246,1,0,0:0:0:0:
320,192,47246,1,0,0:0:0:0:
64,192,47340,1,0,0:0:0:0:
320,192,47340,1,0,0:0:0:0:
192,192,47435,1,0,0:0:0:0:
320,192,47435,1,0,0:0:0:0:
64,192,47529,1,0,0:0:0:0:
448,192,47529,1,0,0:0:0:0:
64,192,47624,1,0,0:0:0:0:
192,192,47624,1,0,0:0:0:0:
320,192,47624,1,0,0:0:0:0:
448,192,47624,1,0,0:0:0:0:
64,192,47719,1,0,0:0:0:0:
192,192,47719,1,0,0:0:0:0:
320,192,47813,1,0,0:0:0:0:
448,192,47813,1,0,0:0:0:0:
64,192,47907,1,0,0:0:0:0:
448,192,47907,1,0,0:0:0:0:
64,192,48001,1,0,0:0:0:0:
192,192,48001,1,0,0:0:0:0:
320,192,48001,1,0,0:0:0:0:
192,192,48097,1,0,0:0:0:0:
448,192,48097,1,0,0:0:0:0:
64,192,48191,1,0,0:0:0:0:
320,192,48191,1,0,0:0:0:0:
448,192,48285,1,0,0:0:0:0:
320,192,48285,1,0,0:0:0:0:
192,192,48380,1,0,0:0:0:0:
64,192,48380,1,0,0:0:0:0:
448,192,48380,1,0,0:0:0:0:
320,192,48380,1,0,0:0:0:0:
192,192,48474,1,0,0:0:0:0:
64,192,48474,1,0,0:0:0:0:
64,192,48569,1,0,0:0:0:0:
448,192,48569,1,0,0:0:0:0:
192,192,48663,1,0,0:0:0:0:
320,192,48663,1,0,0:0:0:0:
64,192,48758,1,0,0:0:0:0:
192,192,48758,1,0,0:0:0:0:
320,192,48758,1,0,0:0:0:0:
448,192,48758,1,0,0:0:0:0:
64,192,48852,1,0,0:0:0:0:
192,192,48852,1,0,0:0:0:0:
448,192,48946,1,0,0:0:0:0:
64,192,48946,1,0,0:0:0:0:
320,192,49041,1,0,0:0:0:0:
192,192,49041,1,0,0:0:0:0:
64,192,49136,1,0,0:0:0:0:
192,192,49136,1,0,0:0:0:0:
448,192,49136,1,0,0:0:0:0:
448,192,49230,1,0,0:0:0:0:
320,192,49230,1,0,0:0:0:0:
64,192,49324,1,0,0:0:0:0:
192,192,49324,1,0,0:0:0:0:
448,192,49419,1,0,0:0:0:0:
192,192,49419,1,0,0:0:0:0:
64,192,49514,1,0,0:0:0:0:
448,192,49514,1,0,0:0:0:0:
320,192,49514,1,0,0:0:0:0:
64,192,49608,1,0,0:0:0:0:
192,192,49608,1,0,0:0:0:0:
448,192,49702,1,0,0:0:0:0:
320,192,49702,1,0,0:0:0:0:
64,192,49797,1,0,0:0:0:0:
448,192,49797,1,0,0:0:0:0:
320,192,49891,1,0,0:0:0:0:
192,192,49891,1,0,0:0:0:0:
64,192,49891,1,0,0:0:0:0:
448,192,49891,1,0,0:0:0:0:
192,192,49986,1,0,0:0:0:0:
320,192,49986,1,0,0:0:0:0:
448,192,50080,1,0,0:0:0:0:
192,192,50080,1,0,0:0:0:0:
64,192,50175,1,0,0:0:0:0:
320,192,50175,1,0,0:0:0:0:
448,192,50269,1,0,0:0:0:0:
320,192,50269,1,0,0:0:0:0:
192,192,50269,1,0,0:0:0:0:
64,192,50269,1,0,0:0:0:0:
192,192,50363,1,0,0:0:0:0:
448,192,50363,1,0,0:0:0:0:
320,192,50459,1,0,0:0:0:0:
192,192,50459,1,0,0:0:0:0:
64,192,50553,1,0,0:0:0:0:
448,192,50553,1,0,0:0:0:0:
192,192,50647,1,0,0:0:0:0:
320,192,50647,1,0,0:0:0:0:
448,192,50647,1,0,0:0:0:0:
64,192,50741,1,0,0:0:0:0:
320,192,50741,1,0,0:0:0:0:
192,192,50836,1,0,0:0:0:0:
320,192,50836,1,0,0:0:0:0:
448,192,50931,1,0,0:0:0:0:
192,192,50931,1,0,0:0:0:0:
64,192,51025,1,0,0:0:0:0:
448,192,51025,1,0,0:0:0:0:
320,192,51025,1,0,0:0:0:0:
192,192,51120,1,0,0:0:0:0:
320,192,51120,1,0,0:0:0:0:
64,192,51214,1,0,0:0:0:0:
448,192,51214,1,0,0:0:0:0:
448,192,51308,1,0,0:0:0:0:
320,192,51308,1,0,0:0:0:0:
192,192,51403,1,0,0:0:0:0:
64,192,51403,1,0,0:0:0:0:
320,192,51403,1,0,0:0:0:0:
448,192,51403,1,0,0:0:0:0:
64,192,51498,1,0,0:0:0:0:
192,192,51498,1,0,0:0:0:0:
64,192,51592,1,0,0:0:0:0:
320,192,51592,1,0,0:0:0:0:
448,192,51686,1,0,0:0:0:0:
192,192,51686,1,0,0:0:0:0:
448,192,51780,1,0,0:0:0:0:
320,192,51780,1,0,0:0:0:0:
192,192,51780,1,0,0:0:0:0:
64,192,51780,1,0,0:0:0:0:
448,192,51876,1,0,0:0:0:0:
64,192,51876,1,0,0:0:0:0:
192,192,51970,1,0,0:0:0:0:
320,192,51970,1,0,0:0:0:0:
64,192,52064,1,0,0:0:0:0:
320,192,52064,1,0,0:0:0:0:
448,192,52159,1,0,0:0:0:0:
192,192,52159,1,0,0:0:0:0:
320,192,52159,1,0,0:0:0:0:
64,192,52253,1,0,0:0:0:0:
448,192,52253,1,0,0:0:0:0:
320,192,52348,1,0,0:0:0:0:
448,192,52348,1,0,0:0:0:0:
192,192,52442,1,0,0:0:0:0:
64,192,52442,1,0,0:0:0:0:
64,192,52537,1,0,0:0:0:0:
448,192,52537,1,0,0:0:0:0:
320,192,52537,1,0,0:0:0:0:
192,192,52631,1,0,0:0:0:0:
320,192,52631,1,0,0:0:0:0:
64,192,52725,1,0,0:0:0:0:
320,192,52725,1,0,0:0:0:0:
448,192,52820,1,0,0:0:0:0:
192,192,52820,1,0,0:0:0:0:
64,192,52915,1,0,0:0:0:0:
320,192,52915,1,0,0:0:0:0:
448,192,52915,1,0,0:0:0:0:
192,192,53009,1,0,0:0:0:0:
64,192,53009,1,0,0:0:0:0:
192,192,53103,1,0,0:0:0:0:
320,192,53103,1,0,0:0:0:0:
448,192,53198,1,0,0:0:0:0:
192,192,53198,1,0,0:0:0:0:
320,192,53293,1,0,0:0:0:0:
64,192,53293,1,0,0:0:0:0:
64,192,53387,1,0,0:0:0:0:
448,192,53387,1,0,0:0:0:0:
320,192,53481,1,0,0:0:0:0:
192,192,53481,1,0,0:0:0:0:
320,192,53576,1,0,0:0:0:0:
64,192,53576,1,0,0:0:0:0:
192,192,53670,1,0,0:0:0:0:
448,192,53670,1,0,0:0:0:0:
320,192,53765,1,0,0:0:0:0:
192,192,53765,1,0,0:0:0:0:
64,192,53860,1,0,0:0:0:0:
448,192,53860,1,0,0:0:0:0:
192,192,53954,1,0,0:0:0:0:
64,192,53954,1,0,0:0:0:0:
448,192,54048,1,0,0:0:0:0:
320,192,54048,1,0,0:0:0:0:
64,192,54142,1,0,0:0:0:0:
320,192,54142,1,0,0:0:0:0:
448,192,54238,1,0,0:0:0:0:
192,192,54238,1,0,0:0:0:0:
192,192,54332,1,0,0:0:0:0:
64,192,54332,1,0,0:0:0:0:
320,192,54426,1,0,0:0:0:0:
448,192,54426,1,0,0:0:0:0:
64,192,54426,1,0,0:0:0:0:
320,192,54615,1,0,0:0:0:0:
320,192,54804,1,0,0:0:0:0:
192,192,54804,1,0,0:0:0:0:
448,192,54804,1,0,0:0:0:0:
64,192,54899,1,0,0:0:0:0:
320,192,54993,1,0,0:0:0:0:
64,192,55182,1,0,0:0:0:0:
320,192,55182,1,0,0:0:0:0:
448,192,55182,1,0,0:0:0:0:
448,192,55371,1,0,0:0:0:0:
320,192,55560,1,0,0:0:0:0:
192,192,55560,1,0,0:0:0:0:
64,192,55560,1,0,0:0:0:0:
64,192,55749,1,0,0:0:0:0:
192,192,55938,1,0,0:0:0:0:
320,192,55938,1,0,0:0:0:0:
448,192,55938,1,0,0:0:0:0:
320,192,56127,1,0,0:0:0:0:
320,192,56316,1,0,0:0:0:0:
448,192,56316,1,0,0:0:0:0:
64,192,56316,1,0,0:0:0:0:
192,192,56410,1,0,0:0:0:0:
448,192,56504,1,0,0:0:0:0:
320,192,56694,1,0,0:0:0:0:
192,192,56694,1,0,0:0:0:0:
64,192,56694,1,0,0:0:0:0:
64,192,56882,1,0,0:0:0:0:
320,192,57072,1,0,0:0:0:0:
448,192,57072,1,0,0:0:0:0:
64,192,57072,1,0,0:0:0:0:
320,192,57260,1,0,0:0:0:0:
448,192,57449,1,0,0:0:0:0:
192,192,57449,1,0,0:0:0:0:
64,192,57449,1,0,0:0:0:0:
320,192,57544,1,0,0:0:0:0:
320,192,57639,1,0,0:0:0:0:
192,192,57639,1,0,0:0:0:0:
64,192,57639,1,0,0:0:0:0:
448,192,57733,1,0,0:0:0:0:
192,192,57827,1,0,0:0:0:0:
320,192,57827,1,0,0:0:0:0:
448,192,57827,1,0,0:0:0:0:
64,192,57921,1,0,0:0:0:0:
192,192,58017,1,0,0:0:0:0:
448,192,58017,1,0,0:0:0:0:
64,192,58017,1,0,0:0:0:0:
320,192,58111,1,0,0:0:0:0:
448,192,58205,1,0,0:0:0:0:
320,192,58205,1,0,0:0:0:0:
64,192,58205,1,0,0:0:0:0:
192,192,58300,1,0,0:0:0:0:
64,192,58394,1,0,0:0:0:0:
192,192,58394,1,0,0:0:0:0:
448,192,58394,1,0,0:0:0:0:
320,192,58489,1,0,0:0:0:0:
320,192,58583,1,0,0:0:0:0:
192,192,58583,1,0,0:0:0:0:
64,192,58583,1,0,0:0:0:0:
448,192,58678,1,0,0:0:0:0:
448,192,58772,1,0,0:0:0:0:
192,192,58772,1,0,0:0:0:0:
64,192,58772,1,0,0:0:0:0:
320,192,58866,1,0,0:0:0:0:
448,192,58961,1,0,0:0:0:0:
320,192,58961,1,0,0:0:0:0:
192,192,58961,1,0,0:0:0:0:
192,192,59150,1,0,0:0:0:0:
448,192,59339,1,0,0:0:0:0:
320,192,59339,1,0,0:0:0:0:
64,192,59339,1,0,0:0:0:0:
64,192,59528,128,0,59552:0:0:0:0:
192,192,59622,128,0,59646:0:0:0:0:
64,192,59717,128,0,59906:0:0:0:0:
320,192,59717,128,0,59906:0:0:0:0:
448,192,59717,128,0,60000:0:0:0:0:
320,192,60000,128,0,60283:0:0:0:0:
192,192,60000,128,0,60283:0:0:0:0:
64,192,60000,128,0,60283:0:0:0:0:
192,192,60473,1,0,0:0:0:0:
320,192,60473,1,0,0:0:0:0:
448,192,60473,1,0,0:0:0:0:
64,192,60661,1,0,0:0:0:0:
64,192,60851,1,0,0:0:0:0:
192,192,60851,1,0,0:0:0:0:
320,192,60851,1,0,0:0:0:0:
448,192,60945,1,0,0:0:0:0:
192,192,61040,1,0,0:0:0:0:
64,192,61228,1,0,0:0:0:0:
448,192,61228,1,0,0:0:0:0:
320,192,61228,1,0,0:0:0:0:
448,192,61418,1,0,0:0:0:0:
320,192,61606,1,0,0:0:0:0:
192,192,61606,1,0,0:0:0:0:
64,192,61606,1,0,0:0:0:0:
192,192,61796,1,0,0:0:0:0:
320,192,61984,1,0,0:0:0:0:
448,192,61984,1,0,0:0:0:0:
192,192,61984,1,0,0:0:0:0:
64,192,62173,1,0,0:0:0:0:
64,192,62362,1,0,0:0:0:0:
192,192,62362,1,0,0:0:0:0:
448,192,62362,1,0,0:0:0:0:
320,192,62457,1,0,0:0:0:0:
192,192,62551,1,0,0:0:0:0:
320,192,62740,1,0,0:0:0:0:
448,192,62740,1,0,0:0:0:0:
64,192,62740,1,0,0:0:0:0:
448,192,62929,1,0,0:0:0:0:
320,192,63118,1,0,0:0:0:0:
192,192,63118,1,0,0:0:0:0:
64,192,63118,1,0,0:0:0:0:
64,192,63307,1,0,0:0:0:0:
192,192,63496,1,0,0:0:0:0:
320,192,63496,1,0,0:0:0:0:
448,192,63496,1,0,0:0:0:0:
64,192,63590,1,0,0:0:0:0:
448,192,63685,1,0,0:0:0:0:
64,192,63685,1,0,0:0:0:0:
192,192,63685,1,0,0:0:0:0:
320,192,63780,1,0,0:0:0:0:
192,192,63874,1,0,0:0:0:0:
320,192,63874,1,0,0:0:0:0:
448,192,63874,1,0,0:0:0:0:
64,192,63968,1,0,0:0:0:0:
64,192,64062,1,0,0:0:0:0:
320,192,64062,1,0,0:0:0:0:
448,192,64062,1,0,0:0:0:0:
192,192,64157,1,0,0:0:0:0:
64,192,64252,1,0,0:0:0:0:
192,192,64252,1,0,0:0:0:0:
320,192,64252,1,0,0:0:0:0:
448,192,64346,1,0,0:0:0:0:
320,192,64440,1,0,0:0:0:0:
448,192,64440,1,0,0:0:0:0:
64,192,64440,1,0,0:0:0:0:
192,192,64535,1,0,0:0:0:0:
192,192,64629,1,0,0:0:0:0:
320,192,64629,1,0,0:0:0:0:
448,192,64629,1,0,0:0:0:0:
64,192,64724,1,0,0:0:0:0:
64,192,64819,1,0,0:0:0:0:
448,192,64819,1,0,0:0:0:0:
320,192,64819,1,0,0:0:0:0:
192,192,64913,1,0,0:0:0:0:
64,192,65007,1,0,0:0:0:0:
192,192,65007,1,0,0:0:0:0:
320,192,65007,128,0,65385:0:0:0:0:
64,192,65385,1,0,0:0:0:0:
448,192,65385,1,0,0:0:0:0:
192,192,65574,128,0,65952:0:0:0:0:
320,192,65574,1,0,0:0:0:0:
64,192,65952,1,0,0:0:0:0:
448,192,65952,1,0,0:0:0:0:
192,192,66141,1,0,0:0:0:0:
320,192,66141,1,0,0:0:0:0:
64,192,66330,1,0,0:0:0:0:
448,192,66330,1,0,0:0:0:0:
192,192,66519,1,0,0:0:0:0:
320,192,66519,1,0,0:0:0:0:
448,192,66519,1,0,0:0:0:0:
64,192,66519,128,0,66708:0:0:0:0:
448,192,66897,128,0,67086:0:0:0:0:
192,192,66897,1,0,0:0:0:0:
320,192,66897,1,0,0:0:0:0:
64,192,66897,1,0,0:0:0:0:
448,192,67180,128,0,67369:0:0:0:0:
192,192,67275,1,0,0:0:0:0:
64,192,67275,1,0,0:0:0:0:
448,192,67463,128,0,67653:0:0:0:0:
320,192,67653,1,0,0:0:0:0:
192,192,67653,1,0,0:0:0:0:
64,192,67653,1,0,0:0:0:0:
448,192,67747,128,0,67936:0:0:0:0:
320,192,68031,128,0,68220:0:0:0:0:
448,192,68031,1,0,0:0:0:0:
64,192,68031,1,0,0:0:0:0:
192,192,68408,128,0,68598:0:0:0:0:
64,192,68408,1,0,0:0:0:0:
320,192,68408,1,0,0:0:0:0:
448,192,68408,1,0,0:0:0:0:
192,192,68692,128,0,68880:0:0:0:0:
320,192,68786,1,0,0:0:0:0:
64,192,68786,1,0,0:0:0:0:
192,192,68976,128,0,69164:0:0:0:0:
320,192,69164,1,0,0:0:0:0:
448,192,69164,1,0,0:0:0:0:
64,192,69164,1,0,0:0:0:0:
192,192,69259,128,0,69448:0:0:0:0:
448,192,69542,128,0,69731:0:0:0:0:
320,192,69542,1,0,0:0:0:0:
64,192,69542,1,0,0:0:0:0:
64,192,69920,128,0,70109:0:0:0:0:
192,192,69920,1,0,0:0:0:0:
320,192,69920,1,0,0:0:0:0:
448,192,69920,1,0,0:0:0:0:
64,192,70203,128,0,70393:0:0:0:0:
320,192,70298,1,0,0:0:0:0:
192,192,70298,1,0,0:0:0:0:
64,192,70487,128,0,70676:0:0:0:0:
192,192,70676,1,0,0:0:0:0:
320,192,70676,1,0,0:0:0:0:
448,192,70676,1,0,0:0:0:0:
64,192,70770,128,0,70960:0:0:0:0:
192,192,71054,128,0,71242:0:0:0:0:
320,192,71054,1,0,0:0:0:0:
448,192,71054,1,0,0:0:0:0:
320,192,71432,128,0,71620:0:0:0:0:
448,192,71432,1,0,0:0:0:0:
64,192,71432,1,0,0:0:0:0:
192,192,71432,1,0,0:0:0:0:
320,192,71715,128,0,71904:0:0:0:0:
192,192,71810,1,0,0:0:0:0:
64,192,71810,1,0,0:0:0:0:
320,192,71999,128,0,72187:0:0:0:0:
448,192,72187,1,0,0:0:0:0:
192,192,72187,1,0,0:0:0:0:
64,192,72187,1,0,0:0:0:0:
320,192,72282,128,0,72471:0:0:0:0:
448,192,72565,128,0,72755:0:0:0:0:
64,192,72565,1,0,0:0:0:0:
192,192,72565,1,0,0:0:0:0:
192,192,72943,128,0,73132:0:0:0:0:
448,192,72943,1,0,0:0:0:0:
320,192,72943,1,0,0:0:0:0:
64,192,72943,1,0,0:0:0:0:
192,192,73227,128,0,73416:0:0:0:0:
64,192,73321,1,0,0:0:0:0:
448,192,73321,1,0,0:0:0:0:
192,192,73510,128,0,73700:0:0:0:0:
448,192,73700,1,0,0:0:0:0:
320,192,73700,1,0,0:0:0:0:
64,192,73700,1,0,0:0:0:0:
192,192,73794,128,0,73982:0:0:0:0:
448,192,74077,128,0,74266:0:0:0:0:
320,192,74077,1,0,0:0:0:0:
64,192,74077,1,0,0:0:0:0:
64,192,74455,128,0,74644:0:0:0:0:
192,192,74455,1,0,0:0:0:0:
320,192,74455,1,0,0:0:0:0:
448,192,74455,1,0,0:0:0:0:
64,192,74739,128,0,74927:0:0:0:0:
192,192,74833,1,0,0:0:0:0:
320,192,74833,1,0,0:0:0:0:
64,192,75021,128,0,75211:0:0:0:0:
192,192,75211,1,0,0:0:0:0:
448,192,75211,1,0,0:0:0:0:
320,192,75211,1,0,0:0:0:0:
64,192,75305,128,0,75494:0:0:0:0:
192,192,75589,128,0,75778:0:0:0:0:
320,192,75589,1,0,0:0:0:0:
448,192,75589,1,0,0:0:0:0:
448,192,75966,128,0,76156:0:0:0:0:
320,192,75966,1,0,0:0:0:0:
64,192,75966,1,0,0:0:0:0:
448,192,76250,128,0,76439:0:0:0:0:
64,192,76344,1,0,0:0:0:0:
192,192,76344,1,0,0:0:0:0:
320,192,76344,1,0,0:0:0:0:
448,192,76534,128,0,76722:0:0:0:0:
64,192,76722,1,0,0:0:0:0:
320,192,76722,1,0,0:0:0:0:
448,192,76817,128,0,77006:0:0:0:0:
192,192,77100,1,0,0:0:0:0:
64,192,77100,1,0,0:0:0:0:
320,192,77100,1,0,0:0:0:0:
448,192,77479,1,0,0:0:0:0:
320,192,77479,1,0,0:0:0:0:
192,192,77479,1,0,0:0:0:0:
64,192,77856,1,0,0:0:0:0:
192,192,77856,1,0,0:0:0:0:
448,192,77856,1,0,0:0:0:0:
448,192,78234,1,0,0:0:0:0:
320,192,78234,1,0,0:0:0:0:
64,192,78234,1,0,0:0:0:0:
64,192,78612,1,0,0:0:0:0:
192,192,78612,1,0,0:0:0:0:
320,192,78612,1,0,0:0:0:0:
448,192,78612,1,0,0:0:0:0:
64,192,78990,1,0,0:0:0:0:
320,192,78990,1,0,0:0:0:0:
192,192,79368,1,0,0:0:0:0:
320,192,79368,1,0,0:0:0:0:
448,192,79368,1,0,0:0:0:0:
64,192,79557,1,0,0:0:0:0:
448,192,79557,1,0,0:0:0:0:
64,192,79745,1,0,0:0:0:0:
192,192,79745,1,0,0:0:0:0:
320,192,79745,1,0,0:0:0:0:
448,192,79935,1,0,0:0:0:0:
320,192,79935,1,0,0:0:0:0:
64,192,80123,1,0,0:0:0:0:
192,192,80123,1,0,0:0:0:0:
320,192,80123,1,0,0:0:0:0:
448,192,80123,1,0,0:0:0:0:
192,192,80218,1,0,0:0:0:0:
320,192,80218,1,0,0:0:0:0:
64,192,80218,1,0,0:0:0:0:
64,192,80313,1,0,0:0:0:0:
192,192,80313,1,0,0:0:0:0:
448,192,80313,1,0,0:0:0:0:
448,192,80407,1,0,0:0:0:0:
320,192,80407,1,0,0:0:0:0:
192,192,80407,1,0,0:0:0:0:
64,192,80501,1,0,0:0:0:0:
192,192,80501,1,0,0:0:0:0:
320,192,80501,1,0,0:0:0:0:
448,192,80501,1,0,0:0:0:0:
64,192,80596,1,0,0:0:0:0:
320,192,80596,1,0,0:0:0:0:
448,192,80596,1,0,0:0:0:0:
448,192,80690,1,0,0:0:0:0:
64,192,80690,1,0,0:0:0:0:
192,192,80690,1,0,0:0:0:0:
192,192,80785,1,0,0:0:0:0:
448,192,80785,1,0,0:0:0:0:
320,192,80785,1,0,0:0:0:0:
448,192,80880,1,0,0:0:0:0:
320,192,80880,1,0,0:0:0:0:
192,192,80880,1,0,0:0:0:0:
64,192,80880,1,0,0:0:0:0:
64,192,80974,1,0,0:0:0:0:
192,192,80974,1,0,0:0:0:0:
448,192,80974,1,0,0:0:0:0:
448,192,81068,1,0,0:0:0:0:
320,192,81068,1,0,0:0:0:0:
192,192,81068,1,0,0:0:0:0:
64,192,81162,1,0,0:0:0:0:
192,192,81162,1,0,0:0:0:0:
320,192,81162,1,0,0:0:0:0:
448,192,81258,1,0,0:0:0:0:
320,192,81258,1,0,0:0:0:0:
192,192,81258,1,0,0:0:0:0:
64,192,81258,1,0,0:0:0:0:
448,192,81352,1,0,0:0:0:0:
192,192,81352,1,0,0:0:0:0:
64,192,81352,1,0,0:0:0:0:
320,192,81446,1,0,0:0:0:0:
448,192,81446,1,0,0:0:0:0:
64,192,81446,1,0,0:0:0:0:
192,192,81540,1,0,0:0:0:0:
320,192,81540,1,0,0:0:0:0:
448,192,81635,1,0,0:0:0:0:
320,192,81635,1,0,0:0:0:0:
192,192,81635,1,0,0:0:0:0:
64,192,81635,1,0,0:0:0:0:
64,192,81730,1,0,0:0:0:0:
320,192,81730,1,0,0:0:0:0:
448,192,81824,1,0,0:0:0:0:
192,192,81824,1,0,0:0:0:0:
64,192,81824,1,0,0:0:0:0:
192,192,81919,1,0,0:0:0:0:
320,192,81919,1,0,0:0:0:0:
320,192,82013,1,0,0:0:0:0:
192,192,82013,1,0,0:0:0:0:
64,192,82013,1,0,0:0:0:0:
448,192,82013,1,0,0:0:0:0:
448,192,82107,1,0,0:0:0:0:
64,192,82107,1,0,0:0:0:0:
192,192,82202,1,0,0:0:0:0:
320,192,82202,1,0,0:0:0:0:
448,192,82202,1,0,0:0:0:0:
192,192,82297,1,0,0:0:0:0:
64,192,82297,1,0,0:0:0:0:
64,192,82391,1,0,0:0:0:0:
192,192,82391,1,0,0:0:0:0:
320,192,82391,1,0,0:0:0:0:
448,192,82391,1,0,0:0:0:0:
448,192,82485,1,0,0:0:0:0:
192,192,82485,1,0,0:0:0:0:
64,192,82580,1,0,0:0:0:0:
320,192,82580,1,0,0:0:0:0:
192,192,82580,1,0,0:0:0:0:
64,192,82675,1,0,0:0:0:0:
448,192,82675,1,0,0:0:0:0:
448,192,82769,1,0,0:0:0:0:
320,192,82769,1,0,0:0:0:0:
192,192,82769,1,0,0:0:0:0:
64,192,82769,1,0,0:0:0:0:
192,192,82863,1,0,0:0:0:0:
320,192,82863,1,0,0:0:0:0:
448,192,82958,1,0,0:0:0:0:
320,192,82958,1,0,0:0:0:0:
64,192,82958,1,0,0:0:0:0:
192,192,83052,1,0,0:0:0:0:
64,192,83052,1,0,0:0:0:0:
448,192,83147,1,0,0:0:0:0:
320,192,83147,1,0,0:0:0:0:
192,192,83147,1,0,0:0:0:0:
64,192,83147,1,0,0:0:0:0:
192,192,83241,1,0,0:0:0:0:
320,192,83241,1,0,0:0:0:0:
448,192,83241,1,0,0:0:0:0:
64,192,83336,1,0,0:0:0:0:
320,192,83336,1,0,0:0:0:0:
448,192,83336,1,0,0:0:0:0:
64,192,83430,1,0,0:0:0:0:
192,192,83430,1,0,0:0:0:0:
448,192,83430,1,0,0:0:0:0:
320,192,83524,1,0,0:0:0:0:
448,192,83524,1,0,0:0:0:0:
64,192,83524,1,0,0:0:0:0:
192,192,83524,1,0,0:0:0:0:
320,192,83620,1,0,0:0:0:0:
192,192,83620,1,0,0:0:0:0:
64,192,83620,1,0,0:0:0:0:
448,192,83714,1,0,0:0:0:0:
192,192,83714,1,0,0:0:0:0:
320,192,83714,1,0,0:0:0:0:
64,192,83808,1,0,0:0:0:0:
192,192,83808,1,0,0:0:0:0:
448,192,83808,1,0,0:0:0:0:
448,192,83902,1,0,0:0:0:0:
320,192,83902,1,0,0:0:0:0:
192,192,83902,1,0,0:0:0:0:
64,192,83902,1,0,0:0:0:0:
320,192,83997,1,0,0:0:0:0:
192,192,83997,1,0,0:0:0:0:
64,192,83997,1,0,0:0:0:0:
448,192,84092,1,0,0:0:0:0:
192,192,84092,1,0,0:0:0:0:
64,192,84092,1,0,0:0:0:0:
320,192,84186,1,0,0:0:0:0:
448,192,84186,1,0,0:0:0:0:
64,192,84280,1,0,0:0:0:0:
192,192,84280,1,0,0:0:0:0:
320,192,84280,1,0,0:0:0:0:
448,192,84280,1,0,0:0:0:0:
64,192,84375,1,0,0:0:0:0:
192,192,84375,1,0,0:0:0:0:
448,192,84469,1,0,0:0:0:0:
320,192,84469,1,0,0:0:0:0:
192,192,84469,1,0,0:0:0:0:
64,192,84564,1,0,0:0:0:0:
320,192,84564,1,0,0:0:0:0:
448,192,84659,1,0,0:0:0:0:
320,192,84659,1,0,0:0:0:0:
64,192,84659,1,0,0:0:0:0:
192,192,84659,1,0,0:0:0:0:
192,192,84753,1,0,0:0:0:0:
448,192,84753,1,0,0:0:0:0:
320,192,84847,1,0,0:0:0:0:
192,192,84847,1,0,0:0:0:0:
64,192,84847,1,0,0:0:0:0:
448,192,84941,1,0,0:0:0:0:
64,192,84941,1,0,0:0:0:0:
192,192,85037,1,0,0:0:0:0:
320,192,85037,1,0,0:0:0:0:
448,192,85037,1,0,0:0:0:0:
64,192,85037,1,0,0:0:0:0:
448,192,85131,1,0,0:0:0:0:
320,192,85131,1,0,0:0:0:0:
64,192,85225,1,0,0:0:0:0:
192,192,85225,1,0,0:0:0:0:
320,192,85225,1,0,0:0:0:0:
64,192,85320,1,0,0:0:0:0:
192,192,85320,1,0,0:0:0:0:
448,192,85414,1,0,0:0:0:0:
320,192,85414,1,0,0:0:0:0:
192,192,85414,1,0,0:0:0:0:
64,192,85414,1,0,0:0:0:0:
64,192,85509,1,0,0:0:0:0:
320,192,85509,1,0,0:0:0:0:
448,192,85603,1,0,0:0:0:0:
320,192,85603,1,0,0:0:0:0:
192,192,85603,1,0,0:0:0:0:
192,192,85698,1,0,0:0:0:0:
320,192,85698,1,0,0:0:0:0:
448,192,85792,1,0,0:0:0:0:
320,192,85792,1,0,0:0:0:0:
192,192,85792,1,0,0:0:0:0:
64,192,85792,1,0,0:0:0:0:
64,192,85886,1,0,0:0:0:0:
448,192,85886,1,0,0:0:0:0:
64,192,85980,1,0,0:0:0:0:
192,192,85980,1,0,0:0:0:0:
320,192,85980,1,0,0:0:0:0:
192,192,86076,1,0,0:0:0:0:
448,192,86076,1,0,0:0:0:0:
448,192,86170,1,0,0:0:0:0:
320,192,86170,1,0,0:0:0:0:
64,192,86170,1,0,0:0:0:0:
192,192,86170,1,0,0:0:0:0:
64,192,86264,1,0,0:0:0:0:
192,192,86264,1,0,0:0:0:0:
448,192,86359,1,0,0:0:0:0:
192,192,86359,1,0,0:0:0:0:
320,192,86359,1,0,0:0:0:0:
448,192,86453,1,0,0:0:0:0:
320,192,86453,1,0,0:0:0:0:
64,192,86548,1,0,0:0:0:0:
192,192,86548,1,0,0:0:0:0:
320,192,86548,1,0,0:0:0:0:
448,192,86548,1,0,0:0:0:0:
320,192,86642,1,0,0:0:0:0:
64,192,86642,1,0,0:0:0:0:
192,192,86737,1,0,0:0:0:0:
320,192,86737,1,0,0:0:0:0:
64,192,86737,1,0,0:0:0:0:
448,192,86831,1,0,0:0:0:0:
192,192,86831,1,0,0:0:0:0:
448,192,86925,1,0,0:0:0:0:
320,192,86925,1,0,0:0:0:0:
192,192,86925,1,0,0:0:0:0:
64,192,86925,1,0,0:0:0:0:
192,192,87020,1,0,0:0:0:0:
448,192,87020,1,0,0:0:0:0:
192,192,87115,1,0,0:0:0:0:
64,192,87115,1,0,0:0:0:0:
320,192,87115,1,0,0:0:0:0:
64,192,87209,1,0,0:0:0:0:
192,192,87209,1,0,0:0:0:0:
64,192,87303,1,0,0:0:0:0:
192,192,87303,1,0,0:0:0:0:
320,192,87303,1,0,0:0:0:0:
448,192,87303,1,0,0:0:0:0:
320,192,87398,1,0,0:0:0:0:
448,192,87398,1,0,0:0:0:0:
448,192,87493,1,0,0:0:0:0:
320,192,87493,1,0,0:0:0:0:
64,192,87493,1,0,0:0:0:0:
192,192,87587,1,0,0:0:0:0:
320,192,87587,1,0,0:0:0:0:
448,192,87681,1,0,0:0:0:0:
320,192,87681,1,0,0:0:0:0:
192,192,87681,1,0,0:0:0:0:
64,192,87681,1,0,0:0:0:0:
448,192,87776,1,0,0:0:0:0:
64,192,87776,1,0,0:0:0:0:
448,192,87870,1,0,0:0:0:0:
64,192,87870,1,0,0:0:0:0:
192,192,87870,1,0,0:0:0:0:
320,192,87965,1,0,0:0:0:0:
64,192,87965,1,0,0:0:0:0:
448,192,88060,1,0,0:0:0:0:
320,192,88060,1,0,0:0:0:0:
192,192,88060,1,0,0:0:0:0:
64,192,88060,1,0,0:0:0:0:
448,192,88154,1,0,0:0:0:0:
320,192,88154,1,0,0:0:0:0:
192,192,88248,1,0,0:0:0:0:
64,192,88248,1,0,0:0:0:0:
448,192,88248,1,0,0:0:0:0:
64,192,88342,1,0,0:0:0:0:
320,192,88342,1,0,0:0:0:0:
320,192,88438,1,0,0:0:0:0:
448,192,88438,1,0,0:0:0:0:
64,192,88438,1,0,0:0:0:0:
192,192,88438,1,0,0:0:0:0:
192,192,88532,1,0,0:0:0:0:
448,192,88532,1,0,0:0:0:0:
448,192,88626,1,0,0:0:0:0:
320,192,88626,1,0,0:0:0:0:
192,192,88626,1,0,0:0:0:0:
64,192,88720,1,0,0:0:0:0:
192,192,88720,1,0,0:0:0:0:
64,192,88815,1,0,0:0:0:0:
192,192,88815,1,0,0:0:0:0:
320,192,88815,1,0,0:0:0:0:
448,192,88815,1,0,0:0:0:0:
64,192,88910,1,0,0:0:0:0:
320,192,88910,1,0,0:0:0:0:
448,192,89004,1,0,0:0:0:0:
320,192,89004,1,0,0:0:0:0:
192,192,89004,1,0,0:0:0:0:
64,192,89099,1,0,0:0:0:0:
192,192,89099,1,0,0:0:0:0:
448,192,89193,1,0,0:0:0:0:
320,192,89193,1,0,0:0:0:0:
64,192,89193,1,0,0:0:0:0:
192,192,89193,1,0,0:0:0:0:
64,192,89287,1,0,0:0:0:0:
192,192,89287,1,0,0:0:0:0:
320,192,89287,1,0,0:0:0:0:
448,192,89382,1,0,0:0:0:0:
320,192,89382,1,0,0:0:0:0:
192,192,89382,1,0,0:0:0:0:
64,192,89477,1,0,0:0:0:0:
192,192,89477,1,0,0:0:0:0:
448,192,89477,1,0,0:0:0:0:
448,192,89571,1,0,0:0:0:0:
320,192,89571,1,0,0:0:0:0:
192,192,89571,1,0,0:0:0:0:
64,192,89571,1,0,0:0:0:0:
192,192,89665,1,0,0:0:0:0:
320,192,89665,1,0,0:0:0:0:
448,192,89760,1,0,0:0:0:0:
320,192,89760,1,0,0:0:0:0:
64,192,89760,1,0,0:0:0:0:
64,192,89855,1,0,0:0:0:0:
192,192,89855,1,0,0:0:0:0:
448,192,89949,1,0,0:0:0:0:
320,192,89949,1,0,0:0:0:0:
192,192,89949,1,0,0:0:0:0:
64,192,89949,1,0,0:0:0:0:
448,192,90043,1,0,0:0:0:0:
320,192,90043,1,0,0:0:0:0:
64,192,90043,1,0,0:0:0:0:
64,192,90138,1,0,0:0:0:0:
192,192,90138,1,0,0:0:0:0:
448,192,90138,1,0,0:0:0:0:
448,192,90232,1,0,0:0:0:0:
320,192,90232,1,0,0:0:0:0:
192,192,90232,1,0,0:0:0:0:
64,192,90327,1,0,0:0:0:0:
192,192,90327,1,0,0:0:0:0:
320,192,90327,1,0,0:0:0:0:
448,192,90327,1,0,0:0:0:0:
320,192,90421,1,0,0:0:0:0:
448,192,90421,1,0,0:0:0:0:
64,192,90421,1,0,0:0:0:0:
64,192,90516,1,0,0:0:0:0:
192,192,90516,1,0,0:0:0:0:
320,192,90516,1,0,0:0:0:0:
448,192,90610,1,0,0:0:0:0:
320,192,90610,1,0,0:0:0:0:
192,192,90610,1,0,0:0:0:0:
64,192,90704,1,0,0:0:0:0:
192,192,90704,1,0,0:0:0:0:
320,192,90704,1,0,0:0:0:0:
448,192,90704,1,0,0:0:0:0:
64,192,96751,5,0,0:0:0:0:
448,192,96751,1,0,0:0:0:0:
320,192,96751,1,0,0:0:0:0:
64,192,96845,1,0,0:0:0:0:
320,192,96845,1,0,0:0:0:0:
320,192,96940,1,0,0:0:0:0:
192,192,96940,1,0,0:0:0:0:
64,192,97035,1,0,0:0:0:0:
448,192,97035,1,0,0:0:0:0:
320,192,97129,1,0,0:0:0:0:
192,192,97129,1,0,0:0:0:0:
448,192,97129,1,0,0:0:0:0:
64,192,97223,1,0,0:0:0:0:
192,192,97223,1,0,0:0:0:0:
192,192,97318,1,0,0:0:0:0:
448,192,97318,1,0,0:0:0:0:
448,192,97413,1,0,0:0:0:0:
320,192,97413,1,0,0:0:0:0:
64,192,97507,1,0,0:0:0:0:
192,192,97507,1,0,0:0:0:0:
320,192,97507,1,0,0:0:0:0:
448,192,97601,1,0,0:0:0:0:
192,192,97601,1,0,0:0:0:0:
320,192,97696,1,0,0:0:0:0:
192,192,97696,1,0,0:0:0:0:
320,192,97790,1,0,0:0:0:0:
64,192,97790,1,0,0:0:0:0:
448,192,97885,1,0,0:0:0:0:
320,192,97885,1,0,0:0:0:0:
192,192,97885,1,0,0:0:0:0:
64,192,97980,1,0,0:0:0:0:
192,192,97980,1,0,0:0:0:0:
192,192,98074,1,0,0:0:0:0:
320,192,98074,1,0,0:0:0:0:
448,192,98168,1,0,0:0:0:0:
320,192,98168,1,0,0:0:0:0:
192,192,98262,1,0,0:0:0:0:
64,192,98262,1,0,0:0:0:0:
448,192,98262,1,0,0:0:0:0:
192,192,98358,1,0,0:0:0:0:
448,192,98358,1,0,0:0:0:0:
64,192,98452,1,0,0:0:0:0:
320,192,98452,1,0,0:0:0:0:
64,192,98546,1,0,0:0:0:0:
192,192,98546,1,0,0:0:0:0:
320,192,98640,1,0,0:0:0:0:
448,192,98640,1,0,0:0:0:0:
64,192,98640,1,0,0:0:0:0:
192,192,98735,1,0,0:0:0:0:
320,192,98735,1,0,0:0:0:0:
320,192,98830,1,0,0:0:0:0:
64,192,98830,1,0,0:0:0:0:
448,192,98924,1,0,0:0:0:0:
192,192,98924,1,0,0:0:0:0:
64,192,99019,1,0,0:0:0:0:
320,192,99019,1,0,0:0:0:0:
448,192,99019,1,0,0:0:0:0:
192,192,99113,1,0,0:0:0:0:
64,192,99113,1,0,0:0:0:0:
192,192,99207,1,0,0:0:0:0:
448,192,99207,1,0,0:0:0:0:
448,192,99302,1,0,0:0:0:0:
64,192,99302,1,0,0:0:0:0:
320,192,99397,1,0,0:0:0:0:
64,192,99397,1,0,0:0:0:0:
448,192,99397,1,0,0:0:0:0:
192,192,99491,1,0,0:0:0:0:
320,192,99491,1,0,0:0:0:0:
448,192,99585,1,0,0:0:0:0:
64,192,99585,1,0,0:0:0:0:
64,192,99680,1,0,0:0:0:0:
192,192,99680,1,0,0:0:0:0:
64,192,99775,1,0,0:0:0:0:
448,192,99775,1,0,0:0:0:0:
320,192,99775,1,0,0:0:0:0:
192,192,99775,1,0,0:0:0:0:
448,192,99869,1,0,0:0:0:0:
320,192,99869,1,0,0:0:0:0:
64,192,99963,1,0,0:0:0:0:
320,192,99963,1,0,0:0:0:0:
192,192,100058,1,0,0:0:0:0:
64,192,100058,1,0,0:0:0:0:
64,192,100152,1,0,0:0:0:0:
192,192,100152,1,0,0:0:0:0:
320,192,100152,1,0,0:0:0:0:
448,192,100152,1,0,0:0:0:0:
448,192,100247,1,0,0:0:0:0:
64,192,100247,1,0,0:0:0:0:
320,192,100341,1,0,0:0:0:0:
192,192,100341,1,0,0:0:0:0:
64,192,100436,1,0,0:0:0:0:
320,192,100436,1,0,0:0:0:0:
448,192,100530,1,0,0:0:0:0:
64,192,100530,1,0,0:0:0:0:
192,192,100530,1,0,0:0:0:0:
320,192,100624,1,0,0:0:0:0:
448,192,100624,1,0,0:0:0:0:
320,192,100720,1,0,0:0:0:0:
192,192,100720,1,0,0:0:0:0:
64,192,100814,1,0,0:0:0:0:
320,192,100814,1,0,0:0:0:0:
64,192,100908,1,0,0:0:0:0:
192,192,100908,1,0,0:0:0:0:
448,192,100908,1,0,0:0:0:0:
320,192,101002,1,0,0:0:0:0:
192,192,101002,1,0,0:0:0:0:
64,192,101097,1,0,0:0:0:0:
448,192,101097,1,0,0:0:0:0:
448,192,101192,1,0,0:0:0:0:
192,192,101192,1,0,0:0:0:0:
320,192,101286,1,0,0:0:0:0:
192,192,101286,1,0,0:0:0:0:
64,192,101286,1,0,0:0:0:0:
448,192,101286,1,0,0:0:0:0:
448,192,101380,1,0,0:0:0:0:
64,192,101380,1,0,0:0:0:0:
64,192,101475,1,0,0:0:0:0:
192,192,101475,1,0,0:0:0:0:
448,192,101569,1,0,0:0:0:0:
320,192,101569,1,0,0:0:0:0:
64,192,101664,1,0,0:0:0:0:
192,192,101664,1,0,0:0:0:0:
320,192,101664,1,0,0:0:0:0:
448,192,101664,1,0,0:0:0:0:
64,192,101759,1,0,0:0:0:0:
320,192,101759,1,0,0:0:0:0:
192,192,101853,1,0,0:0:0:0:
320,192,101853,1,0,0:0:0:0:
448,192,101947,1,0,0:0:0:0:
64,192,101947,1,0,0:0:0:0:
192,192,102041,1,0,0:0:0:0:
64,192,102041,1,0,0:0:0:0:
448,192,102041,1,0,0:0:0:0:
320,192,102041,1,0,0:0:0:0:
192,192,102137,1,0,0:0:0:0:
64,192,102137,1,0,0:0:0:0:
448,192,102231,1,0,0:0:0:0:
320,192,102231,1,0,0:0:0:0:
192,192,102231,1,0,0:0:0:0:
64,192,102325,1,0,0:0:0:0:
320,192,102325,1,0,0:0:0:0:
448,192,102420,1,0,0:0:0:0:
320,192,102420,1,0,0:0:0:0:
192,192,102420,1,0,0:0:0:0:
64,192,102420,1,0,0:0:0:0:
192,192,102514,1,0,0:0:0:0:
448,192,102514,1,0,0:0:0:0:
320,192,102609,1,0,0:0:0:0:
64,192,102609,1,0,0:0:0:0:
192,192,102609,1,0,0:0:0:0:
448,192,102703,1,0,0:0:0:0:
64,192,102703,1,0,0:0:0:0:
64,192,104309,1,0,0:0:0:0:
192,192,104309,1,0,0:0:0:0:
448,192,104309,1,0,0:0:0:0:
320,192,104309,1,0,0:0:0:0:
64,192,104403,1,0,0:0:0:0:
320,192,104403,1,0,0:0:0:0:
192,192,104499,1,0,0:0:0:0:
320,192,104499,1,0,0:0:0:0:
448,192,104499,1,0,0:0:0:0:
64,192,104593,1,0,0:0:0:0:
192,192,104593,1,0,0:0:0:0:
320,192,104687,1,0,0:0:0:0:
192,192,104687,1,0,0:0:0:0:
64,192,104687,1,0,0:0:0:0:
448,192,104687,1,0,0:0:0:0:
448,192,104781,1,0,0:0:0:0:
320,192,104781,1,0,0:0:0:0:
64,192,104876,1,0,0:0:0:0:
448,192,104876,1,0,0:0:0:0:
192,192,104876,1,0,0:0:0:0:
320,192,104971,1,0,0:0:0:0:
192,192,104971,1,0,0:0:0:0:
64,192,105065,1,0,0:0:0:0:
192,192,105065,1,0,0:0:0:0:
320,192,105065,1,0,0:0:0:0:
448,192,105065,1,0,0:0:0:0:
192,192,105160,1,0,0:0:0:0:
448,192,105160,1,0,0:0:0:0:
64,192,105254,1,0,0:0:0:0:
320,192,105254,1,0,0:0:0:0:
448,192,105254,1,0,0:0:0:0:
64,192,105348,1,0,0:0:0:0:
192,192,105348,1,0,0:0:0:0:
448,192,105443,1,0,0:0:0:0:
320,192,105443,1,0,0:0:0:0:
192,192,105443,1,0,0:0:0:0:
64,192,105443,1,0,0:0:0:0:
448,192,105538,1,0,0:0:0:0:
192,192,105538,1,0,0:0:0:0:
64,192,105632,1,0,0:0:0:0:
320,192,105632,1,0,0:0:0:0:
448,192,105632,1,0,0:0:0:0:
320,192,105726,1,0,0:0:0:0:
192,192,105726,1,0,0:0:0:0:
64,192,105820,1,0,0:0:0:0:
192,192,105820,1,0,0:0:0:0:
320,192,105820,1,0,0:0:0:0:
448,192,105820,1,0,0:0:0:0:
192,192,105916,1,0,0:0:0:0:
448,192,105916,1,0,0:0:0:0:
64,192,105916,1,0,0:0:0:0:
448,192,106010,1,0,0:0:0:0:
320,192,106010,1,0,0:0:0:0:
64,192,106010,1,0,0:0:0:0:
192,192,106104,1,0,0:0:0:0:
320,192,106104,1,0,0:0:0:0:
448,192,106104,1,0,0:0:0:0:
448,192,106199,1,0,0:0:0:0:
320,192,106199,1,0,0:0:0:0:
192,192,106199,1,0,0:0:0:0:
64,192,106199,1,0,0:0:0:0:
64,192,106293,1,0,0:0:0:0:
320,192,106293,1,0,0:0:0:0:
448,192,106293,1,0,0:0:0:0:
192,192,106388,1,0,0:0:0:0:
64,192,106388,1,0,0:0:0:0:
320,192,106388,1,0,0:0:0:0:
448,192,106482,1,0,0:0:0:0:
320,192,106482,1,0,0:0:0:0:
192,192,106482,1,0,0:0:0:0:
64,192,106577,1,0,0:0:0:0:
192,192,106577,1,0,0:0:0:0:
320,192,106577,1,0,0:0:0:0:
448,192,106577,1,0,0:0:0:0:
64,192,106671,1,0,0:0:0:0:
192,192,106671,1,0,0:0:0:0:
448,192,106671,1,0,0:0:0:0:
448,192,106765,1,0,0:0:0:0:
320,192,106765,1,0,0:0:0:0:
192,192,106765,1,0,0:0:0:0:
64,192,106860,1,0,0:0:0:0:
320,192,106860,1,0,0:0:0:0:
64,192,106955,1,0,0:0:0:0:
192,192,106955,1,0,0:0:0:0:
320,192,106955,1,0,0:0:0:0:
448,192,106955,1,0,0:0:0:0:
192,192,107049,1,0,0:0:0:0:
448,192,107049,1,0,0:0:0:0:
320,192,107143,1,0,0:0:0:0:
64,192,107143,1,0,0:0:0:0:
192,192,107143,1,0,0:0:0:0:
448,192,107238,1,0,0:0:0:0:
64,192,107238,1,0,0:0:0:0:
448,192,107333,1,0,0:0:0:0:
320,192,107333,1,0,0:0:0:0:
64,192,107333,1,0,0:0:0:0:
192,192,107333,1,0,0:0:0:0:
192,192,107427,1,0,0:0:0:0:
320,192,107427,1,0,0:0:0:0:
64,192,107521,1,0,0:0:0:0:
192,192,107521,1,0,0:0:0:0:
448,192,107521,1,0,0:0:0:0:
320,192,107616,1,0,0:0:0:0:
64,192,107616,1,0,0:0:0:0:
64,192,107710,1,0,0:0:0:0:
192,192,107710,1,0,0:0:0:0:
320,192,107710,1,0,0:0:0:0:
448,192,107710,1,0,0:0:0:0:
192,192,107804,1,0,0:0:0:0:
448,192,107804,1,0,0:0:0:0:
64,192,107900,1,0,0:0:0:0:
320,192,107900,1,0,0:0:0:0:
192,192,107900,1,0,0:0:0:0:
320,192,107994,1,0,0:0:0:0:
448,192,107994,1,0,0:0:0:0:
448,192,108088,1,0,0:0:0:0:
320,192,108088,1,0,0:0:0:0:
192,192,108088,1,0,0:0:0:0:
64,192,108088,1,0,0:0:0:0:
320,192,108182,1,0,0:0:0:0:
192,192,108182,1,0,0:0:0:0:
64,192,108277,1,0,0:0:0:0:
320,192,108277,1,0,0:0:0:0:
448,192,108277,1,0,0:0:0:0:
64,192,108372,1,0,0:0:0:0:
192,192,108372,1,0,0:0:0:0:
64,192,108466,1,0,0:0:0:0:
192,192,108466,1,0,0:0:0:0:
320,192,108466,1,0,0:0:0:0:
448,192,108466,1,0,0:0:0:0:
448,192,108560,1,0,0:0:0:0:
320,192,108560,1,0,0:0:0:0:
448,192,108655,1,0,0:0:0:0:
192,192,108655,1,0,0:0:0:0:
64,192,108655,1,0,0:0:0:0:
64,192,108749,1,0,0:0:0:0:
192,192,108749,1,0,0:0:0:0:
448,192,108844,1,0,0:0:0:0:
320,192,108844,1,0,0:0:0:0:
192,192,108844,1,0,0:0:0:0:
64,192,108844,1,0,0:0:0:0:
192,192,108939,1,0,0:0:0:0:
448,192,108939,1,0,0:0:0:0:
320,192,108939,1,0,0:0:0:0:
64,192,109033,1,0,0:0:0:0:
320,192,109033,1,0,0:0:0:0:
448,192,109033,1,0,0:0:0:0:
320,192,109127,1,0,0:0:0:0:
64,192,109127,1,0,0:0:0:0:
192,192,109127,1,0,0:0:0:0:
64,192,109221,1,0,0:0:0:0:
192,192,109221,1,0,0:0:0:0:
320,192,109221,1,0,0:0:0:0:
448,192,109221,1,0,0:0:0:0:
448,192,109317,1,0,0:0:0:0:
192,192,109317,1,0,0:0:0:0:
64,192,109317,1,0,0:0:0:0:
320,192,109411,1,0,0:0:0:0:
448,192,109411,1,0,0:0:0:0:
64,192,109411,1,0,0:0:0:0:
192,192,109505,1,0,0:0:0:0:
320,192,109505,1,0,0:0:0:0:
448,192,109505,1,0,0:0:0:0:
448,192,109600,1,0,0:0:0:0:
320,192,109600,1,0,0:0:0:0:
192,192,109600,1,0,0:0:0:0:
64,192,109600,1,0,0:0:0:0:
64,192,109694,1,0,0:0:0:0:
192,192,109694,1,0,0:0:0:0:
448,192,109694,1,0,0:0:0:0:
448,192,109789,1,0,0:0:0:0:
320,192,109789,1,0,0:0:0:0:
64,192,109789,1,0,0:0:0:0:
192,192,109883,1,0,0:0:0:0:
320,192,109883,1,0,0:0:0:0:
448,192,109978,1,0,0:0:0:0:
320,192,109978,1,0,0:0:0:0:
192,192,109978,1,0,0:0:0:0:
64,192,109978,1,0,0:0:0:0:
64,192,110072,1,0,0:0:0:0:
448,192,110072,1,0,0:0:0:0:
64,192,110166,1,0,0:0:0:0:
192,192,110166,1,0,0:0:0:0:
320,192,110166,1,0,0:0:0:0:
448,192,110261,1,0,0:0:0:0:
192,192,110261,1,0,0:0:0:0:
64,192,110356,1,0,0:0:0:0:
192,192,110356,1,0,0:0:0:0:
448,192,110356,1,0,0:0:0:0:
320,192,110356,1,0,0:0:0:0:
448,192,110450,1,0,0:0:0:0:
320,192,110450,1,0,0:0:0:0:
64,192,110544,1,0,0:0:0:0:
320,192,110544,1,0,0:0:0:0:
192,192,110544,1,0,0:0:0:0:
448,192,110639,1,0,0:0:0:0:
64,192,110639,1,0,0:0:0:0:
64,192,110734,1,0,0:0:0:0:
192,192,110734,1,0,0:0:0:0:
320,192,110734,1,0,0:0:0:0:
448,192,110734,1,0,0:0:0:0:
192,192,110828,1,0,0:0:0:0:
320,192,110828,1,0,0:0:0:0:
448,192,110922,1,0,0:0:0:0:
320,192,110922,1,0,0:0:0:0:
64,192,110922,1,0,0:0:0:0:
64,192,111017,1,0,0:0:0:0:
192,192,111017,1,0,0:0:0:0:
448,192,111111,1,0,0:0:0:0:
320,192,111111,1,0,0:0:0:0:
192,192,111111,1,0,0:0:0:0:
64,192,111111,1,0,0:0:0:0:
320,192,111206,1,0,0:0:0:0:
448,192,111206,1,0,0:0:0:0:
64,192,111300,1,0,0:0:0:0:
192,192,111300,1,0,0:0:0:0:
448,192,111300,1,0,0:0:0:0:
64,192,111395,1,0,0:0:0:0:
320,192,111395,1,0,0:0:0:0:
448,192,111489,1,0,0:0:0:0:
320,192,111489,1,0,0:0:0:0:
192,192,111489,1,0,0:0:0:0:
64,192,111489,1,0,0:0:0:0:
448,192,111583,1,0,0:0:0:0:
192,192,111583,1,0,0:0:0:0:
64,192,111679,1,0,0:0:0:0:
320,192,111679,1,0,0:0:0:0:
192,192,111679,1,0,0:0:0:0:
320,192,111773,1,0,0:0:0:0:
448,192,111773,1,0,0:0:0:0:
448,192,111867,1,0,0:0:0:0:
320,192,111867,1,0,0:0:0:0:
192,192,111867,1,0,0:0:0:0:
64,192,111867,1,0,0:0:0:0:
192,192,111961,1,0,0:0:0:0:
64,192,111961,1,0,0:0:0:0:
64,192,112056,1,0,0:0:0:0:
320,192,112056,1,0,0:0:0:0:
448,192,112056,1,0,0:0:0:0:
192,192,112151,1,0,0:0:0:0:
320,192,112151,1,0,0:0:0:0:
64,192,112245,1,0,0:0:0:0:
192,192,112245,1,0,0:0:0:0:
320,192,112245,1,0,0:0:0:0:
448,192,112245,1,0,0:0:0:0:
448,192,112340,1,0,0:0:0:0:
64,192,112340,1,0,0:0:0:0:
64,192,112434,1,0,0:0:0:0:
192,192,112434,1,0,0:0:0:0:
320,192,112434,1,0,0:0:0:0:
448,192,112528,1,0,0:0:0:0:
192,192,112528,1,0,0:0:0:0:
320,192,112623,1,0,0:0:0:0:
448,192,112623,1,0,0:0:0:0:
192,192,112623,1,0,0:0:0:0:
64,192,112623,1,0,0:0:0:0:
448,192,112718,1,0,0:0:0:0:
320,192,112718,1,0,0:0:0:0:
64,192,112812,1,0,0:0:0:0:
192,192,112812,1,0,0:0:0:0:
320,192,112812,1,0,0:0:0:0:
192,192,112906,1,0,0:0:0:0:
64,192,112906,1,0,0:0:0:0:
64,192,113000,1,0,0:0:0:0:
192,192,113000,1,0,0:0:0:0:
320,192,113000,1,0,0:0:0:0:
448,192,113000,1,0,0:0:0:0:
448,192,113096,1,0,0:0:0:0:
192,192,113096,1,0,0:0:0:0:
64,192,113190,1,0,0:0:0:0:
448,192,113190,1,0,0:0:0:0:
320,192,113190,1,0,0:0:0:0:
320,192,113284,1,0,0:0:0:0:
192,192,113284,1,0,0:0:0:0:
64,192,113379,1,0,0:0:0:0:
192,192,113379,1,0,0:0:0:0:
320,192,113379,1,0,0:0:0:0:
448,192,113379,1,0,0:0:0:0:
448,192,113473,1,0,0:0:0:0:
64,192,113473,1,0,0:0:0:0:
64,192,113568,1,0,0:0:0:0:
192,192,113568,1,0,0:0:0:0:
320,192,113568,1,0,0:0:0:0:
320,192,113662,1,0,0:0:0:0:
448,192,113662,1,0,0:0:0:0:
64,192,113757,1,0,0:0:0:0:
192,192,113757,1,0,0:0:0:0:
320,192,113757,1,0,0:0:0:0:
448,192,113757,1,0,0:0:0:0:
64,192,113851,1,0,0:0:0:0:
320,192,113851,1,0,0:0:0:0:
192,192,113945,1,0,0:0:0:0:
320,192,113945,1,0,0:0:0:0:
448,192,113945,1,0,0:0:0:0:
64,192,114040,1,0,0:0:0:0:
192,192,114040,1,0,0:0:0:0:
64,192,114135,1,0,0:0:0:0:
192,192,114135,1,0,0:0:0:0:
320,192,114135,1,0,0:0:0:0:
448,192,114135,1,0,0:0:0:0:
448,192,114229,1,0,0:0:0:0:
320,192,114229,1,0,0:0:0:0:
64,192,114323,1,0,0:0:0:0:
448,192,114323,1,0,0:0:0:0:
192,192,114323,1,0,0:0:0:0:
192,192,114418,1,0,0:0:0:0:
320,192,114418,1,0,0:0:0:0:
192,192,114513,1,0,0:0:0:0:
64,192,114513,1,0,0:0:0:0:
320,192,114513,1,0,0:0:0:0:
448,192,114513,1,0,0:0:0:0:
448,192,114607,1,0,0:0:0:0:
192,192,114607,1,0,0:0:0:0:
64,192,114701,1,0,0:0:0:0:
192,192,114701,1,0,0:0:0:0:
320,192,114701,1,0,0:0:0:0:
64,192,114796,1,0,0:0:0:0:
320,192,114796,1,0,0:0:0:0:
64,192,114890,1,0,0:0:0:0:
192,192,114890,1,0,0:0:0:0:
320,192,114890,1,0,0:0:0:0:
448,192,114890,1,0,0:0:0:0:
192,192,114985,1,0,0:0:0:0:
448,192,114985,1,0,0:0:0:0:
320,192,115080,1,0,0:0:0:0:
192,192,115080,1,0,0:0:0:0:
64,192,115080,1,0,0:0:0:0:
448,192,115174,1,0,0:0:0:0:
64,192,115174,1,0,0:0:0:0:
192,192,115268,1,0,0:0:0:0:
64,192,115268,1,0,0:0:0:0:
448,192,115268,1,0,0:0:0:0:
320,192,115362,1,0,0:0:0:0:
192,192,115362,1,0,0:0:0:0:
64,192,115458,1,0,0:0:0:0:
320,192,115458,1,0,0:0:0:0:
448,192,115458,1,0,0:0:0:0:
192,192,115458,1,0,0:0:0:0:
448,192,115552,1,0,0:0:0:0:
192,192,115552,1,0,0:0:0:0:
64,192,115646,1,0,0:0:0:0:
192,192,115646,1,0,0:0:0:0:
320,192,115646,1,0,0:0:0:0:
448,192,115646,1,0,0:0:0:0:
64,192,115740,1,0,0:0:0:0:
192,192,115740,1,0,0:0:0:0:
448,192,115740,1,0,0:0:0:0:
64,192,115835,1,0,0:0:0:0:
448,192,115835,1,0,0:0:0:0:
320,192,115835,1,0,0:0:0:0:
320,192,115930,1,0,0:0:0:0:
448,192,115930,1,0,0:0:0:0:
192,192,115930,1,0,0:0:0:0:
64,192,116024,1,0,0:0:0:0:
192,192,116024,1,0,0:0:0:0:
320,192,116024,1,0,0:0:0:0:
448,192,116024,1,0,0:0:0:0:
320,192,116119,1,0,0:0:0:0:
448,192,116119,1,0,0:0:0:0:
64,192,116119,1,0,0:0:0:0:
64,192,116213,1,0,0:0:0:0:
448,192,116213,1,0,0:0:0:0:
192,192,116213,1,0,0:0:0:0:
320,192,116307,1,0,0:0:0:0:
192,192,116307,1,0,0:0:0:0:
64,192,116307,1,0,0:0:0:0:
448,192,116402,1,0,0:0:0:0:
320,192,116402,1,0,0:0:0:0:
192,192,116402,1,0,0:0:0:0:
64,192,116402,1,0,0:0:0:0:
