osu file format v14

[General]
AudioFilename: audio 0.900x.mp3
AudioLeadIn: 0
PreviewTime: 35281
Countdown: 0
SampleSet: Soft
StackLeniency: 0.7
Mode: 3
LetterboxInBreaks: 0
SpecialStyle: 0
WidescreenStoryboard: 0

[Editor]
Bookmarks: 6358,19056,31753,57148,84130,95240,109525,122223
DistanceSpacing: 0.8
BeatDivisor: 4
GridSize: 4
TimelineZoom: 2.3

[Metadata]
Title:Deep Down (Sped Up Ver.)
TitleUnicode:Deep Down (Sped Up Ver.)
Artist:Alok x Ella Eyre x Kenny Dope feat. Never Dull
ArtistUnicode:Alok x Ella Eyre x Kenny Dope feat. Never Dull
Creator:ShibePlanet
Version:You & I (0.9x)
Source:
Tags:electronic english chordjack cj speedjack jack stamina
BeatmapID:3918896
BeatmapSetID:1900403

[Difficulty]
HPDrainRate:8
CircleSize:4
OverallDifficulty:8
ApproachRate:6.3
SliderMultiplier:1.4
SliderTickRate:1

[Events]
//Background and Video events
0,0,"crumbdance.jpg",0,0
//Break Periods
2,106044,111543
//Storyboard Layer 0 (Background)
//Storyboard Layer 1 (Fail)
//Storyboard Layer 2 (Pass)
//Storyboard Layer 3 (Foreground)
//Storyboard Layer 4 (Overlay)
//Storyboard Sound Samples

[TimingPoints]
10,440.88503261447,4,2,0,40,1,0
35281,-100,4,2,0,40,0,1
49390,-100,4,2,0,40,0,0
93477,-100,4,2,0,40,0,1
105822,-100,4,2,0,40,0,0
121694,-100,4,2,0,40,0,1
135803,-100,4,2,0,40,0,0

[HitObjects]
64,192,7064,5,0,0:0:0:0:
448,192,7064,1,0,0:0:0:0:
192,192,7064,1,0,0:0:0:0:
320,192,7284,1,0,0:0:0:0:
192,192,7505,1,0,0:0:0:0:
64,192,7505,1,0,0:0:0:0:
320,192,7505,1,0,0:0:0:0:
448,192,7615,1,0,0:0:0:0:
64,192,7725,1,0,0:0:0:0:
192,192,7946,1,0,0:0:0:0:
320,192,7946,1,0,0:0:0:0:
448,192,7946,1,0,0:0:0:0:
320,192,8166,1,0,0:0:0:0:
192,192,8386,1,0,0:0:0:0:
64,192,8386,1,0,0:0:0:0:
320,192,8386,1,0,0:0:0:0:
192,192,8607,1,0,0:0:0:0:
64,192,8827,1,0,0:0:0:0:
192,192,8827,1,0,0:0:0:0:
448,192,8827,1,0,0:0:0:0:
320,192,9048,1,0,0:0:0:0:
448,192,9268,1,0,0:0:0:0:
320,192,9268,1,0,0:0:0:0:
192,192,9268,1,0,0:0:0:0:
64,192,9378,1,0,0:0:0:0:
448,192,9488,1,0,0:0:0:0:
320,192,9710,1,0,0:0:0:0:
192,192,9710,1,0,0:0:0:0:
64,192,9710,1,0,0:0:0:0:
320,192,9930,1,0,0:0:0:0:
320,192,10151,1,0,0:0:0:0:
192,192,10151,1,0,0:0:0:0:
448,192,10151,1,0,0:0:0:0:
192,192,10371,1,0,0:0:0:0:
64,192,10591,1,0,0:0:0:0:
320,192,10591,1,0,0:0:0:0:
448,192,10591,1,0,0:0:0:0:
192,192,10812,1,0,0:0:0:0:
320,192,10812,1,0,0:0:0:0:
64,192,11032,1,0,0:0:0:0:
192,192,11032,1,0,0:0:0:0:
320,192,11032,1,0,0:0:0:0:
448,192,11253,1,0,0:0:0:0:
192,192,11253,1,0,0:0:0:0:
64,192,11473,1,0,0:0:0:0:
320,192,11473,1,0,0:0:0:0:
448,192,11473,1,0,0:0:0:0:
64,192,11693,1,0,0:0:0:0:
320,192,11693,1,0,0:0:0:0:
192,192,11914,1,0,0:0:0:0:
320,192,11914,1,0,0:0:0:0:
448,192,11914,1,0,0:0:0:0:
64,192,12134,1,0,0:0:0:0:
448,192,12134,1,0,0:0:0:0:
64,192,12355,1,0,0:0:0:0:
192,192,12355,1,0,0:0:0:0:
320,192,12355,1,0,0:0:0:0:
448,192,12465,1,0,0:0:0:0:
320,192,12575,1,0,0:0:0:0:
192,192,12575,1,0,0:0:0:0:
64,192,12795,1,0,0:0:0:0:
320,192,12795,1,0,0:0:0:0:
448,192,12795,1,0,0:0:0:0:
448,192,13016,1,0,0:0:0:0:
64,192,13236,1,0,0:0:0:0:
192,192,13236,1,0,0:0:0:0:
320,192,13236,1,0,0:0:0:0:
192,192,13457,1,0,0:0:0:0:
64,192,13677,1,0,0:0:0:0:
320,192,13677,1,0,0:0:0:0:
448,192,13677,1,0,0:0:0:0:
320,192,13897,1,0,0:0:0:0:
192,192,14118,1,0,0:0:0:0:
320,192,14118,1,0,0:0:0:0:
448,192,14118,1,0,0:0:0:0:
448,192,14338,1,0,0:0:0:0:
192,192,14560,1,0,0:0:0:0:
64,192,14560,1,0,0:0:0:0:
448,192,14560,1,0,0:0:0:0:
320,192,14670,1,0,0:0:0:0:
64,192,14780,1,0,0:0:0:0:
192,192,15000,1,0,0:0:0:0:
320,192,15000,1,0,0:0:0:0:
448,192,15000,1,0,0:0:0:0:
320,192,15221,1,0,0:0:0:0:
320,192,15441,1,0,0:0:0:0:
192,192,15441,1,0,0:0:0:0:
64,192,15441,1,0,0:0:0:0:
448,192,15662,1,0,0:0:0:0:
448,192,15882,1,0,0:0:0:0:
320,192,15882,1,0,0:0:0:0:
192,192,15882,1,0,0:0:0:0:
192,192,16102,1,0,0:0:0:0:
64,192,16323,1,0,0:0:0:0:
320,192,16323,1,0,0:0:0:0:
448,192,16323,1,0,0:0:0:0:
192,192,16433,1,0,0:0:0:0:
320,192,16543,1,0,0:0:0:0:
192,192,16764,1,0,0:0:0:0:
64,192,16764,1,0,0:0:0:0:
448,192,16764,1,0,0:0:0:0:
64,192,16984,1,0,0:0:0:0:
64,192,17204,1,0,0:0:0:0:
192,192,17204,1,0,0:0:0:0:
320,192,17204,1,0,0:0:0:0:
320,192,17425,1,0,0:0:0:0:
320,192,17645,1,0,0:0:0:0:
448,192,17645,1,0,0:0:0:0:
64,192,17645,1,0,0:0:0:0:
192,192,17866,1,0,0:0:0:0:
64,192,17866,1,0,0:0:0:0:
192,192,18086,1,0,0:0:0:0:
320,192,18086,1,0,0:0:0:0:
448,192,18086,1,0,0:0:0:0:
64,192,18306,1,0,0:0:0:0:
320,192,18306,1,0,0:0:0:0:
192,192,18527,1,0,0:0:0:0:
64,192,18527,1,0,0:0:0:0:
320,192,18527,1,0,0:0:0:0:
192,192,18747,1,0,0:0:0:0:
448,192,18747,1,0,0:0:0:0:
448,192,18968,1,0,0:0:0:0:
192,192,18968,1,0,0:0:0:0:
320,192,18968,1,0,0:0:0:0:
192,192,19188,1,0,0:0:0:0:
320,192,19188,1,0,0:0:0:0:
64,192,19408,1,0,0:0:0:0:
448,192,19408,1,0,0:0:0:0:
320,192,19408,1,0,0:0:0:0:
192,192,19520,1,0,0:0:0:0:
320,192,19630,1,0,0:0:0:0:
448,192,19630,1,0,0:0:0:0:
192,192,19850,128,0,20071:0:0:0:0:
320,192,19850,128,0,20071:0:0:0:0:
64,192,19850,128,0,20071:0:0:0:0:
192,192,20291,128,0,20511:0:0:0:0:
64,192,20291,128,0,20511:0:0:0:0:
448,192,20291,128,0,20511:0:0:0:0:
64,192,20732,128,0,20952:0:0:0:0:
448,192,20732,128,0,20952:0:0:0:0:
320,192,20732,128,0,20952:0:0:0:0:
320,192,21173,1,0,0:0:0:0:
192,192,21173,1,0,0:0:0:0:
64,192,21173,1,0,0:0:0:0:
448,192,21173,128,0,21393:0:0:0:0:
64,192,21613,128,0,21834:0:0:0:0:
320,192,21613,1,0,0:0:0:0:
192,192,21613,1,0,0:0:0:0:
448,192,21613,1,0,0:0:0:0:
64,192,21944,128,0,22164:0:0:0:0:
320,192,22054,1,0,0:0:0:0:
448,192,22054,1,0,0:0:0:0:
64,192,22275,128,0,22495:0:0:0:0:
192,192,22495,1,0,0:0:0:0:
320,192,22495,1,0,0:0:0:0:
448,192,22495,1,0,0:0:0:0:
64,192,22605,128,0,22826:0:0:0:0:
192,192,22936,128,0,23156:0:0:0:0:
64,192,22936,1,0,0:0:0:0:
448,192,22936,1,0,0:0:0:0:
320,192,23377,128,0,23597:0:0:0:0:
448,192,23377,1,0,0:0:0:0:
192,192,23377,1,0,0:0:0:0:
64,192,23377,1,0,0:0:0:0:
320,192,23707,128,0,23928:0:0:0:0:
192,192,23817,1,0,0:0:0:0:
448,192,23817,1,0,0:0:0:0:
320,192,24038,128,0,24258:0:0:0:0:
192,192,24258,1,0,0:0:0:0:
64,192,24258,1,0,0:0:0:0:
448,192,24258,1,0,0:0:0:0:
320,192,24368,128,0,24590:0:0:0:0:
64,192,24700,128,0,24920:0:0:0:0:
192,192,24700,1,0,0:0:0:0:
448,192,24700,1,0,0:0:0:0:
448,192,25141,128,0,25361:0:0:0:0:
320,192,25141,1,0,0:0:0:0:
192,192,25141,1,0,0:0:0:0:
64,192,25141,1,0,0:0:0:0:
448,192,25471,128,0,25692:0:0:0:0:
192,192,25581,1,0,0:0:0:0:
320,192,25581,1,0,0:0:0:0:
448,192,25802,128,0,26022:0:0:0:0:
320,192,26022,1,0,0:0:0:0:
192,192,26022,1,0,0:0:0:0:
64,192,26022,1,0,0:0:0:0:
448,192,26132,128,0,26353:0:0:0:0:
320,192,26463,128,0,26683:0:0:0:0:
192,192,26463,1,0,0:0:0:0:
64,192,26463,1,0,0:0:0:0:
192,192,26904,128,0,27124:0:0:0:0:
64,192,26904,1,0,0:0:0:0:
448,192,26904,1,0,0:0:0:0:
320,192,26904,1,0,0:0:0:0:
192,192,27234,128,0,27455:0:0:0:0:
320,192,27345,1,0,0:0:0:0:
448,192,27345,1,0,0:0:0:0:
192,192,27565,128,0,27785:0:0:0:0:
64,192,27785,1,0,0:0:0:0:
320,192,27785,1,0,0:0:0:0:
448,192,27785,1,0,0:0:0:0:
192,192,27896,128,0,28116:0:0:0:0:
64,192,28226,128,0,28447:0:0:0:0:
448,192,28226,1,0,0:0:0:0:
320,192,28226,1,0,0:0:0:0:
320,192,28667,128,0,28887:0:0:0:0:
64,192,28667,1,0,0:0:0:0:
192,192,28667,1,0,0:0:0:0:
448,192,28667,1,0,0:0:0:0:
320,192,28998,128,0,29218:0:0:0:0:
448,192,29108,1,0,0:0:0:0:
64,192,29108,1,0,0:0:0:0:
320,192,29328,128,0,29550:0:0:0:0:
64,192,29550,1,0,0:0:0:0:
192,192,29550,1,0,0:0:0:0:
448,192,29550,1,0,0:0:0:0:
320,192,29660,128,0,29880:0:0:0:0:
64,192,29990,128,0,30211:0:0:0:0:
192,192,29990,1,0,0:0:0:0:
448,192,29990,1,0,0:0:0:0:
448,192,30431,128,0,30652:0:0:0:0:
320,192,30431,1,0,0:0:0:0:
192,192,30431,1,0,0:0:0:0:
64,192,30431,1,0,0:0:0:0:
448,192,30762,128,0,30982:0:0:0:0:
320,192,30872,1,0,0:0:0:0:
192,192,30872,1,0,0:0:0:0:
448,192,31092,128,0,31313:0:0:0:0:
320,192,31313,1,0,0:0:0:0:
64,192,31313,1,0,0:0:0:0:
192,192,31313,1,0,0:0:0:0:
448,192,31423,128,0,31643:0:0:0:0:
320,192,31754,128,0,31974:0:0:0:0:
192,192,31754,1,0,0:0:0:0:
64,192,31754,1,0,0:0:0:0:
64,192,32194,128,0,32415:0:0:0:0:
192,192,32194,1,0,0:0:0:0:
448,192,32194,1,0,0:0:0:0:
64,192,32525,128,0,32745:0:0:0:0:
448,192,32635,1,0,0:0:0:0:
320,192,32635,1,0,0:0:0:0:
192,192,32635,1,0,0:0:0:0:
64,192,32856,128,0,33076:0:0:0:0:
448,192,33076,1,0,0:0:0:0:
192,192,33076,1,0,0:0:0:0:
64,192,33186,128,0,33407:0:0:0:0:
320,192,33517,1,0,0:0:0:0:
448,192,33517,1,0,0:0:0:0:
192,192,33517,1,0,0:0:0:0:
64,192,33958,1,0,0:0:0:0:
192,192,33958,1,0,0:0:0:0:
320,192,33958,1,0,0:0:0:0:
448,192,34398,1,0,0:0:0:0:
320,192,34398,1,0,0:0:0:0:
64,192,34398,1,0,0:0:0:0:
64,192,34840,1,0,0:0:0:0:
192,192,34840,1,0,0:0:0:0:
448,192,34840,1,0,0:0:0:0:
64,192,35281,1,0,0:0:0:0:
192,192,35281,1,0,0:0:0:0:
320,192,35281,1,0,0:0:0:0:
448,192,35281,1,0,0:0:0:0:
192,192,35391,1,0,0:0:0:0:
448,192,35391,1,0,0:0:0:0:
64,192,35501,1,0,0:0:0:0:
320,192,35501,1,0,0:0:0:0:
192,192,35501,1,0,0:0:0:0:
448,192,35612,1,0,0:0:0:0:
64,192,35612,1,0,0:0:0:0:
320,192,35722,1,0,0:0:0:0:
448,192,35722,1,0,0:0:0:0:
192,192,35722,1,0,0:0:0:0:
64,192,35722,1,0,0:0:0:0:
320,192,35832,1,0,0:0:0:0:
64,192,35832,1,0,0:0:0:0:
192,192,35942,1,0,0:0:0:0:
320,192,35942,1,0,0:0:0:0:
448,192,35942,1,0,0:0:0:0:
64,192,36052,1,0,0:0:0:0:
448,192,36052,1,0,0:0:0:0:
448,192,36163,1,0,0:0:0:0:
320,192,36163,1,0,0:0:0:0:
192,192,36163,1,0,0:0:0:0:
64,192,36163,1,0,0:0:0:0:
320,192,36273,1,0,0:0:0:0:
64,192,36273,1,0,0:0:0:0:
192,192,36383,1,0,0:0:0:0:
448,192,36383,1,0,0:0:0:0:
320,192,36383,1,0,0:0:0:0:
64,192,36493,1,0,0:0:0:0:
448,192,36493,1,0,0:0:0:0:
448,192,36603,1,0,0:0:0:0:
320,192,36603,1,0,0:0:0:0:
192,192,36603,1,0,0:0:0:0:
64,192,36603,1,0,0:0:0:0:
192,192,36714,1,0,0:0:0:0:
448,192,36714,1,0,0:0:0:0:
64,192,36824,1,0,0:0:0:0:
320,192,36824,1,0,0:0:0:0:
192,192,36824,1,0,0:0:0:0:
448,192,36934,1,0,0:0:0:0:
64,192,36934,1,0,0:0:0:0:
64,192,37044,1,0,0:0:0:0:
192,192,37044,1,0,0:0:0:0:
320,192,37044,1,0,0:0:0:0:
448,192,37044,1,0,0:0:0:0:
64,192,37154,1,0,0:0:0:0:
192,192,37154,1,0,0:0:0:0:
320,192,37154,1,0,0:0:0:0:
448,192,37265,1,0,0:0:0:0:
320,192,37265,1,0,0:0:0:0:
192,192,37265,1,0,0:0:0:0:
64,192,37375,1,0,0:0:0:0:
448,192,37375,1,0,0:0:0:0:
320,192,37375,1,0,0:0:0:0:
64,192,37485,1,0,0:0:0:0:
192,192,37485,1,0,0:0:0:0:
320,192,37485,1,0,0:0:0:0:
448,192,37485,1,0,0:0:0:0:
448,192,37595,1,0,0:0:0:0:
320,192,37595,1,0,0:0:0:0:
64,192,37595,1,0,0:0:0:0:
64,192,37705,1,0,0:0:0:0:
192,192,37705,1,0,0:0:0:0:
448,192,37705,1,0,0:0:0:0:
320,192,37816,1,0,0:0:0:0:
192,192,37816,1,0,0:0:0:0:
448,192,37816,1,0,0:0:0:0:
64,192,37926,1,0,0:0:0:0:
192,192,37926,1,0,0:0:0:0:
320,192,37926,1,0,0:0:0:0:
448,192,37926,1,0,0:0:0:0:
64,192,38036,1,0,0:0:0:0:
320,192,38036,1,0,0:0:0:0:
448,192,38036,1,0,0:0:0:0:
448,192,38146,1,0,0:0:0:0:
192,192,38146,1,0,0:0:0:0:
64,192,38146,1,0,0:0:0:0:
320,192,38256,1,0,0:0:0:0:
192,192,38256,1,0,0:0:0:0:
448,192,38367,1,0,0:0:0:0:
320,192,38367,1,0,0:0:0:0:
192,192,38367,1,0,0:0:0:0:
64,192,38367,1,0,0:0:0:0:
64,192,38477,1,0,0:0:0:0:
448,192,38477,1,0,0:0:0:0:
64,192,38587,1,0,0:0:0:0:
320,192,38587,1,0,0:0:0:0:
192,192,38587,1,0,0:0:0:0:
448,192,38697,1,0,0:0:0:0:
192,192,38697,1,0,0:0:0:0:
64,192,38807,1,0,0:0:0:0:
192,192,38807,1,0,0:0:0:0:
320,192,38807,1,0,0:0:0:0:
448,192,38807,1,0,0:0:0:0:
320,192,38918,1,0,0:0:0:0:
64,192,38918,1,0,0:0:0:0:
64,192,39028,1,0,0:0:0:0:
192,192,39028,1,0,0:0:0:0:
448,192,39028,1,0,0:0:0:0:
192,192,39138,1,0,0:0:0:0:
320,192,39138,1,0,0:0:0:0:
64,192,39248,1,0,0:0:0:0:
192,192,39248,1,0,0:0:0:0:
320,192,39248,1,0,0:0:0:0:
448,192,39248,1,0,0:0:0:0:
448,192,39358,1,0,0:0:0:0:
192,192,39358,1,0,0:0:0:0:
64,192,39470,1,0,0:0:0:0:
320,192,39470,1,0,0:0:0:0:
448,192,39470,1,0,0:0:0:0:
64,192,39580,1,0,0:0:0:0:
320,192,39580,1,0,0:0:0:0:
64,192,39690,1,0,0:0:0:0:
192,192,39690,1,0,0:0:0:0:
320,192,39690,1,0,0:0:0:0:
448,192,39690,1,0,0:0:0:0:
192,192,39800,1,0,0:0:0:0:
448,192,39800,1,0,0:0:0:0:
64,192,39910,1,0,0:0:0:0:
192,192,39910,1,0,0:0:0:0:
320,192,39910,1,0,0:0:0:0:
448,192,40021,1,0,0:0:0:0:
320,192,40021,1,0,0:0:0:0:
64,192,40131,1,0,0:0:0:0:
192,192,40131,1,0,0:0:0:0:
320,192,40131,1,0,0:0:0:0:
448,192,40131,1,0,0:0:0:0:
64,192,40241,1,0,0:0:0:0:
192,192,40241,1,0,0:0:0:0:
448,192,40351,1,0,0:0:0:0:
320,192,40351,1,0,0:0:0:0:
192,192,40351,1,0,0:0:0:0:
64,192,40461,1,0,0:0:0:0:
448,192,40461,1,0,0:0:0:0:
448,192,40572,1,0,0:0:0:0:
192,192,40572,1,0,0:0:0:0:
64,192,40572,1,0,0:0:0:0:
320,192,40572,1,0,0:0:0:0:
64,192,40682,1,0,0:0:0:0:
320,192,40682,1,0,0:0:0:0:
448,192,40682,1,0,0:0:0:0:
64,192,40792,1,0,0:0:0:0:
192,192,40792,1,0,0:0:0:0:
448,192,40792,1,0,0:0:0:0:
320,192,40902,1,0,0:0:0:0:
192,192,40902,1,0,0:0:0:0:
64,192,40902,1,0,0:0:0:0:
64,192,41012,1,0,0:0:0:0:
192,192,41012,1,0,0:0:0:0:
320,192,41012,1,0,0:0:0:0:
448,192,41012,1,0,0:0:0:0:
448,192,41123,1,0,0:0:0:0:
320,192,41123,1,0,0:0:0:0:
64,192,41123,1,0,0:0:0:0:
64,192,41233,1,0,0:0:0:0:
192,192,41233,1,0,0:0:0:0:
448,192,41233,1,0,0:0:0:0:
448,192,41343,1,0,0:0:0:0:
192,192,41343,1,0,0:0:0:0:
320,192,41343,1,0,0:0:0:0:
64,192,41453,1,0,0:0:0:0:
192,192,41453,1,0,0:0:0:0:
320,192,41453,1,0,0:0:0:0:
448,192,41453,1,0,0:0:0:0:
64,192,41563,1,0,0:0:0:0:
192,192,41563,1,0,0:0:0:0:
320,192,41563,1,0,0:0:0:0:
448,192,41674,1,0,0:0:0:0:
192,192,41674,1,0,0:0:0:0:
320,192,41674,1,0,0:0:0:0:
64,192,41784,1,0,0:0:0:0:
448,192,41784,1,0,0:0:0:0:
448,192,41894,1,0,0:0:0:0:
320,192,41894,1,0,0:0:0:0:
192,192,41894,1,0,0:0:0:0:
64,192,41894,1,0,0:0:0:0:
448,192,42004,1,0,0:0:0:0:
192,192,42004,1,0,0:0:0:0:
64,192,42114,1,0,0:0:0:0:
192,192,42114,1,0,0:0:0:0:
320,192,42114,1,0,0:0:0:0:
448,192,42225,1,0,0:0:0:0:
64,192,42225,1,0,0:0:0:0:
64,192,42335,1,0,0:0:0:0:
192,192,42335,1,0,0:0:0:0:
320,192,42335,1,0,0:0:0:0:
448,192,42335,1,0,0:0:0:0:
192,192,42445,1,0,0:0:0:0:
320,192,42445,1,0,0:0:0:0:
320,192,42555,1,0,0:0:0:0:
448,192,42555,1,0,0:0:0:0:
64,192,42555,1,0,0:0:0:0:
448,192,42665,1,0,0:0:0:0:
192,192,42665,1,0,0:0:0:0:
64,192,42776,1,0,0:0:0:0:
192,192,42776,1,0,0:0:0:0:
320,192,42776,1,0,0:0:0:0:
448,192,42776,1,0,0:0:0:0:
64,192,42886,1,0,0:0:0:0:
192,192,42886,1,0,0:0:0:0:
448,192,42996,1,0,0:0:0:0:
320,192,42996,1,0,0:0:0:0:
64,192,42996,1,0,0:0:0:0:
192,192,43106,1,0,0:0:0:0:
320,192,43106,1,0,0:0:0:0:
448,192,43216,1,0,0:0:0:0:
320,192,43216,1,0,0:0:0:0:
192,192,43216,1,0,0:0:0:0:
64,192,43216,1,0,0:0:0:0:
64,192,43327,1,0,0:0:0:0:
448,192,43327,1,0,0:0:0:0:
320,192,43437,1,0,0:0:0:0:
192,192,43437,1,0,0:0:0:0:
448,192,43437,1,0,0:0:0:0:
64,192,43547,1,0,0:0:0:0:
192,192,43547,1,0,0:0:0:0:
192,192,43657,1,0,0:0:0:0:
64,192,43657,1,0,0:0:0:0:
448,192,43657,1,0,0:0:0:0:
320,192,43657,1,0,0:0:0:0:
192,192,43767,1,0,0:0:0:0:
448,192,43767,1,0,0:0:0:0:
320,192,43878,1,0,0:0:0:0:
448,192,43878,1,0,0:0:0:0:
192,192,43878,1,0,0:0:0:0:
64,192,43988,1,0,0:0:0:0:
320,192,43988,1,0,0:0:0:0:
192,192,44098,1,0,0:0:0:0:
64,192,44098,1,0,0:0:0:0:
320,192,44098,1,0,0:0:0:0:
448,192,44098,1,0,0:0:0:0:
192,192,44208,1,0,0:0:0:0:
320,192,44208,1,0,0:0:0:0:
64,192,44318,1,0,0:0:0:0:
192,192,44318,1,0,0:0:0:0:
320,192,44318,1,0,0:0:0:0:
448,192,44430,1,0,0:0:0:0:
192,192,44430,1,0,0:0:0:0:
448,192,44540,1,0,0:0:0:0:
320,192,44540,1,0,0:0:0:0:
192,192,44540,1,0,0:0:0:0:
64,192,44540,1,0,0:0:0:0:
64,192,44650,1,0,0:0:0:0:
448,192,44650,1,0,0:0:0:0:
320,192,44760,1,0,0:0:0:0:
448,192,44760,1,0,0:0:0:0:
192,192,44760,1,0,0:0:0:0:
64,192,44870,1,0,0:0:0:0:
320,192,44870,1,0,0:0:0:0:
192,192,44981,1,0,0:0:0:0:
64,192,44981,1,0,0:0:0:0:
448,192,44981,1,0,0:0:0:0:
320,192,44981,1,0,0:0:0:0:
192,192,45091,1,0,0:0:0:0:
320,192,45091,1,0,0:0:0:0:
64,192,45201,1,0,0:0:0:0:
192,192,45201,1,0,0:0:0:0:
448,192,45201,1,0,0:0:0:0:
64,192,45311,1,0,0:0:0:0:
192,192,45311,1,0,0:0:0:0:
64,192,45421,1,0,0:0:0:0:
192,192,45421,1,0,0:0:0:0:
448,192,45421,1,0,0:0:0:0:
320,192,45421,1,0,0:0:0:0:
448,192,45532,1,0,0:0:0:0:
320,192,45532,1,0,0:0:0:0:
448,192,45642,1,0,0:0:0:0:
192,192,45642,1,0,0:0:0:0:
64,192,45642,1,0,0:0:0:0:
64,192,45752,1,0,0:0:0:0:
320,192,45752,1,0,0:0:0:0:
192,192,45862,1,0,0:0:0:0:
64,192,45862,1,0,0:0:0:0:
320,192,45862,1,0,0:0:0:0:
448,192,45862,1,0,0:0:0:0:
64,192,45972,1,0,0:0:0:0:
448,192,45972,1,0,0:0:0:0:
448,192,46083,1,0,0:0:0:0:
192,192,46083,1,0,0:0:0:0:
320,192,46083,1,0,0:0:0:0:
448,192,46193,1,0,0:0:0:0:
192,192,46193,1,0,0:0:0:0:
192,192,46303,1,0,0:0:0:0:
64,192,46303,1,0,0:0:0:0:
320,192,46303,1,0,0:0:0:0:
448,192,46303,1,0,0:0:0:0:
320,192,46413,1,0,0:0:0:0:
192,192,46413,1,0,0:0:0:0:
64,192,46523,1,0,0:0:0:0:
448,192,46523,1,0,0:0:0:0:
320,192,46523,1,0,0:0:0:0:
64,192,46634,1,0,0:0:0:0:
192,192,46634,1,0,0:0:0:0:
64,192,46744,1,0,0:0:0:0:
192,192,46744,1,0,0:0:0:0:
320,192,46744,1,0,0:0:0:0:
448,192,46744,1,0,0:0:0:0:
448,192,46854,1,0,0:0:0:0:
192,192,46854,1,0,0:0:0:0:
192,192,46964,1,0,0:0:0:0:
64,192,46964,1,0,0:0:0:0:
320,192,46964,1,0,0:0:0:0:
64,192,47074,1,0,0:0:0:0:
320,192,47074,1,0,0:0:0:0:
320,192,47185,1,0,0:0:0:0:
448,192,47185,1,0,0:0:0:0:
192,192,47185,1,0,0:0:0:0:
64,192,47185,1,0,0:0:0:0:
192,192,47295,1,0,0:0:0:0:
320,192,47295,1,0,0:0:0:0:
64,192,47405,1,0,0:0:0:0:
448,192,47405,1,0,0:0:0:0:
320,192,47405,1,0,0:0:0:0:
64,192,47515,1,0,0:0:0:0:
448,192,47515,1,0,0:0:0:0:
448,192,47625,1,0,0:0:0:0:
320,192,47625,1,0,0:0:0:0:
192,192,47625,1,0,0:0:0:0:
64,192,47625,1,0,0:0:0:0:
320,192,47736,1,0,0:0:0:0:
448,192,47736,1,0,0:0:0:0:
64,192,47736,1,0,0:0:0:0:
64,192,47846,1,0,0:0:0:0:
192,192,47846,1,0,0:0:0:0:
448,192,47846,1,0,0:0:0:0:
448,192,47956,1,0,0:0:0:0:
320,192,47956,1,0,0:0:0:0:
192,192,47956,1,0,0:0:0:0:
64,192,48066,1,0,0:0:0:0:
192,192,48066,1,0,0:0:0:0:
320,192,48066,1,0,0:0:0:0:
448,192,48066,1,0,0:0:0:0:
64,192,48176,1,0,0:0:0:0:
192,192,48176,1,0,0:0:0:0:
192,192,48287,1,0,0:0:0:0:
320,192,48287,1,0,0:0:0:0:
448,192,48287,1,0,0:0:0:0:
320,192,48397,1,0,0:0:0:0:
448,192,48397,1,0,0:0:0:0:
64,192,48507,1,0,0:0:0:0:
192,192,48507,1,0,0:0:0:0:
320,192,48507,1,0,0:0:0:0:
448,192,48507,1,0,0:0:0:0:
320,192,48617,1,0,0:0:0:0:
192,192,48617,1,0,0:0:0:0:
64,192,48617,1,0,0:0:0:0:
192,192,48727,1,0,0:0:0:0:
320,192,48727,1,0,0:0:0:0:
448,192,48727,1,0,0:0:0:0:
64,192,48838,1,0,0:0:0:0:
192,192,48838,1,0,0:0:0:0:
448,192,48838,1,0,0:0:0:0:
448,192,48948,1,0,0:0:0:0:
320,192,48948,1,0,0:0:0:0:
192,192,48948,1,0,0:0:0:0:
64,192,48948,1,0,0:0:0:0:
320,192,49058,1,0,0:0:0:0:
192,192,49058,1,0,0:0:0:0:
64,192,49058,1,0,0:0:0:0:
64,192,49168,1,0,0:0:0:0:
192,192,49168,1,0,0:0:0:0:
448,192,49168,1,0,0:0:0:0:
448,192,49278,1,0,0:0:0:0:
320,192,49278,1,0,0:0:0:0:
192,192,49278,1,0,0:0:0:0:
64,192,49390,1,0,0:0:0:0:
192,192,49390,1,0,0:0:0:0:
320,192,49390,1,0,0:0:0:0:
448,192,49390,1,0,0:0:0:0:
320,192,49500,1,0,0:0:0:0:
64,192,49500,1,0,0:0:0:0:
320,192,49610,1,0,0:0:0:0:
192,192,49610,1,0,0:0:0:0:
448,192,49720,1,0,0:0:0:0:
192,192,49720,1,0,0:0:0:0:
64,192,49830,1,0,0:0:0:0:
192,192,49830,1,0,0:0:0:0:
448,192,49830,1,0,0:0:0:0:
320,192,49830,1,0,0:0:0:0:
320,192,49940,1,0,0:0:0:0:
64,192,49940,1,0,0:0:0:0:
192,192,50051,1,0,0:0:0:0:
448,192,50051,1,0,0:0:0:0:
64,192,50161,1,0,0:0:0:0:
192,192,50161,1,0,0:0:0:0:
448,192,50271,1,0,0:0:0:0:
320,192,50271,1,0,0:0:0:0:
64,192,50271,1,0,0:0:0:0:
192,192,50381,1,0,0:0:0:0:
320,192,50381,1,0,0:0:0:0:
64,192,50491,1,0,0:0:0:0:
192,192,50491,1,0,0:0:0:0:
448,192,50602,1,0,0:0:0:0:
320,192,50602,1,0,0:0:0:0:
320,192,50712,1,0,0:0:0:0:
192,192,50712,1,0,0:0:0:0:
64,192,50712,1,0,0:0:0:0:
448,192,50822,1,0,0:0:0:0:
192,192,50822,1,0,0:0:0:0:
64,192,50932,1,0,0:0:0:0:
192,192,50932,1,0,0:0:0:0:
448,192,51042,1,0,0:0:0:0:
320,192,51042,1,0,0:0:0:0:
192,192,51153,1,0,0:0:0:0:
64,192,51153,1,0,0:0:0:0:
320,192,51153,1,0,0:0:0:0:
448,192,51153,1,0,0:0:0:0:
448,192,51263,1,0,0:0:0:0:
192,192,51263,1,0,0:0:0:0:
64,192,51373,1,0,0:0:0:0:
192,192,51373,1,0,0:0:0:0:
320,192,51483,1,0,0:0:0:0:
448,192,51483,1,0,0:0:0:0:
448,192,51593,1,0,0:0:0:0:
320,192,51593,1,0,0:0:0:0:
192,192,51593,1,0,0:0:0:0:
64,192,51593,1,0,0:0:0:0:
192,192,51704,1,0,0:0:0:0:
64,192,51704,1,0,0:0:0:0:
320,192,51814,1,0,0:0:0:0:
448,192,51814,1,0,0:0:0:0:
192,192,51924,1,0,0:0:0:0:
448,192,51924,1,0,0:0:0:0:
448,192,52034,1,0,0:0:0:0:
320,192,52034,1,0,0:0:0:0:
64,192,52034,1,0,0:0:0:0:
192,192,52144,1,0,0:0:0:0:
320,192,52144,1,0,0:0:0:0:
64,192,52255,1,0,0:0:0:0:
448,192,52255,1,0,0:0:0:0:
64,192,52365,1,0,0:0:0:0:
192,192,52365,1,0,0:0:0:0:
192,192,52475,1,0,0:0:0:0:
320,192,52475,1,0,0:0:0:0:
448,192,52475,1,0,0:0:0:0:
64,192,52585,1,0,0:0:0:0:
448,192,52585,1,0,0:0:0:0:
448,192,52695,1,0,0:0:0:0:
192,192,52695,1,0,0:0:0:0:
64,192,52806,1,0,0:0:0:0:
192,192,52806,1,0,0:0:0:0:
448,192,52916,1,0,0:0:0:0:
320,192,52916,1,0,0:0:0:0:
192,192,52916,1,0,0:0:0:0:
64,192,52916,1,0,0:0:0:0:
448,192,53026,1,0,0:0:0:0:
320,192,53026,1,0,0:0:0:0:
320,192,53136,1,0,0:0:0:0:
192,192,53136,1,0,0:0:0:0:
64,192,53246,1,0,0:0:0:0:
192,192,53246,1,0,0:0:0:0:
64,192,53357,1,0,0:0:0:0:
192,192,53357,1,0,0:0:0:0:
320,192,53357,1,0,0:0:0:0:
448,192,53357,1,0,0:0:0:0:
192,192,53467,1,0,0:0:0:0:
448,192,53467,1,0,0:0:0:0:
64,192,53577,1,0,0:0:0:0:
192,192,53577,1,0,0:0:0:0:
320,192,53687,1,0,0:0:0:0:
448,192,53687,1,0,0:0:0:0:
320,192,53797,1,0,0:0:0:0:
192,192,53797,1,0,0:0:0:0:
64,192,53797,1,0,0:0:0:0:
448,192,53908,1,0,0:0:0:0:
192,192,53908,1,0,0:0:0:0:
192,192,54018,1,0,0:0:0:0:
320,192,54018,1,0,0:0:0:0:
64,192,54128,1,0,0:0:0:0:
320,192,54128,1,0,0:0:0:0:
64,192,54238,1,0,0:0:0:0:
448,192,54238,1,0,0:0:0:0:
192,192,54238,1,0,0:0:0:0:
64,192,54348,1,0,0:0:0:0:
320,192,54348,1,0,0:0:0:0:
448,192,54460,1,0,0:0:0:0:
320,192,54460,1,0,0:0:0:0:
448,192,54570,1,0,0:0:0:0:
192,192,54570,1,0,0:0:0:0:
64,192,54680,1,0,0:0:0:0:
448,192,54680,1,0,0:0:0:0:
320,192,54680,1,0,0:0:0:0:
64,192,54790,1,0,0:0:0:0:
192,192,54790,1,0,0:0:0:0:
320,192,54790,1,0,0:0:0:0:
448,192,54900,1,0,0:0:0:0:
192,192,54900,1,0,0:0:0:0:
64,192,54900,1,0,0:0:0:0:
320,192,55011,1,0,0:0:0:0:
448,192,55011,1,0,0:0:0:0:
64,192,55011,1,0,0:0:0:0:
448,192,55121,1,0,0:0:0:0:
192,192,55121,1,0,0:0:0:0:
320,192,55121,1,0,0:0:0:0:
64,192,55231,1,0,0:0:0:0:
320,192,55231,1,0,0:0:0:0:
192,192,55341,1,0,0:0:0:0:
320,192,55341,1,0,0:0:0:0:
64,192,55451,1,0,0:0:0:0:
448,192,55451,1,0,0:0:0:0:
64,192,55562,1,0,0:0:0:0:
192,192,55562,1,0,0:0:0:0:
320,192,55562,1,0,0:0:0:0:
448,192,55562,1,0,0:0:0:0:
64,192,55672,1,0,0:0:0:0:
192,192,55672,1,0,0:0:0:0:
320,192,55782,1,0,0:0:0:0:
448,192,55782,1,0,0:0:0:0:
64,192,55892,1,0,0:0:0:0:
448,192,55892,1,0,0:0:0:0:
64,192,56002,1,0,0:0:0:0:
192,192,56002,1,0,0:0:0:0:
320,192,56002,1,0,0:0:0:0:
192,192,56113,1,0,0:0:0:0:
448,192,56113,1,0,0:0:0:0:
64,192,56223,1,0,0:0:0:0:
320,192,56223,1,0,0:0:0:0:
448,192,56333,1,0,0:0:0:0:
320,192,56333,1,0,0:0:0:0:
192,192,56443,1,0,0:0:0:0:
64,192,56443,1,0,0:0:0:0:
448,192,56443,1,0,0:0:0:0:
320,192,56443,1,0,0:0:0:0:
192,192,56553,1,0,0:0:0:0:
64,192,56553,1,0,0:0:0:0:
64,192,56664,1,0,0:0:0:0:
448,192,56664,1,0,0:0:0:0:
192,192,56774,1,0,0:0:0:0:
320,192,56774,1,0,0:0:0:0:
64,192,56884,1,0,0:0:0:0:
192,192,56884,1,0,0:0:0:0:
320,192,56884,1,0,0:0:0:0:
448,192,56884,1,0,0:0:0:0:
64,192,56994,1,0,0:0:0:0:
192,192,56994,1,0,0:0:0:0:
448,192,57104,1,0,0:0:0:0:
64,192,57104,1,0,0:0:0:0:
320,192,57215,1,0,0:0:0:0:
192,192,57215,1,0,0:0:0:0:
64,192,57325,1,0,0:0:0:0:
192,192,57325,1,0,0:0:0:0:
448,192,57325,1,0,0:0:0:0:
448,192,57435,1,0,0:0:0:0:
320,192,57435,1,0,0:0:0:0:
64,192,57545,1,0,0:0:0:0:
192,192,57545,1,0,0:0:0:0:
448,192,57655,1,0,0:0:0:0:
192,192,57655,1,0,0:0:0:0:
64,192,57766,1,0,0:0:0:0:
448,192,57766,1,0,0:0:0:0:
320,192,57766,1,0,0:0:0:0:
64,192,57876,1,0,0:0:0:0:
192,192,57876,1,0,0:0:0:0:
448,192,57986,1,0,0:0:0:0:
320,192,57986,1,0,0:0:0:0:
64,192,58096,1,0,0:0:0:0:
448,192,58096,1,0,0:0:0:0:
320,192,58206,1,0,0:0:0:0:
192,192,58206,1,0,0:0:0:0:
64,192,58206,1,0,0:0:0:0:
448,192,58206,1,0,0:0:0:0:
192,192,58317,1,0,0:0:0:0:
320,192,58317,1,0,0:0:0:0:
448,192,58427,1,0,0:0:0:0:
192,192,58427,1,0,0:0:0:0:
64,192,58537,1,0,0:0:0:0:
320,192,58537,1,0,0:0:0:0:
448,192,58647,1,0,0:0:0:0:
320,192,58647,1,0,0:0:0:0:
192,192,58647,1,0,0:0:0:0:
64,192,58647,1,0,0:0:0:0:
192,192,58757,1,0,0:0:0:0:
448,192,58757,1,0,0:0:0:0:
320,192,58868,1,0,0:0:0:0:
192,192,58868,1,0,0:0:0:0:
64,192,58978,1,0,0:0:0:0:
448,192,58978,1,0,0:0:0:0:
192,192,59088,1,0,0:0:0:0:
320,192,59088,1,0,0:0:0:0:
448,192,59088,1,0,0:0:0:0:
64,192,59198,1,0,0:0:0:0:
320,192,59198,1,0,0:0:0:0:
192,192,59308,1,0,0:0:0:0:
320,192,59308,1,0,0:0:0:0:
448,192,59420,1,0,0:0:0:0:
192,192,59420,1,0,0:0:0:0:
64,192,59530,1,0,0:0:0:0:
448,192,59530,1,0,0:0:0:0:
320,192,59530,1,0,0:0:0:0:
192,192,59640,1,0,0:0:0:0:
320,192,59640,1,0,0:0:0:0:
64,192,59750,1,0,0:0:0:0:
448,192,59750,1,0,0:0:0:0:
448,192,59860,1,0,0:0:0:0:
320,192,59860,1,0,0:0:0:0:
192,192,59971,1,0,0:0:0:0:
64,192,59971,1,0,0:0:0:0:
320,192,59971,1,0,0:0:0:0:
448,192,59971,1,0,0:0:0:0:
64,192,60081,1,0,0:0:0:0:
192,192,60081,1,0,0:0:0:0:
64,192,60191,1,0,0:0:0:0:
320,192,60191,1,0,0:0:0:0:
448,192,60301,1,0,0:0:0:0:
192,192,60301,1,0,0:0:0:0:
448,192,60411,1,0,0:0:0:0:
320,192,60411,1,0,0:0:0:0:
192,192,60411,1,0,0:0:0:0:
64,192,60411,1,0,0:0:0:0:
448,192,60522,1,0,0:0:0:0:
64,192,60522,1,0,0:0:0:0:
192,192,60632,1,0,0:0:0:0:
320,192,60632,1,0,0:0:0:0:
64,192,60742,1,0,0:0:0:0:
320,192,60742,1,0,0:0:0:0:
448,192,60852,1,0,0:0:0:0:
192,192,60852,1,0,0:0:0:0:
320,192,60852,1,0,0:0:0:0:
64,192,60962,1,0,0:0:0:0:
448,192,60962,1,0,0:0:0:0:
320,192,61073,1,0,0:0:0:0:
448,192,61073,1,0,0:0:0:0:
192,192,61183,1,0,0:0:0:0:
64,192,61183,1,0,0:0:0:0:
64,192,61293,1,0,0:0:0:0:
448,192,61293,1,0,0:0:0:0:
320,192,61293,1,0,0:0:0:0:
192,192,61403,1,0,0:0:0:0:
320,192,61403,1,0,0:0:0:0:
64,192,61513,1,0,0:0:0:0:
320,192,61513,1,0,0:0:0:0:
448,192,61624,1,0,0:0:0:0:
192,192,61624,1,0,0:0:0:0:
64,192,61734,1,0,0:0:0:0:
320,192,61734,1,0,0:0:0:0:
448,192,61734,1,0,0:0:0:0:
192,192,61844,1,0,0:0:0:0:
64,192,61844,1,0,0:0:0:0:
192,192,61954,1,0,0:0:0:0:
320,192,61954,1,0,0:0:0:0:
448,192,62064,1,0,0:0:0:0:
192,192,62064,1,0,0:0:0:0:
320,192,62175,1,0,0:0:0:0:
64,192,62175,1,0,0:0:0:0:
64,192,62285,1,0,0:0:0:0:
448,192,62285,1,0,0:0:0:0:
320,192,62395,1,0,0:0:0:0:
192,192,62395,1,0,0:0:0:0:
320,192,62505,1,0,0:0:0:0:
64,192,62505,1,0,0:0:0:0:
192,192,62615,1,0,0:0:0:0:
448,192,62615,1,0,0:0:0:0:
320,192,62726,1,0,0:0:0:0:
192,192,62726,1,0,0:0:0:0:
64,192,62836,1,0,0:0:0:0:
448,192,62836,1,0,0:0:0:0:
192,192,62946,1,0,0:0:0:0:
64,192,62946,1,0,0:0:0:0:
448,192,63056,1,0,0:0:0:0:
320,192,63056,1,0,0:0:0:0:
64,192,63166,1,0,0:0:0:0:
320,192,63166,1,0,0:0:0:0:
448,192,63277,1,0,0:0:0:0:
192,192,63277,1,0,0:0:0:0:
192,192,63387,1,0,0:0:0:0:
64,192,63387,1,0,0:0:0:0:
320,192,63497,1,0,0:0:0:0:
448,192,63497,1,0,0:0:0:0:
64,192,63497,1,0,0:0:0:0:
320,192,63717,1,0,0:0:0:0:
320,192,63938,1,0,0:0:0:0:
192,192,63938,1,0,0:0:0:0:
448,192,63938,1,0,0:0:0:0:
64,192,64048,1,0,0:0:0:0:
320,192,64158,1,0,0:0:0:0:
64,192,64380,1,0,0:0:0:0:
320,192,64380,1,0,0:0:0:0:
448,192,64380,1,0,0:0:0:0:
448,192,64600,1,0,0:0:0:0:
320,192,64820,1,0,0:0:0:0:
192,192,64820,1,0,0:0:0:0:
64,192,64820,1,0,0:0:0:0:
64,192,65041,1,0,0:0:0:0:
192,192,65261,1,0,0:0:0:0:
320,192,65261,1,0,0:0:0:0:
448,192,65261,1,0,0:0:0:0:
320,192,65482,1,0,0:0:0:0:
320,192,65702,1,0,0:0:0:0:
448,192,65702,1,0,0:0:0:0:
64,192,65702,1,0,0:0:0:0:
192,192,65812,1,0,0:0:0:0:
448,192,65922,1,0,0:0:0:0:
320,192,66143,1,0,0:0:0:0:
192,192,66143,1,0,0:0:0:0:
64,192,66143,1,0,0:0:0:0:
64,192,66363,1,0,0:0:0:0:
320,192,66584,1,0,0:0:0:0:
448,192,66584,1,0,0:0:0:0:
64,192,66584,1,0,0:0:0:0:
320,192,66804,1,0,0:0:0:0:
448,192,67024,1,0,0:0:0:0:
192,192,67024,1,0,0:0:0:0:
64,192,67024,1,0,0:0:0:0:
320,192,67135,1,0,0:0:0:0:
320,192,67245,1,0,0:0:0:0:
192,192,67245,1,0,0:0:0:0:
64,192,67245,1,0,0:0:0:0:
448,192,67355,1,0,0:0:0:0:
192,192,67465,1,0,0:0:0:0:
320,192,67465,1,0,0:0:0:0:
448,192,67465,1,0,0:0:0:0:
64,192,67575,1,0,0:0:0:0:
192,192,67686,1,0,0:0:0:0:
448,192,67686,1,0,0:0:0:0:
64,192,67686,1,0,0:0:0:0:
320,192,67796,1,0,0:0:0:0:
448,192,67906,1,0,0:0:0:0:
320,192,67906,1,0,0:0:0:0:
64,192,67906,1,0,0:0:0:0:
192,192,68016,1,0,0:0:0:0:
64,192,68126,1,0,0:0:0:0:
192,192,68126,1,0,0:0:0:0:
448,192,68126,1,0,0:0:0:0:
320,192,68237,1,0,0:0:0:0:
320,192,68347,1,0,0:0:0:0:
192,192,68347,1,0,0:0:0:0:
64,192,68347,1,0,0:0:0:0:
448,192,68457,1,0,0:0:0:0:
448,192,68567,1,0,0:0:0:0:
192,192,68567,1,0,0:0:0:0:
64,192,68567,1,0,0:0:0:0:
320,192,68677,1,0,0:0:0:0:
448,192,68788,1,0,0:0:0:0:
320,192,68788,1,0,0:0:0:0:
192,192,68788,1,0,0:0:0:0:
192,192,69008,1,0,0:0:0:0:
448,192,69228,1,0,0:0:0:0:
320,192,69228,1,0,0:0:0:0:
64,192,69228,1,0,0:0:0:0:
64,192,69450,128,0,69477:0:0:0:0:
192,192,69560,128,0,69587:0:0:0:0:
64,192,69670,128,0,69891:0:0:0:0:
320,192,69670,128,0,69891:0:0:0:0:
448,192,69670,128,0,70001:0:0:0:0:
320,192,70001,128,0,70331:0:0:0:0:
192,192,70001,128,0,70331:0:0:0:0:
64,192,70001,128,0,70331:0:0:0:0:
192,192,70552,1,0,0:0:0:0:
320,192,70552,1,0,0:0:0:0:
448,192,70552,1,0,0:0:0:0:
64,192,70772,1,0,0:0:0:0:
64,192,70993,1,0,0:0:0:0:
192,192,70993,1,0,0:0:0:0:
320,192,70993,1,0,0:0:0:0:
448,192,71103,1,0,0:0:0:0:
192,192,71213,1,0,0:0:0:0:
64,192,71433,1,0,0:0:0:0:
448,192,71433,1,0,0:0:0:0:
320,192,71433,1,0,0:0:0:0:
448,192,71654,1,0,0:0:0:0:
320,192,71874,1,0,0:0:0:0:
192,192,71874,1,0,0:0:0:0:
64,192,71874,1,0,0:0:0:0:
192,192,72095,1,0,0:0:0:0:
320,192,72315,1,0,0:0:0:0:
448,192,72315,1,0,0:0:0:0:
192,192,72315,1,0,0:0:0:0:
64,192,72535,1,0,0:0:0:0:
64,192,72756,1,0,0:0:0:0:
192,192,72756,1,0,0:0:0:0:
448,192,72756,1,0,0:0:0:0:
320,192,72866,1,0,0:0:0:0:
192,192,72976,1,0,0:0:0:0:
320,192,73197,1,0,0:0:0:0:
448,192,73197,1,0,0:0:0:0:
64,192,73197,1,0,0:0:0:0:
448,192,73417,1,0,0:0:0:0:
320,192,73637,1,0,0:0:0:0:
192,192,73637,1,0,0:0:0:0:
64,192,73637,1,0,0:0:0:0:
64,192,73858,1,0,0:0:0:0:
192,192,74078,1,0,0:0:0:0:
320,192,74078,1,0,0:0:0:0:
448,192,74078,1,0,0:0:0:0:
64,192,74188,1,0,0:0:0:0:
448,192,74300,1,0,0:0:0:0:
64,192,74300,1,0,0:0:0:0:
192,192,74300,1,0,0:0:0:0:
320,192,74410,1,0,0:0:0:0:
192,192,74520,1,0,0:0:0:0:
320,192,74520,1,0,0:0:0:0:
448,192,74520,1,0,0:0:0:0:
64,192,74630,1,0,0:0:0:0:
64,192,74740,1,0,0:0:0:0:
320,192,74740,1,0,0:0:0:0:
448,192,74740,1,0,0:0:0:0:
192,192,74850,1,0,0:0:0:0:
64,192,74961,1,0,0:0:0:0:
192,192,74961,1,0,0:0:0:0:
320,192,74961,1,0,0:0:0:0:
448,192,75071,1,0,0:0:0:0:
320,192,75181,1,0,0:0:0:0:
448,192,75181,1,0,0:0:0:0:
64,192,75181,1,0,0:0:0:0:
192,192,75291,1,0,0:0:0:0:
192,192,75401,1,0,0:0:0:0:
320,192,75401,1,0,0:0:0:0:
448,192,75401,1,0,0:0:0:0:
64,192,75512,1,0,0:0:0:0:
64,192,75622,1,0,0:0:0:0:
448,192,75622,1,0,0:0:0:0:
320,192,75622,1,0,0:0:0:0:
192,192,75732,1,0,0:0:0:0:
64,192,75842,1,0,0:0:0:0:
192,192,75842,1,0,0:0:0:0:
320,192,75842,128,0,76283:0:0:0:0:
64,192,76283,1,0,0:0:0:0:
448,192,76283,1,0,0:0:0:0:
192,192,76503,128,0,76944:0:0:0:0:
320,192,76503,1,0,0:0:0:0:
64,192,76944,1,0,0:0:0:0:
448,192,76944,1,0,0:0:0:0:
192,192,77165,1,0,0:0:0:0:
320,192,77165,1,0,0:0:0:0:
64,192,77385,1,0,0:0:0:0:
448,192,77385,1,0,0:0:0:0:
192,192,77605,1,0,0:0:0:0:
320,192,77605,1,0,0:0:0:0:
448,192,77605,1,0,0:0:0:0:
64,192,77605,128,0,77826:0:0:0:0:
448,192,78046,128,0,78267:0:0:0:0:
192,192,78046,1,0,0:0:0:0:
320,192,78046,1,0,0:0:0:0:
64,192,78046,1,0,0:0:0:0:
448,192,78377,128,0,78597:0:0:0:0:
192,192,78487,1,0,0:0:0:0:
64,192,78487,1,0,0:0:0:0:
448,192,78707,128,0,78928:0:0:0:0:
320,192,78928,1,0,0:0:0:0:
192,192,78928,1,0,0:0:0:0:
64,192,78928,1,0,0:0:0:0:
448,192,79038,128,0,79258:0:0:0:0:
320,192,79370,128,0,79590:0:0:0:0:
448,192,79370,1,0,0:0:0:0:
64,192,79370,1,0,0:0:0:0:
192,192,79810,128,0,80031:0:0:0:0:
64,192,79810,1,0,0:0:0:0:
320,192,79810,1,0,0:0:0:0:
448,192,79810,1,0,0:0:0:0:
192,192,80141,128,0,80361:0:0:0:0:
320,192,80251,1,0,0:0:0:0:
64,192,80251,1,0,0:0:0:0:
192,192,80472,128,0,80692:0:0:0:0:
320,192,80692,1,0,0:0:0:0:
448,192,80692,1,0,0:0:0:0:
64,192,80692,1,0,0:0:0:0:
192,192,80802,128,0,81023:0:0:0:0:
448,192,81133,128,0,81353:0:0:0:0:
320,192,81133,1,0,0:0:0:0:
64,192,81133,1,0,0:0:0:0:
64,192,81574,128,0,81794:0:0:0:0:
192,192,81574,1,0,0:0:0:0:
320,192,81574,1,0,0:0:0:0:
448,192,81574,1,0,0:0:0:0:
64,192,81904,128,0,82125:0:0:0:0:
320,192,82014,1,0,0:0:0:0:
192,192,82014,1,0,0:0:0:0:
64,192,82235,128,0,82455:0:0:0:0:
192,192,82455,1,0,0:0:0:0:
320,192,82455,1,0,0:0:0:0:
448,192,82455,1,0,0:0:0:0:
64,192,82565,128,0,82786:0:0:0:0:
192,192,82896,128,0,83116:0:0:0:0:
320,192,82896,1,0,0:0:0:0:
448,192,82896,1,0,0:0:0:0:
320,192,83337,128,0,83557:0:0:0:0:
448,192,83337,1,0,0:0:0:0:
64,192,83337,1,0,0:0:0:0:
192,192,83337,1,0,0:0:0:0:
320,192,83667,128,0,83888:0:0:0:0:
192,192,83778,1,0,0:0:0:0:
64,192,83778,1,0,0:0:0:0:
320,192,83998,128,0,84218:0:0:0:0:
448,192,84218,1,0,0:0:0:0:
192,192,84218,1,0,0:0:0:0:
64,192,84218,1,0,0:0:0:0:
320,192,84330,128,0,84550:0:0:0:0:
448,192,84660,128,0,84881:0:0:0:0:
64,192,84660,1,0,0:0:0:0:
192,192,84660,1,0,0:0:0:0:
192,192,85101,128,0,85321:0:0:0:0:
448,192,85101,1,0,0:0:0:0:
320,192,85101,1,0,0:0:0:0:
64,192,85101,1,0,0:0:0:0:
192,192,85432,128,0,85652:0:0:0:0:
64,192,85542,1,0,0:0:0:0:
448,192,85542,1,0,0:0:0:0:
192,192,85762,128,0,85983:0:0:0:0:
448,192,85983,1,0,0:0:0:0:
320,192,85983,1,0,0:0:0:0:
64,192,85983,1,0,0:0:0:0:
192,192,86093,128,0,86313:0:0:0:0:
448,192,86423,128,0,86644:0:0:0:0:
320,192,86423,1,0,0:0:0:0:
64,192,86423,1,0,0:0:0:0:
64,192,86864,128,0,87085:0:0:0:0:
192,192,86864,1,0,0:0:0:0:
320,192,86864,1,0,0:0:0:0:
448,192,86864,1,0,0:0:0:0:
64,192,87195,128,0,87415:0:0:0:0:
192,192,87305,1,0,0:0:0:0:
320,192,87305,1,0,0:0:0:0:
64,192,87525,128,0,87746:0:0:0:0:
192,192,87746,1,0,0:0:0:0:
448,192,87746,1,0,0:0:0:0:
320,192,87746,1,0,0:0:0:0:
64,192,87856,128,0,88076:0:0:0:0:
192,192,88187,128,0,88407:0:0:0:0:
320,192,88187,1,0,0:0:0:0:
448,192,88187,1,0,0:0:0:0:
448,192,88627,128,0,88848:0:0:0:0:
320,192,88627,1,0,0:0:0:0:
64,192,88627,1,0,0:0:0:0:
448,192,88958,128,0,89178:0:0:0:0:
64,192,89068,1,0,0:0:0:0:
192,192,89068,1,0,0:0:0:0:
320,192,89068,1,0,0:0:0:0:
448,192,89290,128,0,89510:0:0:0:0:
64,192,89510,1,0,0:0:0:0:
320,192,89510,1,0,0:0:0:0:
448,192,89620,128,0,89841:0:0:0:0:
192,192,89951,1,0,0:0:0:0:
64,192,89951,1,0,0:0:0:0:
320,192,89951,1,0,0:0:0:0:
448,192,90392,1,0,0:0:0:0:
320,192,90392,1,0,0:0:0:0:
192,192,90392,1,0,0:0:0:0:
64,192,90832,1,0,0:0:0:0:
192,192,90832,1,0,0:0:0:0:
448,192,90832,1,0,0:0:0:0:
448,192,91273,1,0,0:0:0:0:
320,192,91273,1,0,0:0:0:0:
64,192,91273,1,0,0:0:0:0:
64,192,91714,1,0,0:0:0:0:
192,192,91714,1,0,0:0:0:0:
320,192,91714,1,0,0:0:0:0:
448,192,91714,1,0,0:0:0:0:
64,192,92155,1,0,0:0:0:0:
320,192,92155,1,0,0:0:0:0:
192,192,92596,1,0,0:0:0:0:
320,192,92596,1,0,0:0:0:0:
448,192,92596,1,0,0:0:0:0:
64,192,92816,1,0,0:0:0:0:
448,192,92816,1,0,0:0:0:0:
64,192,93036,1,0,0:0:0:0:
192,192,93036,1,0,0:0:0:0:
320,192,93036,1,0,0:0:0:0:
448,192,93257,1,0,0:0:0:0:
320,192,93257,1,0,0:0:0:0:
64,192,93477,1,0,0:0:0:0:
192,192,93477,1,0,0:0:0:0:
320,192,93477,1,0,0:0:0:0:
448,192,93477,1,0,0:0:0:0:
192,192,93587,1,0,0:0:0:0:
320,192,93587,1,0,0:0:0:0:
64,192,93587,1,0,0:0:0:0:
64,192,93698,1,0,0:0:0:0:
192,192,93698,1,0,0:0:0:0:
448,192,93698,1,0,0:0:0:0:
448,192,93808,1,0,0:0:0:0:
320,192,93808,1,0,0:0:0:0:
192,192,93808,1,0,0:0:0:0:
64,192,93918,1,0,0:0:0:0:
192,192,93918,1,0,0:0:0:0:
320,192,93918,1,0,0:0:0:0:
448,192,93918,1,0,0:0:0:0:
64,192,94028,1,0,0:0:0:0:
320,192,94028,1,0,0:0:0:0:
448,192,94028,1,0,0:0:0:0:
448,192,94138,1,0,0:0:0:0:
64,192,94138,1,0,0:0:0:0:
192,192,94138,1,0,0:0:0:0:
192,192,94250,1,0,0:0:0:0:
448,192,94250,1,0,0:0:0:0:
320,192,94250,1,0,0:0:0:0:
448,192,94360,1,0,0:0:0:0:
320,192,94360,1,0,0:0:0:0:
192,192,94360,1,0,0:0:0:0:
64,192,94360,1,0,0:0:0:0:
64,192,94470,1,0,0:0:0:0:
192,192,94470,1,0,0:0:0:0:
448,192,94470,1,0,0:0:0:0:
448,192,94580,1,0,0:0:0:0:
320,192,94580,1,0,0:0:0:0:
192,192,94580,1,0,0:0:0:0:
64,192,94690,1,0,0:0:0:0:
192,192,94690,1,0,0:0:0:0:
320,192,94690,1,0,0:0:0:0:
448,192,94801,1,0,0:0:0:0:
320,192,94801,1,0,0:0:0:0:
192,192,94801,1,0,0:0:0:0:
64,192,94801,1,0,0:0:0:0:
448,192,94911,1,0,0:0:0:0:
192,192,94911,1,0,0:0:0:0:
64,192,94911,1,0,0:0:0:0:
320,192,95021,1,0,0:0:0:0:
448,192,95021,1,0,0:0:0:0:
64,192,95021,1,0,0:0:0:0:
192,192,95131,1,0,0:0:0:0:
320,192,95131,1,0,0:0:0:0:
448,192,95241,1,0,0:0:0:0:
320,192,95241,1,0,0:0:0:0:
192,192,95241,1,0,0:0:0:0:
64,192,95241,1,0,0:0:0:0:
64,192,95352,1,0,0:0:0:0:
320,192,95352,1,0,0:0:0:0:
448,192,95462,1,0,0:0:0:0:
192,192,95462,1,0,0:0:0:0:
64,192,95462,1,0,0:0:0:0:
192,192,95572,1,0,0:0:0:0:
320,192,95572,1,0,0:0:0:0:
320,192,95682,1,0,0:0:0:0:
192,192,95682,1,0,0:0:0:0:
64,192,95682,1,0,0:0:0:0:
448,192,95682,1,0,0:0:0:0:
448,192,95792,1,0,0:0:0:0:
64,192,95792,1,0,0:0:0:0:
192,192,95903,1,0,0:0:0:0:
320,192,95903,1,0,0:0:0:0:
448,192,95903,1,0,0:0:0:0:
192,192,96013,1,0,0:0:0:0:
64,192,96013,1,0,0:0:0:0:
64,192,96123,1,0,0:0:0:0:
192,192,96123,1,0,0:0:0:0:
320,192,96123,1,0,0:0:0:0:
448,192,96123,1,0,0:0:0:0:
448,192,96233,1,0,0:0:0:0:
192,192,96233,1,0,0:0:0:0:
64,192,96343,1,0,0:0:0:0:
320,192,96343,1,0,0:0:0:0:
192,192,96343,1,0,0:0:0:0:
64,192,96454,1,0,0:0:0:0:
448,192,96454,1,0,0:0:0:0:
448,192,96564,1,0,0:0:0:0:
320,192,96564,1,0,0:0:0:0:
192,192,96564,1,0,0:0:0:0:
64,192,96564,1,0,0:0:0:0:
192,192,96674,1,0,0:0:0:0:
320,192,96674,1,0,0:0:0:0:
448,192,96784,1,0,0:0:0:0:
320,192,96784,1,0,0:0:0:0:
64,192,96784,1,0,0:0:0:0:
192,192,96894,1,0,0:0:0:0:
64,192,96894,1,0,0:0:0:0:
448,192,97005,1,0,0:0:0:0:
320,192,97005,1,0,0:0:0:0:
192,192,97005,1,0,0:0:0:0:
64,192,97005,1,0,0:0:0:0:
192,192,97115,1,0,0:0:0:0:
320,192,97115,1,0,0:0:0:0:
448,192,97115,1,0,0:0:0:0:
64,192,97225,1,0,0:0:0:0:
320,192,97225,1,0,0:0:0:0:
448,192,97225,1,0,0:0:0:0:
64,192,97335,1,0,0:0:0:0:
192,192,97335,1,0,0:0:0:0:
448,192,97335,1,0,0:0:0:0:
320,192,97445,1,0,0:0:0:0:
448,192,97445,1,0,0:0:0:0:
64,192,97445,1,0,0:0:0:0:
192,192,97445,1,0,0:0:0:0:
320,192,97556,1,0,0:0:0:0:
192,192,97556,1,0,0:0:0:0:
64,192,97556,1,0,0:0:0:0:
448,192,97666,1,0,0:0:0:0:
192,192,97666,1,0,0:0:0:0:
320,192,97666,1,0,0:0:0:0:
64,192,97776,1,0,0:0:0:0:
192,192,97776,1,0,0:0:0:0:
448,192,97776,1,0,0:0:0:0:
448,192,97886,1,0,0:0:0:0:
320,192,97886,1,0,0:0:0:0:
192,192,97886,1,0,0:0:0:0:
64,192,97886,1,0,0:0:0:0:
320,192,97996,1,0,0:0:0:0:
192,192,97996,1,0,0:0:0:0:
64,192,97996,1,0,0:0:0:0:
448,192,98107,1,0,0:0:0:0:
192,192,98107,1,0,0:0:0:0:
64,192,98107,1,0,0:0:0:0:
320,192,98217,1,0,0:0:0:0:
448,192,98217,1,0,0:0:0:0:
64,192,98327,1,0,0:0:0:0:
192,192,98327,1,0,0:0:0:0:
320,192,98327,1,0,0:0:0:0:
448,192,98327,1,0,0:0:0:0:
64,192,98437,1,0,0:0:0:0:
192,192,98437,1,0,0:0:0:0:
448,192,98547,1,0,0:0:0:0:
320,192,98547,1,0,0:0:0:0:
192,192,98547,1,0,0:0:0:0:
64,192,98658,1,0,0:0:0:0:
320,192,98658,1,0,0:0:0:0:
448,192,98768,1,0,0:0:0:0:
320,192,98768,1,0,0:0:0:0:
64,192,98768,1,0,0:0:0:0:
192,192,98768,1,0,0:0:0:0:
192,192,98878,1,0,0:0:0:0:
448,192,98878,1,0,0:0:0:0:
320,192,98988,1,0,0:0:0:0:
192,192,98988,1,0,0:0:0:0:
64,192,98988,1,0,0:0:0:0:
448,192,99098,1,0,0:0:0:0:
64,192,99098,1,0,0:0:0:0:
192,192,99210,1,0,0:0:0:0:
320,192,99210,1,0,0:0:0:0:
448,192,99210,1,0,0:0:0:0:
64,192,99210,1,0,0:0:0:0:
448,192,99320,1,0,0:0:0:0:
320,192,99320,1,0,0:0:0:0:
64,192,99430,1,0,0:0:0:0:
192,192,99430,1,0,0:0:0:0:
320,192,99430,1,0,0:0:0:0:
64,192,99540,1,0,0:0:0:0:
192,192,99540,1,0,0:0:0:0:
448,192,99650,1,0,0:0:0:0:
320,192,99650,1,0,0:0:0:0:
192,192,99650,1,0,0:0:0:0:
64,192,99650,1,0,0:0:0:0:
64,192,99761,1,0,0:0:0:0:
320,192,99761,1,0,0:0:0:0:
448,192,99871,1,0,0:0:0:0:
320,192,99871,1,0,0:0:0:0:
192,192,99871,1,0,0:0:0:0:
192,192,99981,1,0,0:0:0:0:
320,192,99981,1,0,0:0:0:0:
448,192,100091,1,0,0:0:0:0:
320,192,100091,1,0,0:0:0:0:
192,192,100091,1,0,0:0:0:0:
64,192,100091,1,0,0:0:0:0:
64,192,100201,1,0,0:0:0:0:
448,192,100201,1,0,0:0:0:0:
64,192,100311,1,0,0:0:0:0:
192,192,100311,1,0,0:0:0:0:
320,192,100311,1,0,0:0:0:0:
192,192,100422,1,0,0:0:0:0:
448,192,100422,1,0,0:0:0:0:
448,192,100532,1,0,0:0:0:0:
320,192,100532,1,0,0:0:0:0:
64,192,100532,1,0,0:0:0:0:
192,192,100532,1,0,0:0:0:0:
64,192,100642,1,0,0:0:0:0:
192,192,100642,1,0,0:0:0:0:
448,192,100752,1,0,0:0:0:0:
192,192,100752,1,0,0:0:0:0:
320,192,100752,1,0,0:0:0:0:
448,192,100862,1,0,0:0:0:0:
320,192,100862,1,0,0:0:0:0:
64,192,100973,1,0,0:0:0:0:
192,192,100973,1,0,0:0:0:0:
320,192,100973,1,0,0:0:0:0:
448,192,100973,1,0,0:0:0:0:
320,192,101083,1,0,0:0:0:0:
64,192,101083,1,0,0:0:0:0:
192,192,101193,1,0,0:0:0:0:
320,192,101193,1,0,0:0:0:0:
64,192,101193,1,0,0:0:0:0:
448,192,101303,1,0,0:0:0:0:
192,192,101303,1,0,0:0:0:0:
448,192,101413,1,0,0:0:0:0:
320,192,101413,1,0,0:0:0:0:
192,192,101413,1,0,0:0:0:0:
64,192,101413,1,0,0:0:0:0:
192,192,101524,1,0,0:0:0:0:
448,192,101524,1,0,0:0:0:0:
192,192,101634,1,0,0:0:0:0:
64,192,101634,1,0,0:0:0:0:
320,192,101634,1,0,0:0:0:0:
64,192,101744,1,0,0:0:0:0:
192,192,101744,1,0,0:0:0:0:
64,192,101854,1,0,0:0:0:0:
192,192,101854,1,0,0:0:0:0:
320,192,101854,1,0,0:0:0:0:
448,192,101854,1,0,0:0:0:0:
320,192,101964,1,0,0:0:0:0:
448,192,101964,1,0,0:0:0:0:
448,192,102075,1,0,0:0:0:0:
320,192,102075,1,0,0:0:0:0:
64,192,102075,1,0,0:0:0:0:
192,192,102185,1,0,0:0:0:0:
320,192,102185,1,0,0:0:0:0:
448,192,102295,1,0,0:0:0:0:
320,192,102295,1,0,0:0:0:0:
192,192,102295,1,0,0:0:0:0:
64,192,102295,1,0,0:0:0:0:
448,192,102405,1,0,0:0:0:0:
64,192,102405,1,0,0:0:0:0:
448,192,102515,1,0,0:0:0:0:
64,192,102515,1,0,0:0:0:0:
192,192,102515,1,0,0:0:0:0:
320,192,102626,1,0,0:0:0:0:
64,192,102626,1,0,0:0:0:0:
448,192,102736,1,0,0:0:0:0:
320,192,102736,1,0,0:0:0:0:
192,192,102736,1,0,0:0:0:0:
64,192,102736,1,0,0:0:0:0:
448,192,102846,1,0,0:0:0:0:
320,192,102846,1,0,0:0:0:0:
192,192,102956,1,0,0:0:0:0:
64,192,102956,1,0,0:0:0:0:
448,192,102956,1,0,0:0:0:0:
64,192,103066,1,0,0:0:0:0:
320,192,103066,1,0,0:0:0:0:
320,192,103177,1,0,0:0:0:0:
448,192,103177,1,0,0:0:0:0:
64,192,103177,1,0,0:0:0:0:
192,192,103177,1,0,0:0:0:0:
192,192,103287,1,0,0:0:0:0:
448,192,103287,1,0,0:0:0:0:
448,192,103397,1,0,0:0:0:0:
320,192,103397,1,0,0:0:0:0:
192,192,103397,1,0,0:0:0:0:
64,192,103507,1,0,0:0:0:0:
192,192,103507,1,0,0:0:0:0:
64,192,103617,1,0,0:0:0:0:
192,192,103617,1,0,0:0:0:0:
320,192,103617,1,0,0:0:0:0:
448,192,103617,1,0,0:0:0:0:
64,192,103728,1,0,0:0:0:0:
320,192,103728,1,0,0:0:0:0:
448,192,103838,1,0,0:0:0:0:
320,192,103838,1,0,0:0:0:0:
192,192,103838,1,0,0:0:0:0:
64,192,103948,1,0,0:0:0:0:
192,192,103948,1,0,0:0:0:0:
448,192,104058,1,0,0:0:0:0:
320,192,104058,1,0,0:0:0:0:
64,192,104058,1,0,0:0:0:0:
192,192,104058,1,0,0:0:0:0:
64,192,104168,1,0,0:0:0:0:
192,192,104168,1,0,0:0:0:0:
320,192,104168,1,0,0:0:0:0:
448,192,104280,1,0,0:0:0:0:
320,192,104280,1,0,0:0:0:0:
192,192,104280,1,0,0:0:0:0:
64,192,104390,1,0,0:0:0:0:
192,192,104390,1,0,0:0:0:0:
448,192,104390,1,0,0:0:0:0:
448,192,104500,1,0,0:0:0:0:
320,192,104500,1,0,0:0:0:0:
192,192,104500,1,0,0:0:0:0:
64,192,104500,1,0,0:0:0:0:
192,192,104610,1,0,0:0:0:0:
320,192,104610,1,0,0:0:0:0:
448,192,104720,1,0,0:0:0:0:
320,192,104720,1,0,0:0:0:0:
64,192,104720,1,0,0:0:0:0:
64,192,104831,1,0,0:0:0:0:
192,192,104831,1,0,0:0:0:0:
448,192,104941,1,0,0:0:0:0:
320,192,104941,1,0,0:0:0:0:
192,192,104941,1,0,0:0:0:0:
64,192,104941,1,0,0:0:0:0:
448,192,105051,1,0,0:0:0:0:
320,192,105051,1,0,0:0:0:0:
64,192,105051,1,0,0:0:0:0:
64,192,105161,1,0,0:0:0:0:
192,192,105161,1,0,0:0:0:0:
448,192,105161,1,0,0:0:0:0:
448,192,105271,1,0,0:0:0:0:
320,192,105271,1,0,0:0:0:0:
192,192,105271,1,0,0:0:0:0:
64,192,105382,1,0,0:0:0:0:
192,192,105382,1,0,0:0:0:0:
320,192,105382,1,0,0:0:0:0:
448,192,105382,1,0,0:0:0:0:
320,192,105492,1,0,0:0:0:0:
448,192,105492,1,0,0:0:0:0:
64,192,105492,1,0,0:0:0:0:
64,192,105602,1,0,0:0:0:0:
192,192,105602,1,0,0:0:0:0:
320,192,105602,1,0,0:0:0:0:
448,192,105712,1,0,0:0:0:0:
320,192,105712,1,0,0:0:0:0:
192,192,105712,1,0,0:0:0:0:
64,192,105822,1,0,0:0:0:0:
192,192,105822,1,0,0:0:0:0:
320,192,105822,1,0,0:0:0:0:
448,192,105822,1,0,0:0:0:0:
64,192,112876,5,0,0:0:0:0:
448,192,112876,1,0,0:0:0:0:
320,192,112876,1,0,0:0:0:0:
64,192,112986,1,0,0:0:0:0:
320,192,112986,1,0,0:0:0:0:
320,192,113097,1,0,0:0:0:0:
192,192,113097,1,0,0:0:0:0:
64,192,113207,1,0,0:0:0:0:
448,192,113207,1,0,0:0:0:0:
320,192,113317,1,0,0:0:0:0:
192,192,113317,1,0,0:0:0:0:
448,192,113317,1,0,0:0:0:0:
64,192,113427,1,0,0:0:0:0:
192,192,113427,1,0,0:0:0:0:
192,192,113537,1,0,0:0:0:0:
448,192,113537,1,0,0:0:0:0:
448,192,113648,1,0,0:0:0:0:
320,192,113648,1,0,0:0:0:0:
64,192,113758,1,0,0:0:0:0:
192,192,113758,1,0,0:0:0:0:
320,192,113758,1,0,0:0:0:0:
448,192,113868,1,0,0:0:0:0:
192,192,113868,1,0,0:0:0:0:
320,192,113978,1,0,0:0:0:0:
192,192,113978,1,0,0:0:0:0:
320,192,114088,1,0,0:0:0:0:
64,192,114088,1,0,0:0:0:0:
448,192,114200,1,0,0:0:0:0:
320,192,114200,1,0,0:0:0:0:
192,192,114200,1,0,0:0:0:0:
64,192,114310,1,0,0:0:0:0:
192,192,114310,1,0,0:0:0:0:
192,192,114420,1,0,0:0:0:0:
320,192,114420,1,0,0:0:0:0:
448,192,114530,1,0,0:0:0:0:
320,192,114530,1,0,0:0:0:0:
192,192,114640,1,0,0:0:0:0:
64,192,114640,1,0,0:0:0:0:
448,192,114640,1,0,0:0:0:0:
192,192,114751,1,0,0:0:0:0:
448,192,114751,1,0,0:0:0:0:
64,192,114861,1,0,0:0:0:0:
320,192,114861,1,0,0:0:0:0:
64,192,114971,1,0,0:0:0:0:
192,192,114971,1,0,0:0:0:0:
320,192,115081,1,0,0:0:0:0:
448,192,115081,1,0,0:0:0:0:
64,192,115081,1,0,0:0:0:0:
192,192,115191,1,0,0:0:0:0:
320,192,115191,1,0,0:0:0:0:
320,192,115302,1,0,0:0:0:0:
64,192,115302,1,0,0:0:0:0:
448,192,115412,1,0,0:0:0:0:
192,192,115412,1,0,0:0:0:0:
64,192,115522,1,0,0:0:0:0:
320,192,115522,1,0,0:0:0:0:
448,192,115522,1,0,0:0:0:0:
192,192,115632,1,0,0:0:0:0:
64,192,115632,1,0,0:0:0:0:
192,192,115742,1,0,0:0:0:0:
448,192,115742,1,0,0:0:0:0:
448,192,115853,1,0,0:0:0:0:
64,192,115853,1,0,0:0:0:0:
320,192,115963,1,0,0:0:0:0:
64,192,115963,1,0,0:0:0:0:
448,192,115963,1,0,0:0:0:0:
192,192,116073,1,0,0:0:0:0:
320,192,116073,1,0,0:0:0:0:
448,192,116183,1,0,0:0:0:0:
64,192,116183,1,0,0:0:0:0:
64,192,116293,1,0,0:0:0:0:
192,192,116293,1,0,0:0:0:0:
64,192,116404,1,0,0:0:0:0:
448,192,116404,1,0,0:0:0:0:
320,192,116404,1,0,0:0:0:0:
192,192,116404,1,0,0:0:0:0:
448,192,116514,1,0,0:0:0:0:
320,192,116514,1,0,0:0:0:0:
64,192,116624,1,0,0:0:0:0:
320,192,116624,1,0,0:0:0:0:
192,192,116734,1,0,0:0:0:0:
64,192,116734,1,0,0:0:0:0:
64,192,116844,1,0,0:0:0:0:
192,192,116844,1,0,0:0:0:0:
320,192,116844,1,0,0:0:0:0:
448,192,116844,1,0,0:0:0:0:
448,192,116955,1,0,0:0:0:0:
64,192,116955,1,0,0:0:0:0:
320,192,117065,1,0,0:0:0:0:
192,192,117065,1,0,0:0:0:0:
64,192,117175,1,0,0:0:0:0:
320,192,117175,1,0,0:0:0:0:
448,192,117285,1,0,0:0:0:0:
64,192,117285,1,0,0:0:0:0:
192,192,117285,1,0,0:0:0:0:
320,192,117395,1,0,0:0:0:0:
448,192,117395,1,0,0:0:0:0:
320,192,117506,1,0,0:0:0:0:
192,192,117506,1,0,0:0:0:0:
64,192,117616,1,0,0:0:0:0:
320,192,117616,1,0,0:0:0:0:
64,192,117726,1,0,0:0:0:0:
192,192,117726,1,0,0:0:0:0:
448,192,117726,1,0,0:0:0:0:
320,192,117836,1,0,0:0:0:0:
192,192,117836,1,0,0:0:0:0:
64,192,117946,1,0,0:0:0:0:
448,192,117946,1,0,0:0:0:0:
448,192,118057,1,0,0:0:0:0:
192,192,118057,1,0,0:0:0:0:
320,192,118167,1,0,0:0:0:0:
192,192,118167,1,0,0:0:0:0:
64,192,118167,1,0,0:0:0:0:
448,192,118167,1,0,0:0:0:0:
448,192,118277,1,0,0:0:0:0:
64,192,118277,1,0,0:0:0:0:
64,192,118387,1,0,0:0:0:0:
192,192,118387,1,0,0:0:0:0:
448,192,118497,1,0,0:0:0:0:
320,192,118497,1,0,0:0:0:0:
64,192,118608,1,0,0:0:0:0:
192,192,118608,1,0,0:0:0:0:
320,192,118608,1,0,0:0:0:0:
448,192,118608,1,0,0:0:0:0:
64,192,118718,1,0,0:0:0:0:
320,192,118718,1,0,0:0:0:0:
192,192,118828,1,0,0:0:0:0:
320,192,118828,1,0,0:0:0:0:
448,192,118938,1,0,0:0:0:0:
64,192,118938,1,0,0:0:0:0:
192,192,119048,1,0,0:0:0:0:
64,192,119048,1,0,0:0:0:0:
448,192,119048,1,0,0:0:0:0:
320,192,119048,1,0,0:0:0:0:
192,192,119160,1,0,0:0:0:0:
64,192,119160,1,0,0:0:0:0:
448,192,119270,1,0,0:0:0:0:
320,192,119270,1,0,0:0:0:0:
192,192,119270,1,0,0:0:0:0:
64,192,119380,1,0,0:0:0:0:
320,192,119380,1,0,0:0:0:0:
448,192,119490,1,0,0:0:0:0:
320,192,119490,1,0,0:0:0:0:
192,192,119490,1,0,0:0:0:0:
64,192,119490,1,0,0:0:0:0:
192,192,119600,1,0,0:0:0:0:
448,192,119600,1,0,0:0:0:0:
320,192,119711,1,0,0:0:0:0:
64,192,119711,1,0,0:0:0:0:
192,192,119711,1,0,0:0:0:0:
448,192,119821,1,0,0:0:0:0:
64,192,119821,1,0,0:0:0:0:
64,192,121694,1,0,0:0:0:0:
192,192,121694,1,0,0:0:0:0:
448,192,121694,1,0,0:0:0:0:
320,192,121694,1,0,0:0:0:0:
64,192,121804,1,0,0:0:0:0:
320,192,121804,1,0,0:0:0:0:
192,192,121915,1,0,0:0:0:0:
320,192,121915,1,0,0:0:0:0:
448,192,121915,1,0,0:0:0:0:
64,192,122025,1,0,0:0:0:0:
192,192,122025,1,0,0:0:0:0:
320,192,122135,1,0,0:0:0:0:
192,192,122135,1,0,0:0:0:0:
64,192,122135,1,0,0:0:0:0:
448,192,122135,1,0,0:0:0:0:
448,192,122245,1,0,0:0:0:0:
320,192,122245,1,0,0:0:0:0:
64,192,122355,1,0,0:0:0:0:
448,192,122355,1,0,0:0:0:0:
192,192,122355,1,0,0:0:0:0:
320,192,122466,1,0,0:0:0:0:
192,192,122466,1,0,0:0:0:0:
64,192,122576,1,0,0:0:0:0:
192,192,122576,1,0,0:0:0:0:
320,192,122576,1,0,0:0:0:0:
448,192,122576,1,0,0:0:0:0:
192,192,122686,1,0,0:0:0:0:
448,192,122686,1,0,0:0:0:0:
64,192,122796,1,0,0:0:0:0:
320,192,122796,1,0,0:0:0:0:
448,192,122796,1,0,0:0:0:0:
64,192,122906,1,0,0:0:0:0:
192,192,122906,1,0,0:0:0:0:
448,192,123017,1,0,0:0:0:0:
320,192,123017,1,0,0:0:0:0:
192,192,123017,1,0,0:0:0:0:
64,192,123017,1,0,0:0:0:0:
448,192,123127,1,0,0:0:0:0:
192,192,123127,1,0,0:0:0:0:
64,192,123237,1,0,0:0:0:0:
320,192,123237,1,0,0:0:0:0:
448,192,123237,1,0,0:0:0:0:
320,192,123347,1,0,0:0:0:0:
192,192,123347,1,0,0:0:0:0:
64,192,123457,1,0,0:0:0:0:
192,192,123457,1,0,0:0:0:0:
320,192,123457,1,0,0:0:0:0:
448,192,123457,1,0,0:0:0:0:
192,192,123568,1,0,0:0:0:0:
448,192,123568,1,0,0:0:0:0:
64,192,123568,1,0,0:0:0:0:
448,192,123678,1,0,0:0:0:0:
320,192,123678,1,0,0:0:0:0:
64,192,123678,1,0,0:0:0:0:
192,192,123788,1,0,0:0:0:0:
320,192,123788,1,0,0:0:0:0:
448,192,123788,1,0,0:0:0:0:
448,192,123898,1,0,0:0:0:0:
320,192,123898,1,0,0:0:0:0:
192,192,123898,1,0,0:0:0:0:
64,192,123898,1,0,0:0:0:0:
64,192,124008,1,0,0:0:0:0:
320,192,124008,1,0,0:0:0:0:
448,192,124008,1,0,0:0:0:0:
192,192,124120,1,0,0:0:0:0:
64,192,124120,1,0,0:0:0:0:
320,192,124120,1,0,0:0:0:0:
448,192,124230,1,0,0:0:0:0:
320,192,124230,1,0,0:0:0:0:
192,192,124230,1,0,0:0:0:0:
64,192,124340,1,0,0:0:0:0:
192,192,124340,1,0,0:0:0:0:
320,192,124340,1,0,0:0:0:0:
448,192,124340,1,0,0:0:0:0:
64,192,124450,1,0,0:0:0:0:
192,192,124450,1,0,0:0:0:0:
448,192,124450,1,0,0:0:0:0:
448,192,124560,1,0,0:0:0:0:
320,192,124560,1,0,0:0:0:0:
192,192,124560,1,0,0:0:0:0:
64,192,124671,1,0,0:0:0:0:
320,192,124671,1,0,0:0:0:0:
64,192,124781,1,0,0:0:0:0:
192,192,124781,1,0,0:0:0:0:
320,192,124781,1,0,0:0:0:0:
448,192,124781,1,0,0:0:0:0:
192,192,124891,1,0,0:0:0:0:
448,192,124891,1,0,0:0:0:0:
320,192,125001,1,0,0:0:0:0:
64,192,125001,1,0,0:0:0:0:
192,192,125001,1,0,0:0:0:0:
448,192,125111,1,0,0:0:0:0:
64,192,125111,1,0,0:0:0:0:
448,192,125222,1,0,0:0:0:0:
320,192,125222,1,0,0:0:0:0:
64,192,125222,1,0,0:0:0:0:
192,192,125222,1,0,0:0:0:0:
192,192,125332,1,0,0:0:0:0:
320,192,125332,1,0,0:0:0:0:
64,192,125442,1,0,0:0:0:0:
192,192,125442,1,0,0:0:0:0:
448,192,125442,1,0,0:0:0:0:
320,192,125552,1,0,0:0:0:0:
64,192,125552,1,0,0:0:0:0:
64,192,125662,1,0,0:0:0:0:
192,192,125662,1,0,0:0:0:0:
320,192,125662,1,0,0:0:0:0:
448,192,125662,1,0,0:0:0:0:
192,192,125772,1,0,0:0:0:0:
448,192,125772,1,0,0:0:0:0:
64,192,125883,1,0,0:0:0:0:
320,192,125883,1,0,0:0:0:0:
192,192,125883,1,0,0:0:0:0:
320,192,125993,1,0,0:0:0:0:
448,192,125993,1,0,0:0:0:0:
448,192,126103,1,0,0:0:0:0:
320,192,126103,1,0,0:0:0:0:
192,192,126103,1,0,0:0:0:0:
64,192,126103,1,0,0:0:0:0:
320,192,126213,1,0,0:0:0:0:
192,192,126213,1,0,0:0:0:0:
64,192,126323,1,0,0:0:0:0:
320,192,126323,1,0,0:0:0:0:
448,192,126323,1,0,0:0:0:0:
64,192,126434,1,0,0:0:0:0:
192,192,126434,1,0,0:0:0:0:
64,192,126544,1,0,0:0:0:0:
192,192,126544,1,0,0:0:0:0:
320,192,126544,1,0,0:0:0:0:
448,192,126544,1,0,0:0:0:0:
448,192,126654,1,0,0:0:0:0:
320,192,126654,1,0,0:0:0:0:
448,192,126764,1,0,0:0:0:0:
192,192,126764,1,0,0:0:0:0:
64,192,126764,1,0,0:0:0:0:
64,192,126874,1,0,0:0:0:0:
192,192,126874,1,0,0:0:0:0:
448,192,126985,1,0,0:0:0:0:
320,192,126985,1,0,0:0:0:0:
192,192,126985,1,0,0:0:0:0:
64,192,126985,1,0,0:0:0:0:
192,192,127095,1,0,0:0:0:0:
448,192,127095,1,0,0:0:0:0:
320,192,127095,1,0,0:0:0:0:
64,192,127205,1,0,0:0:0:0:
320,192,127205,1,0,0:0:0:0:
448,192,127205,1,0,0:0:0:0:
320,192,127315,1,0,0:0:0:0:
64,192,127315,1,0,0:0:0:0:
192,192,127315,1,0,0:0:0:0:
64,192,127425,1,0,0:0:0:0:
192,192,127425,1,0,0:0:0:0:
320,192,127425,1,0,0:0:0:0:
448,192,127425,1,0,0:0:0:0:
448,192,127536,1,0,0:0:0:0:
192,192,127536,1,0,0:0:0:0:
64,192,127536,1,0,0:0:0:0:
320,192,127646,1,0,0:0:0:0:
448,192,127646,1,0,0:0:0:0:
64,192,127646,1,0,0:0:0:0:
192,192,127756,1,0,0:0:0:0:
320,192,127756,1,0,0:0:0:0:
448,192,127756,1,0,0:0:0:0:
448,192,127866,1,0,0:0:0:0:
320,192,127866,1,0,0:0:0:0:
192,192,127866,1,0,0:0:0:0:
64,192,127866,1,0,0:0:0:0:
64,192,127976,1,0,0:0:0:0:
192,192,127976,1,0,0:0:0:0:
448,192,127976,1,0,0:0:0:0:
448,192,128087,1,0,0:0:0:0:
320,192,128087,1,0,0:0:0:0:
64,192,128087,1,0,0:0:0:0:
192,192,128197,1,0,0:0:0:0:
320,192,128197,1,0,0:0:0:0:
448,192,128307,1,0,0:0:0:0:
320,192,128307,1,0,0:0:0:0:
192,192,128307,1,0,0:0:0:0:
64,192,128307,1,0,0:0:0:0:
64,192,128417,1,0,0:0:0:0:
448,192,128417,1,0,0:0:0:0:
64,192,128527,1,0,0:0:0:0:
192,192,128527,1,0,0:0:0:0:
320,192,128527,1,0,0:0:0:0:
448,192,128638,1,0,0:0:0:0:
192,192,128638,1,0,0:0:0:0:
64,192,128748,1,0,0:0:0:0:
192,192,128748,1,0,0:0:0:0:
448,192,128748,1,0,0:0:0:0:
320,192,128748,1,0,0:0:0:0:
448,192,128858,1,0,0:0:0:0:
320,192,128858,1,0,0:0:0:0:
64,192,128968,1,0,0:0:0:0:
320,192,128968,1,0,0:0:0:0:
192,192,128968,1,0,0:0:0:0:
448,192,129078,1,0,0:0:0:0:
64,192,129078,1,0,0:0:0:0:
64,192,129190,1,0,0:0:0:0:
192,192,129190,1,0,0:0:0:0:
320,192,129190,1,0,0:0:0:0:
448,192,129190,1,0,0:0:0:0:
192,192,129300,1,0,0:0:0:0:
320,192,129300,1,0,0:0:0:0:
448,192,129410,1,0,0:0:0:0:
320,192,129410,1,0,0:0:0:0:
64,192,129410,1,0,0:0:0:0:
64,192,129520,1,0,0:0:0:0:
192,192,129520,1,0,0:0:0:0:
448,192,129630,1,0,0:0:0:0:
320,192,129630,1,0,0:0:0:0:
192,192,129630,1,0,0:0:0:0:
64,192,129630,1,0,0:0:0:0:
320,192,129741,1,0,0:0:0:0:
448,192,129741,1,0,0:0:0:0:
64,192,129851,1,0,0:0:0:0:
192,192,129851,1,0,0:0:0:0:
448,192,129851,1,0,0:0:0:0:
64,192,129961,1,0,0:0:0:0:
320,192,129961,1,0,0:0:0:0:
448,192,130071,1,0,0:0:0:0:
320,192,130071,1,0,0:0:0:0:
192,192,130071,1,0,0:0:0:0:
64,192,130071,1,0,0:0:0:0:
448,192,130181,1,0,0:0:0:0:
192,192,130181,1,0,0:0:0:0:
64,192,130292,1,0,0:0:0:0:
320,192,130292,1,0,0:0:0:0:
192,192,130292,1,0,0:0:0:0:
320,192,130402,1,0,0:0:0:0:
448,192,130402,1,0,0:0:0:0:
448,192,130512,1,0,0:0:0:0:
320,192,130512,1,0,0:0:0:0:
192,192,130512,1,0,0:0:0:0:
64,192,130512,1,0,0:0:0:0:
192,192,130622,1,0,0:0:0:0:
64,192,130622,1,0,0:0:0:0:
64,192,130732,1,0,0:0:0:0:
320,192,130732,1,0,0:0:0:0:
448,192,130732,1,0,0:0:0:0:
192,192,130843,1,0,0:0:0:0:
320,192,130843,1,0,0:0:0:0:
64,192,130953,1,0,0:0:0:0:
192,192,130953,1,0,0:0:0:0:
320,192,130953,1,0,0:0:0:0:
448,192,130953,1,0,0:0:0:0:
448,192,131063,1,0,0:0:0:0:
64,192,131063,1,0,0:0:0:0:
64,192,131173,1,0,0:0:0:0:
192,192,131173,1,0,0:0:0:0:
320,192,131173,1,0,0:0:0:0:
448,192,131283,1,0,0:0:0:0:
192,192,131283,1,0,0:0:0:0:
320,192,131394,1,0,0:0:0:0:
448,192,131394,1,0,0:0:0:0:
192,192,131394,1,0,0:0:0:0:
64,192,131394,1,0,0:0:0:0:
448,192,131504,1,0,0:0:0:0:
320,192,131504,1,0,0:0:0:0:
64,192,131614,1,0,0:0:0:0:
192,192,131614,1,0,0:0:0:0:
320,192,131614,1,0,0:0:0:0:
192,192,131724,1,0,0:0:0:0:
64,192,131724,1,0,0:0:0:0:
64,192,131834,1,0,0:0:0:0:
192,192,131834,1,0,0:0:0:0:
320,192,131834,1,0,0:0:0:0:
448,192,131834,1,0,0:0:0:0:
448,192,131945,1,0,0:0:0:0:
192,192,131945,1,0,0:0:0:0:
64,192,132055,1,0,0:0:0:0:
448,192,132055,1,0,0:0:0:0:
320,192,132055,1,0,0:0:0:0:
320,192,132165,1,0,0:0:0:0:
192,192,132165,1,0,0:0:0:0:
64,192,132275,1,0,0:0:0:0:
192,192,132275,1,0,0:0:0:0:
320,192,132275,1,0,0:0:0:0:
448,192,132275,1,0,0:0:0:0:
448,192,132385,1,0,0:0:0:0:
64,192,132385,1,0,0:0:0:0:
64,192,132496,1,0,0:0:0:0:
192,192,132496,1,0,0:0:0:0:
320,192,132496,1,0,0:0:0:0:
320,192,132606,1,0,0:0:0:0:
448,192,132606,1,0,0:0:0:0:
64,192,132716,1,0,0:0:0:0:
192,192,132716,1,0,0:0:0:0:
320,192,132716,1,0,0:0:0:0:
448,192,132716,1,0,0:0:0:0:
64,192,132826,1,0,0:0:0:0:
320,192,132826,1,0,0:0:0:0:
192,192,132936,1,0,0:0:0:0:
320,192,132936,1,0,0:0:0:0:
448,192,132936,1,0,0:0:0:0:
64,192,133047,1,0,0:0:0:0:
192,192,133047,1,0,0:0:0:0:
64,192,133157,1,0,0:0:0:0:
192,192,133157,1,0,0:0:0:0:
320,192,133157,1,0,0:0:0:0:
448,192,133157,1,0,0:0:0:0:
448,192,133267,1,0,0:0:0:0:
320,192,133267,1,0,0:0:0:0:
64,192,133377,1,0,0:0:0:0:
448,192,133377,1,0,0:0:0:0:
192,192,133377,1,0,0:0:0:0:
192,192,133487,1,0,0:0:0:0:
320,192,133487,1,0,0:0:0:0:
192,192,133598,1,0,0:0:0:0:
64,192,133598,1,0,0:0:0:0:
320,192,133598,1,0,0:0:0:0:
448,192,133598,1,0,0:0:0:0:
448,192,133708,1,0,0:0:0:0:
192,192,133708,1,0,0:0:0:0:
64,192,133818,1,0,0:0:0:0:
192,192,133818,1,0,0:0:0:0:
320,192,133818,1,0,0:0:0:0:
64,192,133928,1,0,0:0:0:0:
320,192,133928,1,0,0:0:0:0:
64,192,134038,1,0,0:0:0:0:
192,192,134038,1,0,0:0:0:0:
320,192,134038,1,0,0:0:0:0:
448,192,134038,1,0,0:0:0:0:
192,192,134150,1,0,0:0:0:0:
448,192,134150,1,0,0:0:0:0:
320,192,134260,1,0,0:0:0:0:
192,192,134260,1,0,0:0:0:0:
64,192,134260,1,0,0:0:0:0:
448,192,134370,1,0,0:0:0:0:
64,192,134370,1,0,0:0:0:0:
192,192,134480,1,0,0:0:0:0:
64,192,134480,1,0,0:0:0:0:
448,192,134480,1,0,0:0:0:0:
320,192,134590,1,0,0:0:0:0:
192,192,134590,1,0,0:0:0:0:
64,192,134701,1,0,0:0:0:0:
320,192,134701,1,0,0:0:0:0:
448,192,134701,1,0,0:0:0:0:
192,192,134701,1,0,0:0:0:0:
448,192,134811,1,0,0:0:0:0:
192,192,134811,1,0,0:0:0:0:
64,192,134921,1,0,0:0:0:0:
192,192,134921,1,0,0:0:0:0:
320,192,134921,1,0,0:0:0:0:
448,192,134921,1,0,0:0:0:0:
64,192,135031,1,0,0:0:0:0:
192,192,135031,1,0,0:0:0:0:
448,192,135031,1,0,0:0:0:0:
64,192,135141,1,0,0:0:0:0:
448,192,135141,1,0,0:0:0:0:
320,192,135141,1,0,0:0:0:0:
320,192,135252,1,0,0:0:0:0:
448,192,135252,1,0,0:0:0:0:
192,192,135252,1,0,0:0:0:0:
64,192,135362,1,0,0:0:0:0:
192,192,135362,1,0,0:0:0:0:
320,192,135362,1,0,0:0:0:0:
448,192,135362,1,0,0:0:0:0:
320,192,135472,1,0,0:0:0:0:
448,192,135472,1,0,0:0:0:0:
64,192,135472,1,0,0:0:0:0:
64,192,135582,1,0,0:0:0:0:
448,192,135582,1,0,0:0:0:0:
192,192,135582,1,0,0:0:0:0:
320,192,135692,1,0,0:0:0:0:
192,192,135692,1,0,0:0:0:0:
64,192,135692,1,0,0:0:0:0:
448,192,135803,1,0,0:0:0:0:
320,192,135803,1,0,0:0:0:0:
192,192,135803,1,0,0:0:0:0:
64,192,135803,1,0,0:0:0:0:
