osu file format v14

[General]
AudioFilename: get well soon.mp3
AudioLeadIn: 0
PreviewTime: 101097
Countdown: 0
SampleSet: Normal
StackLeniency: 0.7
Mode: 1
LetterboxInBreaks: 0
WidescreenStoryboard: 1

[Editor]
Bookmarks: 80913,101124,141545,161756,181966,202177,242598,283019,323440
DistanceSpacing: 1
BeatDivisor: 4
GridSize: 32
TimelineZoom: 2.999999

[Metadata]
Title:Get Well Soon
TitleUnicode:Get Well Soon
Artist:Alliv
ArtistUnicode:Alliv
Creator:Ulqui
Version:hope you feel better
Source:
Tags:not alive music nam aliv dnb drum and bass
BeatmapID:2152250
BeatmapSetID:607556

[Difficulty]
HPDrainRate:5
CircleSize:2
OverallDifficulty:6
ApproachRate:10
SliderMultiplier:1.4
SliderTickRate:1

[Events]
//Background and Video events
0,0,"riWOjOb.jpg",0,20
//Break Periods
//Storyboard Layer 0 (Background)
//Storyboard Layer 1 (Fail)
//Storyboard Layer 2 (Pass)
//Storyboard Layer 3 (Foreground)
//Storyboard Layer 4 (Overlay)
//Storyboard Sound Samples

[TimingPoints]
45,315.789473684211,4,1,0,30,1,0
40466,-125,4,1,0,30,0,0
78676,-125,4,1,0,30,0,0
78834,-133.333333333333,4,1,0,30,0,0
78992,-142.857142857143,4,1,0,30,0,0
79308,-142.857142857143,4,1,0,30,0,0
79466,-153.846153846154,4,1,0,30,0,0
79623,-166.666666666667,4,1,0,30,0,0
79939,-166.666666666667,4,1,0,30,0,0
80097,-181.818181818182,4,1,0,30,0,0
80255,-200,4,1,0,30,0,0
80571,-200,4,1,0,30,0,0
80729,-222.222222222222,4,1,0,30,0,0
80887,-100,4,1,0,100,0,0
98255,-105.263157894737,4,1,0,100,0,0
98571,-111.111111111111,4,1,0,100,0,0
98887,-117.647058823529,4,1,0,100,0,0
99202,-125,4,1,0,100,0,0
99518,-133.333333333333,4,1,0,100,0,0
99834,-142.857142857143,4,1,0,100,0,0
101097,-76.9230769230769,4,1,0,100,0,1
120518,-83.3333333333333,4,1,0,100,0,1
120992,-90.9090909090909,4,1,0,100,0,1
121308,-100,4,1,0,100,0,1
140571,-105.263157894737,4,1,0,100,0,1
140729,-111.111111111111,4,1,0,100,0,1
141045,-117.647058823529,4,1,0,100,0,1
141202,-125,4,1,0,100,0,1
141518,-133.333333333333,4,1,0,40,0,0
161729,-90.9090909090909,4,1,0,100,0,1
181939,-90.9090909090909,4,1,0,100,0,0
182255,-100,4,1,0,100,0,0
199623,-100,4,1,0,100,0,0
199939,-111.111111111111,4,1,0,100,0,0
200097,-117.647058823529,4,1,0,100,0,0
200413,-133.333333333333,4,1,0,100,0,0
200571,-142.857142857143,4,1,0,100,0,0
200729,-153.846153846154,4,1,0,100,0,0
200887,-166.666666666667,4,1,0,100,0,0
202150,631.578947368421,4,1,0,100,1,0
202150,-166.666666666667,4,1,0,100,0,1
241781,-125,4,1,0,100,0,1
242255,-100,4,1,0,100,0,1
242571,-62.5,4,1,0,40,0,0
282992,-38.4615384615385,4,1,0,100,0,0
313781,-38.4615384615385,4,1,0,20,0,0
314571,-38.4615384615385,4,1,0,100,0,0
315044,-38.4615384615385,4,1,0,30,0,0
315834,-38.4615384615385,4,1,0,100,0,0
316307,-38.4615384615385,4,1,0,40,0,0
317097,-38.4615384615385,4,1,0,100,0,0
318834,-38.4615384615385,4,1,0,50,0,0
319623,-38.4615384615385,4,1,0,100,0,0
320097,-38.4615384615385,4,1,0,60,0,0
320886,-38.4615384615385,4,1,0,100,0,0
321360,-38.4615384615385,4,1,0,70,0,0
322150,-38.4615384615385,4,1,0,100,0,0

[HitObjects]
192,128,40466,5,0,0:0:0:0:
160,160,42992,1,0,0:0:0:0:
160,160,44255,1,8,0:0:0:0:
160,160,45518,1,0,0:0:0:0:
160,160,48045,1,0,0:0:0:0:
160,128,49308,1,8,0:0:0:0:
160,128,50571,1,0,0:0:0:0:
160,128,53097,1,8,0:0:0:0:
160,128,54360,1,0,0:0:0:0:
160,128,55623,1,8,0:0:0:0:
160,96,58150,1,0,0:0:0:0:
160,96,59413,1,8,0:0:0:0:
185,67,60676,1,0,0:0:0:0:
176,119,60992,1,8,0:0:0:0:
160,89,61308,1,0,0:0:0:0:
176,119,61623,1,8,0:0:0:0:
160,89,61939,1,0,0:0:0:0:
176,119,62255,1,8,0:0:0:0:
160,89,62571,1,0,0:0:0:0:
160,89,62887,1,8,0:0:0:0:
160,96,63202,1,0,0:0:0:0:
155,101,63518,1,8,0:0:0:0:
211,62,63834,1,0,0:0:0:0:
144,98,64150,1,8,0:0:0:0:
160,96,64466,1,0,0:0:0:0:
158,97,64781,1,8,0:0:0:0:
158,97,65097,1,0,0:0:0:0:
160,96,65413,1,8,0:0:0:0:
160,96,65729,1,0,0:0:0:0:
160,96,66045,1,8,0:0:0:0:
160,96,66202,1,0,0:0:0:0:
160,96,66360,1,0,0:0:0:0:
160,96,66676,1,8,0:0:0:0:
160,96,66834,1,0,0:0:0:0:
160,96,66992,1,0,0:0:0:0:
160,96,67308,1,8,0:0:0:0:
160,96,67466,1,0,0:0:0:0:
160,96,67623,1,0,0:0:0:0:
160,64,67781,1,0,0:0:0:0:
160,64,67860,1,0,0:0:0:0:
160,64,67939,1,8,0:0:0:0:
160,64,68018,1,0,0:0:0:0:
160,64,68097,1,0,0:0:0:0:
160,96,68255,1,0,0:0:0:0:
160,96,68571,1,8,0:0:0:0:
160,96,68729,1,0,0:0:0:0:
160,96,68887,1,0,0:0:0:0:
160,96,69202,1,8,0:0:0:0:
160,96,69360,1,0,0:0:0:0:
160,96,69518,1,0,0:0:0:0:
160,96,69834,1,8,0:0:0:0:
160,96,69992,1,0,0:0:0:0:
160,96,70150,1,0,0:0:0:0:
160,96,70466,1,8,0:0:0:0:
160,96,70623,1,0,0:0:0:0:
160,96,70781,1,0,0:0:0:0:
201,104,71097,1,8,0:0:0:0:
201,104,71413,1,0,0:0:0:0:
201,104,71729,1,8,0:0:0:0:
201,104,72045,1,0,0:0:0:0:
138,129,72360,1,8,0:0:0:0:
138,129,72676,1,0,0:0:0:0:
138,129,72992,1,8,0:0:0:0:
160,96,73308,1,0,0:0:0:0:
187,102,73623,1,8,0:0:0:0:
188,95,73939,1,0,0:0:0:0:
190,96,74255,1,8,0:0:0:0:
160,128,74571,1,0,0:0:0:0:
168,105,74887,1,8,0:0:0:0:
168,105,75202,1,0,0:0:0:0:
168,105,75518,1,8,0:0:0:0:
128,96,75834,1,0,0:0:0:0:
128,96,76150,1,8,0:0:0:0:
128,96,76308,1,0,0:0:0:0:
128,96,76466,1,0,0:0:0:0:
128,96,76781,1,8,0:0:0:0:
128,96,76939,1,0,0:0:0:0:
128,96,77097,1,0,0:0:0:0:
128,96,77413,1,8,0:0:0:0:
128,96,77571,1,0,0:0:0:0:
128,96,77729,1,0,0:0:0:0:
128,96,77887,1,0,0:0:0:0:
128,96,77966,1,0,0:0:0:0:
128,96,78045,1,8,0:0:0:0:
128,96,78123,1,0,0:0:0:0:
128,96,78202,1,0,0:0:0:0:
160,96,78360,1,0,0:0:0:0:
160,128,78676,1,8,0:0:0:0:
160,128,78834,1,0,0:0:0:0:
160,128,78992,1,0,0:0:0:0:
160,128,79308,1,8,0:0:0:0:
160,128,79466,1,0,0:0:0:0:
160,128,79623,1,0,0:0:0:0:
160,128,79939,1,8,0:0:0:0:
160,128,80097,1,0,0:0:0:0:
160,128,80255,1,0,0:0:0:0:
160,128,80571,1,8,0:0:0:0:
160,128,80729,1,0,0:0:0:0:
160,128,80887,1,0,0:0:0:0:
128,128,81202,1,8,0:0:0:0:
128,128,81360,1,0,0:0:0:0:
128,128,81676,1,0,0:0:0:0:
128,128,81834,1,8,0:0:0:0:
160,128,81992,1,8,0:0:0:0:
160,128,82150,1,0,0:0:0:0:
192,128,82466,1,8,0:0:0:0:
192,128,82623,1,0,0:0:0:0:
192,128,82939,1,0,0:0:0:0:
192,128,83097,1,8,0:0:0:0:
192,128,83413,1,0,0:0:0:0:
192,128,83729,1,8,0:0:0:0:
192,128,83887,1,0,0:0:0:0:
192,128,84202,1,0,0:0:0:0:
192,128,84360,1,8,0:0:0:0:
192,128,84518,1,8,0:0:0:0:
192,128,84676,1,0,0:0:0:0:
96,224,84992,1,8,0:0:0:0:
96,224,85150,1,0,0:0:0:0:
96,224,85466,1,0,0:0:0:0:
96,224,85623,1,8,0:0:0:0:
160,160,85781,1,0,0:0:0:0:
96,224,85939,1,0,0:0:0:0:
128,96,86255,1,8,0:0:0:0:
128,96,86413,1,0,0:0:0:0:
128,96,86729,1,0,0:0:0:0:
128,96,86887,1,8,0:0:0:0:
128,96,87045,1,8,0:0:0:0:
128,96,87202,1,0,0:0:0:0:
128,96,87518,1,8,0:0:0:0:
128,96,87676,1,0,0:0:0:0:
128,96,87992,1,0,0:0:0:0:
128,96,88150,1,8,0:0:0:0:
128,96,88466,1,0,0:0:0:0:
128,96,88781,1,8,0:0:0:0:
128,96,88939,1,0,0:0:0:0:
128,96,89255,1,0,0:0:0:0:
128,96,89413,1,8,0:0:0:0:
128,96,89571,1,8,0:0:0:0:
128,96,89729,1,0,0:0:0:0:
128,96,90045,1,8,0:0:0:0:
128,64,90202,1,0,0:0:0:0:
128,64,90518,1,8,0:0:0:0:
128,64,90676,1,0,0:0:0:0:
128,96,90834,1,8,0:0:0:0:
128,96,90992,1,0,0:0:0:0:
160,96,91308,1,8,0:0:0:0:
160,96,91466,1,0,0:0:0:0:
160,96,91781,1,0,0:0:0:0:
160,96,91939,1,8,0:0:0:0:
192,96,92097,1,8,0:0:0:0:
192,96,92255,1,0,0:0:0:0:
192,96,92571,1,8,0:0:0:0:
192,96,92729,1,0,0:0:0:0:
192,96,93045,1,0,0:0:0:0:
160,96,93202,1,8,0:0:0:0:
160,96,93518,1,0,0:0:0:0:
160,96,93834,1,8,0:0:0:0:
160,96,93992,1,0,0:0:0:0:
160,96,94308,1,0,0:0:0:0:
160,96,94466,1,8,0:0:0:0:
160,96,94623,1,8,0:0:0:0:
160,96,94781,1,0,0:0:0:0:
160,96,95097,1,8,0:0:0:0:
160,96,95176,1,8,0:0:0:0:
160,96,95255,1,0,0:0:0:0:
160,96,95413,1,8,0:0:0:0:
128,96,95571,1,0,0:0:0:0:
160,96,95729,1,8,0:0:0:0:
160,96,95887,1,0,0:0:0:0:
160,32,96045,1,0,0:0:0:0:
192,64,96360,1,8,0:0:0:0:
192,64,96518,1,0,0:0:0:0:
160,64,96834,1,0,0:0:0:0:
160,64,96992,1,8,0:0:0:0:
192,64,97150,1,8,0:0:0:0:
192,64,97308,1,0,0:0:0:0:
160,64,97623,1,8,0:0:0:0:
160,64,97781,1,0,0:0:0:0:
160,64,98097,1,0,0:0:0:0:
160,64,98255,1,8,0:0:0:0:
192,64,98571,1,0,0:0:0:0:
160,96,98887,1,8,0:0:0:0:
128,128,99202,1,0,0:0:0:0:
160,128,99518,1,8,0:0:0:0:
160,128,99834,1,8,0:0:0:0:
160,128,99992,1,8,0:0:0:0:
160,128,100308,1,8,0:0:0:0:
160,128,100623,1,0,0:0:0:0:
160,128,100781,1,8,0:0:0:0:
160,128,101097,1,0,0:0:0:0:
192,128,101571,1,0,0:0:0:0:
192,128,101887,1,0,0:0:0:0:
192,128,102360,1,8,0:0:0:0:
192,128,102834,1,8,0:0:0:0:
192,128,103150,1,8,0:0:0:0:
192,128,103623,1,0,0:0:0:0:
192,128,104097,1,0,0:0:0:0:
160,128,104413,1,0,0:0:0:0:
160,160,104887,1,8,0:0:0:0:
160,160,105360,1,8,0:0:0:0:
160,128,105676,1,8,0:0:0:0:
160,128,105834,1,0,0:0:0:0:
160,128,106150,1,0,0:0:0:0:
160,160,106623,1,0,0:0:0:0:
160,160,106939,1,0,0:0:0:0:
160,160,107413,1,8,0:0:0:0:
160,160,107887,1,8,0:0:0:0:
160,160,108202,1,8,0:0:0:0:
160,160,108676,1,0,0:0:0:0:
160,160,109150,1,0,0:0:0:0:
160,160,109466,1,0,0:0:0:0:
160,160,109939,1,8,0:0:0:0:
160,160,110413,1,8,0:0:0:0:
192,128,110887,1,0,0:0:0:0:
160,160,111202,1,0,0:0:0:0:
160,96,111676,1,0,0:0:0:0:
160,96,111992,1,0,0:0:0:0:
160,96,112466,1,8,0:0:0:0:
160,96,112939,1,8,0:0:0:0:
160,96,113255,1,8,0:0:0:0:
160,96,113729,1,0,0:0:0:0:
160,96,114202,1,0,0:0:0:0:
160,96,114518,1,0,0:0:0:0:
160,96,114992,1,8,0:0:0:0:
160,96,115466,1,8,0:0:0:0:
160,96,115781,1,8,0:0:0:0:
160,96,115939,1,0,0:0:0:0:
160,96,116255,1,0,0:0:0:0:
160,96,116729,1,0,0:0:0:0:
160,96,117045,1,0,0:0:0:0:
160,96,117518,1,8,0:0:0:0:
160,96,117992,1,8,0:0:0:0:
160,96,118308,1,8,0:0:0:0:
160,96,118781,1,0,0:0:0:0:
160,96,119255,1,0,0:0:0:0:
160,96,119571,1,0,0:0:0:0:
160,96,120045,1,8,0:0:0:0:
160,96,120518,1,8,0:0:0:0:
192,64,120992,1,0,0:0:0:0:
160,96,121308,1,0,0:0:0:0:
160,192,121781,1,8,0:0:0:0:
160,192,122097,1,0,0:0:0:0:
160,192,122413,1,0,0:0:0:0:
160,192,122571,1,8,0:0:0:0:
160,192,122887,1,0,0:0:0:0:
160,192,123202,1,0,0:0:0:0:
160,192,123518,1,8,0:0:0:0:
160,160,123834,1,8,0:0:0:0:
160,160,124150,1,0,0:0:0:0:
160,160,124466,1,8,0:0:0:0:
160,160,124623,1,8,0:0:0:0:
160,160,124939,1,0,0:0:0:0:
160,160,125097,1,8,0:0:0:0:
160,160,125413,1,8,0:0:0:0:
160,160,125571,1,8,0:0:0:0:
160,160,125887,1,8,0:0:0:0:
160,160,126045,1,0,0:0:0:0:
192,128,126202,1,8,0:0:0:0:
192,128,126360,1,0,0:0:0:0:
192,128,126676,1,0,0:0:0:0:
192,128,126834,1,8,0:0:0:0:
192,128,126992,1,8,0:0:0:0:
192,128,127308,1,0,0:0:0:0:
192,128,127623,1,8,0:0:0:0:
192,128,127939,1,0,0:0:0:0:
192,128,128255,1,0,0:0:0:0:
192,128,128571,1,8,0:0:0:0:
192,128,128887,1,0,0:0:0:0:
192,128,129045,1,8,0:0:0:0:
192,128,129123,1,8,0:0:0:0:
192,128,129202,1,8,0:0:0:0:
192,128,129281,1,8,0:0:0:0:
192,128,129360,1,0,0:0:0:0:
224,32,129439,1,0,0:0:0:0:
224,128,129597,1,8,0:0:0:0:
192,128,129834,1,8,0:0:0:0:
192,128,130071,1,0,0:0:0:0:
192,128,130150,1,8,0:0:0:0:
192,128,130308,1,8,0:0:0:0:
192,128,130466,1,0,0:0:0:0:
192,128,130623,1,8,0:0:0:0:
192,128,130939,1,0,0:0:0:0:
192,128,131097,1,8,0:0:0:0:
160,96,131413,1,0,0:0:0:0:
160,192,131887,1,8,0:0:0:0:
160,192,132202,1,0,0:0:0:0:
160,192,132518,1,0,0:0:0:0:
160,192,132676,1,8,0:0:0:0:
160,192,132992,1,0,0:0:0:0:
160,192,133308,1,0,0:0:0:0:
160,192,133623,1,8,0:0:0:0:
160,160,133939,1,8,0:0:0:0:
160,160,134255,1,0,0:0:0:0:
160,160,134571,1,8,0:0:0:0:
160,160,134729,1,8,0:0:0:0:
160,160,135045,1,0,0:0:0:0:
160,160,135202,1,8,0:0:0:0:
160,160,135518,1,8,0:0:0:0:
160,160,135676,1,8,0:0:0:0:
160,160,135834,1,0,0:0:0:0:
160,160,135992,1,8,0:0:0:0:
160,160,136150,1,0,0:0:0:0:
192,128,136466,1,0,0:0:0:0:
192,128,136781,1,0,0:0:0:0:
192,128,136939,1,8,0:0:0:0:
192,128,137097,1,8,0:0:0:0:
192,128,137413,1,0,0:0:0:0:
192,128,137729,1,8,0:0:0:0:
192,128,138045,1,0,0:0:0:0:
192,128,138360,1,0,0:0:0:0:
192,128,138676,1,8,0:0:0:0:
192,128,138992,1,0,0:0:0:0:
192,128,139150,1,8,0:0:0:0:
192,128,139229,1,8,0:0:0:0:
192,128,139308,1,8,0:0:0:0:
192,128,139387,1,8,0:0:0:0:
192,128,139466,1,0,0:0:0:0:
224,64,139545,1,0,0:0:0:0:
224,128,139702,1,8,0:0:0:0:
192,128,139939,1,8,0:0:0:0:
192,128,140176,1,0,0:0:0:0:
192,128,140255,1,8,0:0:0:0:
192,96,140571,1,0,0:0:0:0:
192,128,140729,1,8,0:0:0:0:
160,64,141045,1,8,0:0:0:0:
192,128,141202,1,0,0:0:0:0:
160,96,141518,1,8,0:0:0:0:
192,160,141834,1,0,0:0:0:0:
192,128,142308,1,0,0:0:0:0:
192,128,142466,1,0,0:0:0:0:
192,128,142939,1,8,0:0:0:0:
192,128,143097,1,0,0:0:0:0:
192,128,143571,1,0,0:0:0:0:
192,128,143729,1,8,0:0:0:0:
192,64,144045,1,8,0:0:0:0:
192,64,144360,1,0,0:0:0:0:
224,32,144676,1,0,0:0:0:0:
224,32,144992,1,0,0:0:0:0:
224,64,145623,1,8,0:0:0:0:
224,64,146255,1,0,0:0:0:0:
224,96,146571,1,8,0:0:0:0:
224,96,146887,1,0,0:0:0:0:
224,96,147360,1,8,0:0:0:0:
224,96,147518,1,0,0:0:0:0:
192,64,147992,1,8,0:0:0:0:
192,64,148150,1,0,0:0:0:0:
192,32,148623,1,0,0:0:0:0:
192,32,148781,1,8,0:0:0:0:
192,32,149097,1,8,0:0:0:0:
192,32,149413,1,0,0:0:0:0:
192,32,149729,1,8,0:0:0:0:
192,32,150045,1,0,0:0:0:0:
192,64,150676,1,0,0:0:0:0:
192,64,151308,1,8,0:0:0:0:
160,32,151623,1,8,0:0:0:0:
192,64,151939,1,0,0:0:0:0:
192,64,152413,1,0,0:0:0:0:
192,64,152571,1,0,0:0:0:0:
224,64,153045,1,8,0:0:0:0:
224,64,153202,1,0,0:0:0:0:
224,64,153676,1,0,0:0:0:0:
224,64,153834,1,8,0:0:0:0:
224,64,154150,1,8,0:0:0:0:
192,32,154466,1,0,0:0:0:0:
192,32,154781,1,0,0:0:0:0:
192,64,155097,1,0,0:0:0:0:
192,64,155729,1,8,0:0:0:0:
192,64,156360,1,0,0:0:0:0:
192,64,156676,1,8,0:0:0:0:
192,64,156992,1,0,0:0:0:0:
192,64,157466,1,8,0:0:0:0:
192,64,157623,1,0,0:0:0:0:
192,64,158097,1,8,0:0:0:0:
192,64,158255,1,0,0:0:0:0:
192,64,158729,1,0,0:0:0:0:
192,64,158887,1,8,0:0:0:0:
192,32,159202,1,8,0:0:0:0:
192,32,159518,1,0,0:0:0:0:
192,32,159834,1,8,0:0:0:0:
192,32,160150,1,0,0:0:0:0:
192,64,160781,1,0,0:0:0:0:
192,32,161413,1,8,0:0:0:0:
160,160,161729,1,0,0:0:0:0:
192,160,161887,1,0,0:0:0:0:
128,128,161966,1,0,0:0:0:0:
160,192,162045,1,8,0:0:0:0:
160,192,162202,1,0,0:0:0:0:
160,192,162518,1,0,0:0:0:0:
160,192,162676,1,8,0:0:0:0:
160,128,162834,1,8,0:0:0:0:
160,128,162992,1,0,0:0:0:0:
160,128,163150,1,0,0:0:0:0:
160,128,163308,1,8,0:0:0:0:
160,128,163466,1,0,0:0:0:0:
160,128,163781,1,0,0:0:0:0:
160,128,163939,1,8,0:0:0:0:
160,128,164255,1,0,0:0:0:0:
160,128,164413,1,0,0:0:0:0:
160,128,164571,1,8,0:0:0:0:
160,128,164729,1,0,0:0:0:0:
160,128,165045,1,0,0:0:0:0:
160,128,165202,1,8,0:0:0:0:
160,128,165360,1,8,0:0:0:0:
160,128,165518,1,0,0:0:0:0:
192,64,165597,1,0,0:0:0:0:
160,128,165676,1,0,0:0:0:0:
160,128,165834,1,8,0:0:0:0:
160,128,165992,1,0,0:0:0:0:
160,128,166308,1,0,0:0:0:0:
160,128,166466,1,8,0:0:0:0:
160,128,166781,1,0,0:0:0:0:
160,128,166939,1,0,0:0:0:0:
160,64,167018,1,0,0:0:0:0:
160,128,167097,1,8,0:0:0:0:
160,128,167255,1,0,0:0:0:0:
160,128,167571,1,0,0:0:0:0:
160,128,167729,1,8,0:0:0:0:
160,128,167887,1,8,0:0:0:0:
160,128,168045,1,0,0:0:0:0:
160,128,168202,1,0,0:0:0:0:
160,128,168360,1,8,0:0:0:0:
160,128,168518,1,0,0:0:0:0:
160,128,168834,1,0,0:0:0:0:
160,128,168992,1,8,0:0:0:0:
160,128,169308,1,0,0:0:0:0:
160,128,169466,1,0,0:0:0:0:
160,128,169623,1,8,0:0:0:0:
160,128,169781,1,0,0:0:0:0:
160,128,170097,1,0,0:0:0:0:
160,128,170255,1,8,0:0:0:0:
160,128,170413,1,8,0:0:0:0:
160,64,170571,1,0,0:0:0:0:
160,64,170650,1,0,0:0:0:0:
160,128,170729,1,0,0:0:0:0:
160,128,170887,1,8,0:0:0:0:
160,128,171045,1,0,0:0:0:0:
160,96,171360,1,0,0:0:0:0:
160,96,171518,1,8,0:0:0:0:
160,96,171834,1,0,0:0:0:0:
192,160,171992,1,0,0:0:0:0:
192,32,172071,1,0,0:0:0:0:
192,160,172150,1,8,0:0:0:0:
192,160,172308,1,0,0:0:0:0:
192,160,172623,1,0,0:0:0:0:
192,160,172781,1,8,0:0:0:0:
192,160,172939,1,8,0:0:0:0:
192,96,173097,1,0,0:0:0:0:
192,96,173176,1,0,0:0:0:0:
192,160,173255,1,0,0:0:0:0:
192,160,173413,1,8,0:0:0:0:
192,160,173571,1,0,0:0:0:0:
192,160,173887,1,0,0:0:0:0:
192,160,174045,1,8,0:0:0:0:
192,160,174360,1,0,0:0:0:0:
192,160,174518,1,0,0:0:0:0:
192,96,174597,1,0,0:0:0:0:
192,160,174676,1,8,0:0:0:0:
192,160,174834,1,0,0:0:0:0:
192,160,175150,1,0,0:0:0:0:
192,160,175308,1,8,0:0:0:0:
192,160,175466,1,8,0:0:0:0:
192,160,175623,1,0,0:0:0:0:
192,32,175702,1,0,0:0:0:0:
192,32,175781,1,0,0:0:0:0:
192,64,175860,1,0,0:0:0:0:
192,160,175939,1,8,0:0:0:0:
192,160,176097,1,0,0:0:0:0:
160,96,176413,1,0,0:0:0:0:
160,96,176571,1,8,0:0:0:0:
160,96,176887,1,0,0:0:0:0:
160,96,177045,1,0,0:0:0:0:
192,32,177123,1,0,0:0:0:0:
160,96,177202,1,8,0:0:0:0:
160,96,177360,1,0,0:0:0:0:
160,96,177676,1,0,0:0:0:0:
160,96,177834,1,8,0:0:0:0:
160,96,177992,1,8,0:0:0:0:
160,96,178150,1,0,0:0:0:0:
192,96,178229,1,0,0:0:0:0:
160,96,178308,1,0,0:0:0:0:
160,96,178466,1,8,0:0:0:0:
160,96,178623,1,0,0:0:0:0:
160,96,178939,1,0,0:0:0:0:
160,96,179097,1,8,0:0:0:0:
160,96,179413,1,0,0:0:0:0:
160,96,179571,1,0,0:0:0:0:
192,96,179650,1,0,0:0:0:0:
160,96,179729,1,8,0:0:0:0:
160,96,179887,1,0,0:0:0:0:
160,96,180202,1,0,0:0:0:0:
160,160,180360,1,8,0:0:0:0:
160,160,180518,1,8,0:0:0:0:
160,160,180676,1,0,0:0:0:0:
192,32,180755,1,0,0:0:0:0:
160,160,180834,1,0,0:0:0:0:
192,96,180913,1,0,0:0:0:0:
160,160,180992,1,8,0:0:0:0:
160,160,181150,1,0,0:0:0:0:
160,128,181466,1,8,0:0:0:0:
160,128,181623,1,0,0:0:0:0:
192,128,181781,1,8,0:0:0:0:
192,128,181939,1,0,0:0:0:0:
192,192,182255,1,8,0:0:0:0:
192,192,182413,1,0,0:0:0:0:
192,192,182729,1,0,0:0:0:0:
192,192,182887,1,8,0:0:0:0:
224,160,183045,1,8,0:0:0:0:
224,160,183202,1,0,0:0:0:0:
224,160,183518,1,8,0:0:0:0:
224,160,183676,1,0,0:0:0:0:
224,160,183992,1,0,0:0:0:0:
224,160,184150,1,8,0:0:0:0:
192,160,184466,1,0,0:0:0:0:
192,160,184781,1,8,0:0:0:0:
192,160,184939,1,0,0:0:0:0:
192,32,185255,1,0,0:0:0:0:
160,96,185334,1,0,0:0:0:0:
192,160,185413,1,8,0:0:0:0:
192,160,185571,1,8,0:0:0:0:
192,160,185729,1,0,0:0:0:0:
192,160,186045,1,8,0:0:0:0:
192,160,186202,1,0,0:0:0:0:
160,96,186360,1,0,0:0:0:0:
160,160,186518,1,0,0:0:0:0:
160,160,186676,1,8,0:0:0:0:
128,160,186992,1,0,0:0:0:0:
128,160,187308,1,8,0:0:0:0:
128,160,187466,1,0,0:0:0:0:
128,160,187781,1,0,0:0:0:0:
128,160,187939,1,8,0:0:0:0:
128,160,188097,1,8,0:0:0:0:
128,160,188255,1,0,0:0:0:0:
192,64,188413,1,0,0:0:0:0:
128,160,188571,1,8,0:0:0:0:
128,160,188729,1,0,0:0:0:0:
128,160,189045,1,0,0:0:0:0:
128,160,189202,1,8,0:0:0:0:
192,128,189518,1,0,0:0:0:0:
192,128,189834,1,8,0:0:0:0:
192,128,189992,1,0,0:0:0:0:
192,128,190308,1,0,0:0:0:0:
192,64,190387,1,0,0:0:0:0:
192,128,190466,1,8,0:0:0:0:
160,96,190623,1,8,0:0:0:0:
160,96,190781,1,0,0:0:0:0:
160,96,191097,1,8,0:0:0:0:
160,96,191255,1,0,0:0:0:0:
192,32,191413,1,0,0:0:0:0:
160,96,191571,1,0,0:0:0:0:
160,96,191729,1,8,0:0:0:0:
160,96,192045,1,0,0:0:0:0:
160,96,192360,1,8,0:0:0:0:
160,96,192518,1,0,0:0:0:0:
160,96,192834,1,0,0:0:0:0:
160,96,192992,1,8,0:0:0:0:
160,96,193150,1,8,0:0:0:0:
192,32,193229,1,0,0:0:0:0:
160,96,193308,1,0,0:0:0:0:
192,32,193466,1,0,0:0:0:0:
160,96,193623,1,8,0:0:0:0:
160,96,193781,1,0,0:0:0:0:
160,96,194097,1,0,0:0:0:0:
160,96,194255,1,8,0:0:0:0:
160,128,194571,1,0,0:0:0:0:
160,128,194887,1,8,0:0:0:0:
160,128,195045,1,0,0:0:0:0:
160,128,195360,1,0,0:0:0:0:
224,64,195439,1,0,0:0:0:0:
160,128,195518,1,8,0:0:0:0:
160,128,195676,1,8,0:0:0:0:
160,96,195834,1,0,0:0:0:0:
192,96,196150,1,8,0:0:0:0:
192,96,196308,1,0,0:0:0:0:
224,64,196466,1,0,0:0:0:0:
192,96,196623,1,0,0:0:0:0:
192,96,196781,1,8,0:0:0:0:
192,96,197097,1,0,0:0:0:0:
192,96,197413,1,8,0:0:0:0:
192,96,197571,1,0,0:0:0:0:
192,96,197887,1,0,0:0:0:0:
192,96,198045,1,8,0:0:0:0:
192,96,198202,1,8,0:0:0:0:
192,64,198281,1,0,0:0:0:0:
192,96,198360,1,0,0:0:0:0:
224,64,198518,1,0,0:0:0:0:
160,96,198676,1,8,0:0:0:0:
160,96,198834,1,0,0:0:0:0:
160,96,199150,1,0,0:0:0:0:
160,96,199308,1,8,0:0:0:0:
160,96,199623,1,0,0:0:0:0:
160,96,199939,1,8,0:0:0:0:
160,96,200097,1,0,0:0:0:0:
160,96,200413,1,0,0:0:0:0:
160,96,200571,1,8,0:0:0:0:
160,96,200729,1,8,0:0:0:0:
192,96,202150,1,0,0:0:0:0:
96,128,203413,1,8,0:0:0:0:
160,192,204676,1,0,0:0:0:0:
128,192,205939,1,8,0:0:0:0:
128,192,206413,1,8,0:0:0:0:
160,160,206728,1,8,0:0:0:0:
128,192,206886,1,0,0:0:0:0:
128,192,207202,1,0,0:0:0:0:
160,192,208465,1,8,0:0:0:0:
160,224,209728,1,0,0:0:0:0:
160,224,210992,1,8,0:0:0:0:
160,224,211465,1,8,0:0:0:0:
160,224,211939,1,0,0:0:0:0:
160,224,212255,1,0,0:0:0:0:
192,96,213518,1,8,0:0:0:0:
192,96,214781,1,0,0:0:0:0:
160,96,216044,1,8,0:0:0:0:
160,96,216518,1,8,0:0:0:0:
160,96,216834,1,8,0:0:0:0:
160,96,216992,1,0,0:0:0:0:
160,96,217307,1,0,0:0:0:0:
192,96,218571,1,8,0:0:0:0:
160,128,219834,1,0,0:0:0:0:
160,128,221097,1,8,0:0:0:0:
160,128,221571,1,8,0:0:0:0:
160,128,222044,1,0,0:0:0:0:
160,128,222360,1,0,0:0:0:0:
192,128,223623,1,8,0:0:0:0:
192,128,224886,1,0,0:0:0:0:
160,128,226150,1,8,0:0:0:0:
160,128,226623,1,8,0:0:0:0:
160,128,226939,1,8,0:0:0:0:
160,128,227097,1,0,0:0:0:0:
160,128,227413,1,0,0:0:0:0:
160,128,228676,1,8,0:0:0:0:
160,128,229939,1,0,0:0:0:0:
160,128,231202,1,8,0:0:0:0:
160,128,231676,1,8,0:0:0:0:
160,128,232150,1,0,0:0:0:0:
160,128,232465,1,0,0:0:0:0:
160,128,233728,1,8,0:0:0:0:
160,128,234992,1,0,0:0:0:0:
160,128,236255,1,8,0:0:0:0:
160,128,236728,1,8,0:0:0:0:
160,128,237044,1,8,0:0:0:0:
160,128,237202,1,0,0:0:0:0:
160,128,237518,1,0,0:0:0:0:
160,128,238781,1,8,0:0:0:0:
160,128,240044,1,0,0:0:0:0:
160,128,241307,1,8,0:0:0:0:
160,128,241781,1,8,0:0:0:0:
160,128,242255,1,0,0:0:0:0:
160,128,242571,1,0,0:0:0:0:
192,224,243834,1,0,0:0:0:0:
160,160,244465,1,8,0:0:0:0:
160,192,245097,1,0,0:0:0:0:
192,160,246360,1,8,0:0:0:0:
192,160,247623,1,0,0:0:0:0:
192,160,248886,1,0,0:0:0:0:
192,160,249676,1,8,0:0:0:0:
192,160,250150,1,0,0:0:0:0:
192,160,251413,1,0,0:0:0:0:
192,160,252044,1,8,0:0:0:0:
192,160,252676,1,0,0:0:0:0:
160,160,253939,1,0,0:0:0:0:
192,128,254571,1,8,0:0:0:0:
192,128,255202,1,0,0:0:0:0:
160,128,256465,1,8,0:0:0:0:
160,96,257728,1,0,0:0:0:0:
224,128,258992,1,0,0:0:0:0:
192,128,259781,1,8,0:0:0:0:
192,128,260255,1,0,0:0:0:0:
192,128,261518,1,0,0:0:0:0:
192,128,262150,1,8,0:0:0:0:
192,128,262781,1,0,0:0:0:0:
192,128,264044,1,0,0:0:0:0:
192,128,264676,1,8,0:0:0:0:
192,128,265307,1,0,0:0:0:0:
160,128,266571,1,8,0:0:0:0:
160,128,267834,1,0,0:0:0:0:
160,128,269097,1,0,0:0:0:0:
160,128,269886,1,8,0:0:0:0:
160,128,270360,1,0,0:0:0:0:
160,128,271623,1,0,0:0:0:0:
160,128,272255,1,8,0:0:0:0:
160,128,272886,1,0,0:0:0:0:
160,128,274150,1,0,0:0:0:0:
160,128,274781,1,8,0:0:0:0:
160,128,275413,1,0,0:0:0:0:
160,128,276676,1,8,0:0:0:0:
160,128,277939,1,0,0:0:0:0:
160,128,279202,1,0,0:0:0:0:
160,128,279992,1,8,0:0:0:0:
160,128,280465,1,0,0:0:0:0:
160,128,281728,1,0,0:0:0:0:
160,128,282360,1,8,0:0:0:0:
160,128,282992,1,0,0:0:0:0:
192,160,284255,1,8,0:0:0:0:
192,160,285518,1,0,0:0:0:0:
192,160,286781,1,8,0:0:0:0:
192,160,287255,1,8,0:0:0:0:
192,160,287571,1,8,0:0:0:0:
192,160,287728,1,0,0:0:0:0:
192,160,288044,1,0,0:0:0:0:
192,160,289307,1,8,0:0:0:0:
192,192,290571,1,0,0:0:0:0:
192,192,291834,1,8,0:0:0:0:
192,192,292307,1,8,0:0:0:0:
192,192,292781,1,0,0:0:0:0:
192,192,293097,1,0,0:0:0:0:
192,192,294360,1,8,0:0:0:0:
160,160,295623,1,0,0:0:0:0:
192,160,296886,1,8,0:0:0:0:
192,160,297360,1,8,0:0:0:0:
192,160,297676,1,8,0:0:0:0:
192,160,297834,1,0,0:0:0:0:
192,160,298150,1,0,0:0:0:0:
192,160,299413,1,8,0:0:0:0:
192,160,300676,1,0,0:0:0:0:
192,160,301939,1,8,0:0:0:0:
192,160,302413,1,8,0:0:0:0:
192,160,302886,1,0,0:0:0:0:
192,160,303202,1,0,0:0:0:0:
192,160,304465,1,8,0:0:0:0:
192,96,305728,1,0,0:0:0:0:
192,96,306992,1,8,0:0:0:0:
192,96,307465,1,8,0:0:0:0:
192,64,307781,1,8,0:0:0:0:
192,96,307939,1,0,0:0:0:0:
192,96,308255,1,0,0:0:0:0:
192,128,309518,1,8,0:0:0:0:
192,128,310781,1,0,0:0:0:0:
192,128,312044,1,8,0:0:0:0:
192,128,312518,1,8,0:0:0:0:
192,128,312992,1,0,0:0:0:0:
160,96,313307,5,0,0:0:0:0:
160,96,313781,1,0,0:0:0:0:
160,96,314097,1,0,0:0:0:0:
160,96,314571,1,8,0:0:0:0:
160,96,315044,1,8,0:0:0:0:
160,96,315360,1,8,0:0:0:0:
160,96,315834,1,0,0:0:0:0:
160,96,316307,1,0,0:0:0:0:
160,96,316623,1,0,0:0:0:0:
160,96,317097,1,8,0:0:0:0:
160,96,317571,1,8,0:0:0:0:
160,96,317886,1,8,0:0:0:0:
160,96,318044,1,0,0:0:0:0:
160,96,318360,1,0,0:0:0:0:
160,96,318834,1,0,0:0:0:0:
160,96,319150,1,0,0:0:0:0:
160,96,319623,1,8,0:0:0:0:
160,96,320097,1,8,0:0:0:0:
160,96,320413,1,8,0:0:0:0:
160,96,320886,1,0,0:0:0:0:
160,96,321360,1,0,0:0:0:0:
160,96,321676,1,0,0:0:0:0:
160,96,322150,1,8,0:0:0:0:
160,96,322623,1,8,0:0:0:0:
160,96,323097,1,0,0:0:0:0:
160,96,323413,1,12,0:0:0:0:
