osu file format v14

[General]
AudioFilename: audio.mp3
AudioLeadIn: 0
PreviewTime: 8860
Countdown: 0
SampleSet: Soft
StackLeniency: 0.7
Mode: 0
LetterboxInBreaks: 0
WidescreenStoryboard: 1

[Editor]
Bookmarks: 11041,26314,43769
DistanceSpacing: 1.5
BeatDivisor: 4
GridSize: 4
TimelineZoom: 0.7999998

[Metadata]
Title:Vintage
TitleUnicode:Vintage
Artist:Allie X
ArtistUnicode:Allie X
Creator:Melsoon
Version:Our love is...
Source:
Tags:alexandra hughes collxtion 2017 pop troye sivan short
BeatmapID:1962570
BeatmapSetID:933148

[Difficulty]
HPDrainRate:6
CircleSize:4
OverallDifficulty:7
ApproachRate:6
SliderMultiplier:1.3
SliderTickRate:1

[Events]
//Background and Video events
0,0,"background.jpg",0,0
//Break Periods
//Storyboard Layer 0 (Background)
//Storyboard Layer 1 (Fail)
//Storyboard Layer 2 (Pass)
//Storyboard Layer 3 (Foreground)
//Storyboard Sound Samples

[TimingPoints]
8860,545.454545454546,4,2,0,50,1,0
32314,-166.666666666667,4,2,0,50,0,0
33132,-100,4,2,0,50,0,0
34496,-166.666666666667,4,2,0,50,0,0
35041,-100,4,2,0,50,0,0
61223,-83.3333333333333,4,2,0,50,0,1
78132,-83.3333333333333,4,2,0,50,0,0
78678,-76.9230769230769,4,2,0,50,0,1
95041,-83.3333333333333,4,2,0,50,0,0

[Colours]
Combo1 : 239,135,234
Combo2 : 163,208,23
Combo3 : 239,214,33
Combo4 : 125,214,242
Combo5 : 248,151,109

[HitObjects]
38,240,132,5,0,0:0:0:0:
261,119,950,1,0,0:0:0:0:
362,85,1496,2,0,P|396:126|376:179,1,97.5
348,265,2314,5,0,0:0:0:0:
163,38,3132,1,0,0:0:0:0:
58,59,4496,5,0,0:0:0:0:
58,59,4769,2,0,L|97:99,2,32.5
55,186,5314,1,0,0:0:0:0:
55,186,5450,2,0,L|132:235,1,65
152,244,5859,1,0,0:0:0:0:
252,137,6269,1,0,0:0:0:0:
341,137,6678,5,0,0:0:0:0:
341,137,6950,2,0,L|380:97,2,32.5
270,204,7496,1,0,0:0:0:0:
41,118,8860,6,0,P|107:92|133:98,1,97.5
130,97,9405,1,0,0:0:0:0:
194,161,9678,1,0,0:0:0:0:
224,246,9950,2,0,P|162:244|124:208,1,97.5
135,223,10496,1,0,0:0:0:0:
197,163,10769,1,0,0:0:0:0:
286,149,11041,2,0,P|334:189|338:227,1,97.5
338,220,11587,1,0,0:0:0:0:
278,308,11860,1,0,0:0:0:0:
204,340,12132,2,0,P|203:282|237:237,1,97.5
266,226,12678,1,0,0:0:0:0:
313,217,12814,1,0,0:0:0:0:
367,230,12950,5,0,0:0:0:0:
367,230,13087,2,0,B|347:125|249:130,1,162.5
166,112,14041,1,0,0:0:0:0:
194,184,14314,2,0,P|127:179|96:134,1,97.5
107,159,14860,1,0,0:0:0:0:
304,109,15132,1,0,0:0:0:0:
304,109,15269,2,0,B|319:55|377:98|394:45,1,97.5
464,21,15950,1,0,0:0:0:0:
492,107,16223,1,0,0:0:0:0:
489,198,16496,1,0,0:0:0:0:
426,264,16769,2,0,L|350:311,1,65
290,341,17314,1,0,0:0:0:0:
213,291,17587,6,0,L|164:278,1,32.5
86,260,17996,2,0,L|38:224,1,32.5
10,156,18405,1,0,0:0:0:0:
105,174,18678,2,0,P|101:121|74:83,1,97.5
76,85,19223,1,0,0:0:0:0:
121,16,19496,1,0,0:0:0:0:
121,16,19632,2,0,B|173:5|213:43|260:6,1,130
248,13,20314,1,0,0:0:0:0:
320,78,20587,1,0,0:0:0:0:
420,26,20860,2,0,B|451:67|443:103|497:120,1,97.5
503,150,21405,1,0,0:0:0:0:
508,198,21541,1,0,0:0:0:0:
488,243,21678,1,0,0:0:0:0:
447,280,21814,6,0,B|368:310,1,65
339,318,22223,1,0,0:0:0:0:
241,324,22496,1,0,0:0:0:0:
223,234,22769,1,0,0:0:0:0:
223,234,23041,2,0,P|224:170|256:122,1,97.5
238,141,23450,1,0,0:0:0:0:
299,64,23723,1,0,0:0:0:0:
190,61,23996,6,0,P|155:71|127:114,1,65
135,91,24405,1,0,0:0:0:0:
81,171,24678,1,0,0:0:0:0:
142,237,24950,1,0,0:0:0:0:
236,260,25223,1,0,0:0:0:0:
403,288,25496,1,0,0:0:0:0:
234,342,25769,1,0,0:0:0:0:
271,65,26314,6,0,P|234:75|185:147,1,130
251,153,27132,1,0,0:0:0:0:
290,153,27269,1,0,0:0:0:0:
351,164,27405,2,0,P|341:198|314:221,1,65
256,149,27950,1,0,0:0:0:0:
184,147,28223,1,0,0:0:0:0:
148,150,28360,1,0,0:0:0:0:
100,159,28496,2,0,B|90:196|123:208|111:236,1,65
157,293,29041,1,0,0:0:0:0:
240,307,29314,1,0,0:0:0:0:
240,307,29450,1,0,0:0:0:0:
240,307,29587,2,0,P|293:295|308:264,2,65
175,251,30405,2,0,L|131:218,2,32.5
240,307,30950,1,0,0:0:0:0:
323,294,31223,1,0,0:0:0:0:
323,294,31496,6,0,L|363:259,1,32.5
417,224,31905,2,0,L|378:184,1,32.5
367,162,32314,2,0,B|347:148|347:148|354:123|354:123|332:106,1,77.999997619629
126,71,33405,1,0,0:0:0:0:
148,152,33678,2,0,L|171:199,1,32.5
245,195,34087,2,0,L|282:237,1,32.5
219,267,34496,2,0,B|198:253|198:253|193:220|193:220|168:199,1,77.999997619629
53,93,35587,1,0,0:0:0:0:
143,96,35860,5,0,0:0:0:0:
143,96,35996,1,0,0:0:0:0:
143,96,36132,2,0,P|201:109|218:130,1,65
154,180,36678,1,0,0:0:0:0:
148,264,36950,1,0,0:0:0:0:
227,293,37223,2,0,B|270:248|325:278|360:234,1,130
387,173,38041,1,0,0:0:0:0:
387,173,38178,1,0,0:0:0:0:
387,173,38314,2,0,P|369:119|347:99,1,65
288,74,38860,1,0,0:0:0:0:
210,107,39132,2,0,L|170:129,2,32.5
288,74,39678,1,0,0:0:0:0:
368,47,39950,1,0,0:0:0:0:
310,108,40223,5,0,0:0:0:0:
310,108,40360,1,0,0:0:0:0:
247,163,40632,1,0,0:0:0:0:
247,163,40769,1,0,0:0:0:0:
303,233,41041,2,0,P|366:236|371:179,1,130
323,114,41860,1,0,0:0:0:0:
255,64,42132,1,0,0:0:0:0:
170,63,42405,2,0,P|110:57|100:116,1,130
99,114,43087,1,0,0:0:0:0:
135,237,43496,5,0,0:0:0:0:
135,237,43769,2,0,B|212:226|237:297|237:297|325:269,2,195
158,318,45678,1,0,0:0:0:0:
158,318,45950,2,0,L|67:348,1,65
26,290,46496,2,0,P|28:218|38:198,1,65
53,146,47041,2,0,B|57:108|101:113|100:74|134:69|133:36,1,130
216,34,47860,2,0,P|270:102|242:204,1,195
182,256,48950,1,0,0:0:0:0:
182,256,49087,2,0,P|203:279|255:279,1,65
361,293,49769,5,0,0:0:0:0:
454,189,50041,1,0,0:0:0:0:
454,189,50314,2,0,P|433:131|413:114,1,65
348,111,50860,2,0,P|319:96|287:92,1,65
202,98,51405,2,0,P|102:132|87:165,1,130
172,175,52223,1,0,0:0:0:0:
172,175,52496,6,0,P|212:266|306:250,2,195
252,199,54405,1,0,0:0:0:0:
252,199,54678,2,0,P|303:188|339:201,1,65
310,274,55223,2,0,P|342:275|372:265,1,65
451,233,55769,2,0,P|445:181|432:152,1,65
379,110,56314,1,0,0:0:0:0:
379,110,56587,2,0,P|280:102|204:157,1,195
170,232,57678,1,0,0:0:0:0:
170,232,57814,2,0,P|186:261|215:290,1,65
329,320,58496,1,0,0:0:0:0:
398,271,58769,5,0,0:0:0:0:
398,271,59041,2,0,L|337:187,1,97.5
340,192,59587,1,0,0:0:0:0:
112,81,60405,6,0,P|98:125|96:169,1,65
196,319,61223,6,0,L|185:252,1,38.9999988098145
225,185,61632,2,0,L|238:138,1,38.9999988098145
284,58,62041,1,0,0:0:0:0:
391,63,62314,2,0,B|383:131|327:155|327:155|355:204,1,155.999995239258
412,264,63132,1,0,0:0:0:0:
412,264,63405,2,0,L|346:292,1,38.9999988098145
276,296,63814,2,0,L|203:292,1,38.9999988098145
137,274,64223,1,0,0:0:0:0:
43,302,64496,2,0,P|42:249|105:178,1,116.999996429443
106,244,65041,2,0,L|136:217,2,38.9999988098145
137,274,65450,1,0,0:0:0:0:
137,274,65587,6,0,L|244:145,1,155.999995239258
334,127,66405,1,0,0:0:0:0:
237,157,66678,2,0,P|279:208|355:224,1,116.999996429443
325,224,67223,1,0,0:0:0:0:
419,185,67496,1,0,0:0:0:0:
341,119,67769,5,0,0:0:0:0:
341,119,67905,1,0,0:0:0:0:
341,119,68041,1,0,0:0:0:0:
253,41,68314,2,0,P|197:17|153:25,1,77.999997619629
67,47,68860,1,0,0:0:0:0:
81,160,69132,2,0,P|79:212|110:258,1,77.999997619629
178,182,69678,1,0,0:0:0:0:
245,106,69950,6,0,L|310:89,1,38.9999988098145
370,148,70360,2,0,L|344:211,1,38.9999988098145
253,186,70769,1,0,0:0:0:0:
253,186,71041,2,0,B|197:165|185:253|115:207,1,116.999996429443
146,220,71587,1,0,0:0:0:0:
37,123,71860,1,0,0:0:0:0:
98,42,72132,2,0,P|134:88|126:167,1,116.999996429443
135,144,72678,1,0,0:0:0:0:
95,237,72950,1,0,0:0:0:0:
95,237,73223,2,0,P|120:288|190:310,1,116.999996429443
173,310,73769,1,0,0:0:0:0:
229,293,73905,1,0,0:0:0:0:
247,237,74041,1,0,0:0:0:0:
174,237,74178,6,0,P|160:197|186:101,1,116.999996429443
170,124,74723,1,0,0:0:0:0:
209,80,74860,1,0,0:0:0:0:
289,56,75132,1,0,0:0:0:0:
404,73,75405,2,0,P|423:109|402:167,2,77.999997619629
300,17,76223,1,0,0:0:0:0:
188,31,76496,1,0,0:0:0:0:
133,50,76632,1,0,0:0:0:0:
79,73,76769,1,0,0:0:0:0:
99,181,77041,2,0,P|92:228|116:251,1,77.999997619629
214,193,77587,1,0,0:0:0:0:
298,280,77860,1,0,0:0:0:0:
413,297,78132,5,0,0:0:0:0:
427,240,78269,1,0,0:0:0:0:
420,181,78405,1,0,0:0:0:0:
394,128,78541,1,0,0:0:0:0:
343,100,78678,2,0,L|265:127,1,42.2499980659486
205,132,79087,2,0,L|277:169,1,42.2499980659486
366,205,79496,1,0,0:0:0:0:
366,205,79632,2,0,P|339:272|296:282,2,84.4999961318971
366,205,80314,1,0,0:0:0:0:
270,150,80587,1,0,0:0:0:0:
165,116,80860,2,0,L|114:152,1,42.2499980659486
82,239,81269,2,0,L|141:293,1,42.2499980659486
220,291,81678,1,0,0:0:0:0:
220,291,81814,2,0,B|270:313|307:261|353:295,1,126.749994197846
467,314,82496,5,0,0:0:0:0:
430,262,82632,1,0,0:0:0:0:
388,213,82769,1,0,0:0:0:0:
338,173,82905,1,0,0:0:0:0:
284,160,83041,2,0,L|218:145,1,42.2499980659486
131,216,83450,2,0,L|180:254,1,42.2499980659486
289,265,83860,1,0,0:0:0:0:
289,265,83996,2,0,P|346:245|353:224,2,84.4999961318971
289,265,84678,1,0,0:0:0:0:
185,192,84950,1,0,0:0:0:0:
113,108,85223,6,0,P|146:80|190:92,2,84.4999961318971
171,179,86041,1,0,0:0:0:0:
93,257,86314,1,0,0:0:0:0:
192,304,86587,1,0,0:0:0:0:
316,279,86860,5,0,0:0:0:0:
362,236,86996,1,0,0:0:0:0:
374,174,87132,1,0,0:0:0:0:
353,113,87269,1,0,0:0:0:0:
302,74,87405,2,0,L|238:26,1,42.2499980659486
152,82,87814,2,0,L|184:138,1,42.2499980659486
211,239,88223,1,0,0:0:0:0:
211,239,88360,2,0,L|301:267,2,84.4999961318971
211,239,89041,1,0,0:0:0:0:
91,196,89314,1,0,0:0:0:0:
150,83,89587,6,0,L|207:113,1,42.2499980659486
294,170,89996,2,0,L|245:221,1,42.2499980659486
162,275,90405,1,0,0:0:0:0:
212,312,90541,2,0,P|287:308|319:253,1,126.749994197846
224,181,91223,5,0,0:0:0:0:
254,125,91360,1,0,0:0:0:0:
310,96,91496,1,0,0:0:0:0:
367,121,91632,1,0,0:0:0:0:
404,172,91769,2,0,L|425:218,1,42.2499980659486
339,307,92178,2,0,L|283:281,1,42.2499980659486
187,231,92587,1,0,0:0:0:0:
187,231,92723,2,0,P|149:183|141:147,2,84.4999961318971
187,231,93405,1,0,0:0:0:0:
312,213,93678,1,0,0:0:0:0:
256,192,93950,12,0,95587,0:0:0:0:
