osu file format v14

[General]
AudioFilename: audio.mp3
AudioLeadIn: 0
PreviewTime: 8860
Countdown: 0
SampleSet: Soft
StackLeniency: 0.7
Mode: 0
LetterboxInBreaks: 0
WidescreenStoryboard: 0

[Editor]
Bookmarks: 26314,43769
DistanceSpacing: 1
BeatDivisor: 2
GridSize: 8
TimelineZoom: 0.8

[Metadata]
Title:Vintage
TitleUnicode:Vintage
Artist:Allie X
ArtistUnicode:Allie X
Creator:Melsoon
Version:Easy
Source:
Tags:alexandra hughes collxtion 2017 pop troye sivan short
BeatmapID:1948151
BeatmapSetID:933148

[Difficulty]
HPDrainRate:3
CircleSize:3
OverallDifficulty:2
ApproachRate:4
SliderMultiplier:1.1
SliderTickRate:1

[Events]
//Background and Video events
0,0,"background.jpg",0,0
//Break Periods
//Storyboard Layer 0 (Background)
//Storyboard Layer 1 (Fail)
//Storyboard Layer 2 (Pass)
//Storyboard Layer 3 (Foreground)
//Storyboard Sound Samples

[TimingPoints]
8860,545.454545454546,4,2,0,40,1,0
61223,-90.9090909090909,4,2,0,40,0,1
78132,-90.9090909090909,4,2,0,40,0,0
78678,-83.3333333333333,4,2,0,40,0,1
95041,-90.9090909090909,4,2,0,40,0,0

[Colours]
Combo1 : 239,135,234
Combo2 : 163,208,23
Combo3 : 239,214,33
Combo4 : 125,214,242
Combo5 : 248,151,109

[HitObjects]
32,192,8860,6,0,P|144:136|240:152,1,220
312,224,10496,1,8,0:0:0:0:
424,224,11041,2,0,P|368:320|264:328,1,220
201,241,12678,1,8,0:0:0:0:
312,232,13223,6,0,P|296:104|272:88,1,110
216,88,14314,2,0,P|248:48|312:24,1,110,0|8,0:0|0:0,0:0:0:0:
410,24,15405,2,0,P|398:75|348:121,2,110,0|8|0,0:0|0:0|0:0,0:0:0:0:
304,24,17041,1,8,0:0:0:0:
358,116,17587,6,0,P|403:148|424:198,2,110
326,209,19223,1,8,0:0:0:0:
289,116,19769,2,0,P|245:148|224:198,2,110
317,204,21405,1,8,0:0:0:0:
424,179,21950,6,0,P|398:283|254:299,1,220
191,294,23587,1,8,0:0:0:0:
86,260,24132,2,0,P|38:124|54:84,1,110
97,75,25223,1,0,0:0:0:0:
200,36,25769,1,12,0:0:0:0:
321,41,26314,6,0,P|417:97|465:217,1,220
433,297,27950,1,8,0:0:0:0:
321,289,28496,2,0,P|226:235|179:137,1,220
233,41,30132,1,8,0:0:0:0:
345,57,30678,6,0,P|237:152|209:149,1,110
177,169,31769,1,0,0:0:0:0:
65,185,32314,2,0,P|177:281|265:241,1,220,8|0,0:0|0:0,0:0:0:0:
316,210,33950,1,0,0:0:0:0:
418,180,34496,2,0,P|336:108|215:168,1,220,8|0,0:0|0:0,0:0:0:0:
316,210,36132,6,0,P|226:252|146:200,1,110,0|8,0:0|0:0,0:0:0:0:
166,154,37223,2,0,P|131:183|116:322,1,110
213,253,38314,2,0,P|191:303|150:339,1,110,0|8,0:0|0:0,0:0:0:0:
103,240,39405,2,0,P|62:203|40:153,1,110
38,43,40496,1,0,0:0:0:0:
144,68,41041,2,0,P|192:127|346:166,1,220,8|0,0:0|0:0,0:0:0:0:
432,140,42678,1,0,0:0:0:0:
483,237,43223,1,12,0:0:0:0:
403,313,43769,6,2,P|316:283|272:211,2,165
511,296,45950,2,0,P|470:228|399:203,1,110
350,156,47041,2,0,P|300:133|245:136,1,110
157,202,48132,2,2,P|33:162|8:85,1,220
117,101,49769,1,0,0:0:0:0:
157,202,50314,2,0,P|240:248|272:314,2,165
165,311,52496,6,2,P|81:277|50:184,2,165
275,310,54678,1,0,0:0:0:0:
356,236,55223,1,0,0:0:0:0:
270,166,55769,2,0,P|270:80|309:22,1,110
371,119,56860,6,2,P|373:235|334:299,2,165
261,110,59041,2,2,P|232:186|242:267,2,165,2|2|6,0:0|0:0|0:0,0:0:0:0:
378,79,61223,6,0,P|394:162|353:319,1,242.000007385254
241,349,62860,1,8,0:0:0:0:
140,282,63405,2,0,B|27:225|27:225|120:158|120:158|4:90,1,363.000011077881,0|8,0:0|0:0,0:0:0:0:
124,43,65587,6,0,L|248:106,1,121.000003692627
142,179,66678,2,0,L|266:242,1,121.000003692627,0|8,0:0|0:0,0:0:0:0:
351,282,67769,2,0,P|329:154|301:135,1,121.000003692627
254,82,68860,1,0,0:0:0:0:
159,165,69405,1,8,0:0:0:0:
38,169,69950,6,0,P|81:250|233:261,1,242.000007385254
327,214,71587,1,0,0:0:0:0:
447,214,72132,2,0,P|403:132|251:121,1,242.000007385254
153,159,73769,1,8,0:0:0:0:
45,213,74314,2,0,P|127:279|191:275,1,121.000003692627
249,232,75405,2,0,P|211:184|152:162,1,121.000003692627,0|8,0:0|0:0,0:0:0:0:
45,208,76496,2,0,P|124:279|191:275,2,121.000003692627
36,92,78132,1,12,0:0:0:0:
164,59,78678,6,2,P|280:78|331:159,2,197.99999395752
203,185,80860,2,2,P|267:256|364:263,2,197.99999395752
325,137,83041,2,2,P|441:156|492:237,2,197.99999395752
197,170,85223,1,0,0:0:0:0:
103,262,85769,1,0,0:0:0:0:
221,320,86314,2,0,P|318:287|348:261,1,131.99999597168,0|12,0:0|0:0,0:0:0:0:
451,198,87405,6,2,B|417:73|417:73|305:30,2,197.99999395752,2|2|10,0:0|0:0|0:0,0:0:0:0:
459,329,89587,2,2,B|395:304|395:304|361:179,2,197.99999395752,2|2|10,0:0|0:0|0:0,0:0:0:0:
471,198,91769,2,2,P|387:60|291:31,1,263.99999194336
175,28,93405,1,8,0:0:0:0:
107,133,93950,2,0,P|244:133|294:7,1,263.99999194336
175,28,95587,1,12,0:0:0:0:
