osu file format v14

[General]
AudioFilename: audio.mp3
AudioLeadIn: 0
PreviewTime: -1
Countdown: 1
SampleSet: None
StackLeniency: 0.7
Mode: 0
LetterboxInBreaks: 0
WidescreenStoryboard: 0

[Editor]
Bookmarks: 101721
DistanceSpacing: 1.6
BeatDivisor: 4
GridSize: 8
TimelineZoom: 1.6

[Metadata]
Title:Paper Love
TitleUnicode:Paper Love
Artist:Allie X
ArtistUnicode:Allie X
Creator:DominicsHase
Version:Nasty.
Source:
Tags:
BeatmapID:1754385
BeatmapSetID:837944

[Difficulty]
HPDrainRate:6
CircleSize:3.9
OverallDifficulty:6
ApproachRate:9.1
SliderMultiplier:1.4
SliderTickRate:1

[Events]
//Background and Video events
0,0,"Nasty background.png",0,0
//Break Periods
//Storyboard Layer 0 (Background)
//Storyboard Layer 1 (Fail)
//Storyboard Layer 2 (Pass)
//Storyboard Layer 3 (Foreground)
//Storyboard Sound Samples

[TimingPoints]
61300.4881886777,315.789473684211,4,2,0,100,1,0
70063,-285.714285714284,4,2,0,100,0,0
76142,-133.333333333333,4,2,0,100,0,0
80879,-83.3333333333333,4,2,0,100,0,0
81511,-58.8235294117647,4,2,0,100,0,1
84037,-133.333333333333,4,2,0,100,0,0
85932,-399.999999999997,4,2,0,100,0,0
86563,-55.5555555555556,4,2,0,100,0,0
89089,-43.4782608695652,4,2,0,100,0,0
89721,-37.037037037037,4,2,0,100,0,0
90353,-30.3030303030303,4,2,0,100,0,0
92879,-66.6666666666667,4,2,0,100,0,0
94142,-285.714285714284,4,2,0,100,0,0
96037,-100,4,2,0,100,0,0
101074,-285.714285714284,4,2,0,100,0,0

[HitObjects]
361,74,61300,6,0,P|380:158|373:220,1,140
112,97,62247,6,0,P|166:78|250:90,1,140
325,318,63511,5,0,0:0:0:0:
340,157,63826,2,0,P|308:110|230:71,1,140
127,179,64300,1,0,0:0:0:0:
190,309,64458,2,0,P|251:288|277:268,2,70
254,144,65089,2,0,P|304:83|383:43,1,140
123,67,66037,6,0,L|96:151,1,70
237,57,66353,1,0,0:0:0:0:
441,38,66511,1,0,0:0:0:0:
241,115,66668,1,0,0:0:0:0:
458,101,66826,2,0,L|530:155,1,70
177,288,67458,5,0,0:0:0:0:
45,220,67616,2,0,L|126:264,1,70
177,288,67932,1,0,0:0:0:0:
47,115,68089,1,0,0:0:0:0:
203,316,68247,1,0,0:0:0:0:
285,68,68721,5,0,0:0:0:0:
405,172,68879,2,0,L|405:261,1,70
264,160,69195,2,0,L|326:113,1,70
286,271,69511,1,0,0:0:0:0:
146,131,69668,1,0,0:0:0:0:
298,287,69826,1,0,0:0:0:0:
315,86,70142,2,0,L|347:120,1,36.749998878479
358,140,70458,5,0,0:0:0:0:
260,241,70616,1,0,0:0:0:0:
234,103,70774,1,0,0:0:0:0:
389,181,70932,1,0,0:0:0:0:
216,222,71089,1,0,0:0:0:0:
337,78,71247,1,0,0:0:0:0:
358,248,71405,6,0,L|333:298,1,48.9999985046387
296,263,71879,1,0,0:0:0:0:
121,90,72353,5,0,0:0:0:0:
332,107,72668,2,0,L|379:128,1,48.9999985046387
195,217,73142,2,0,L|194:185,1,24.4999992523194
373,53,73616,6,0,L|396:92,1,36.749998878479
390,127,73932,1,0,0:0:0:0:
92,87,74247,6,0,L|124:79,1,24.4999992523194
288,34,74563,1,0,0:0:0:0:
62,106,74879,5,0,0:0:0:0:
314,252,75195,2,0,L|296:287,1,36.749998878479
277,322,75511,5,0,0:0:0:0:
206,74,75668,1,0,0:0:0:0:
420,133,75826,1,0,0:0:0:0:
104,311,76142,6,0,L|61:211,1,105.000004005432
243,116,76774,1,0,0:0:0:0:
86,159,76932,1,0,0:0:0:0:
321,294,77405,6,0,L|366:195,1,105.000004005432
141,192,78037,1,0,0:0:0:0:
370,111,78195,1,0,0:0:0:0:
138,232,78353,1,0,0:0:0:0:
310,67,78668,6,0,P|377:65|401:86,1,78.7500030040742
426,93,78984,1,0,0:0:0:0:
306,305,79300,1,0,0:0:0:0:
241,159,79616,5,0,0:0:0:0:
421,222,79932,1,0,0:0:0:0:
305,259,80247,5,0,0:0:0:0:
353,138,80563,1,0,0:0:0:0:
369,284,80879,2,0,P|313:209|234:182,1,167.999994873047
76,124,81511,6,0,P|168:82|277:60,1,178.500003404617
283,65,81826,1,0,0:0:0:0:
226,239,81984,1,0,0:0:0:0:
126,69,82142,1,0,0:0:0:0:
387,218,82458,5,0,0:0:0:0:
103,187,82616,1,0,0:0:0:0:
430,118,82774,1,0,0:0:0:0:
103,187,82932,1,0,0:0:0:0:
180,312,83089,6,0,L|117:194,1,119.000002269745
395,134,83405,1,0,0:0:0:0:
164,323,83563,1,0,0:0:0:0:
371,83,83721,1,0,0:0:0:0:
107,311,84037,6,0,L|63:208,1,105.000004005432
309,108,84668,1,0,0:0:0:0:
149,95,84984,5,0,0:0:0:0:
309,108,85142,1,0,0:0:0:0:
186,204,85300,1,0,0:0:0:0:
323,47,85616,6,0,P|379:68|398:97,1,78.7500030040742
406,127,85932,2,0,L|331:146,1,70
84,245,86879,5,0,0:0:0:0:
196,80,87037,2,0,P|281:59|379:70,1,125.999996154785
298,300,87353,1,0,0:0:0:0:
254,39,87511,1,0,0:0:0:0:
371,305,87668,2,0,L|406:175,1,125.999996154785
106,67,87984,1,0,0:0:0:0:
439,68,88142,1,0,0:0:0:0:
181,326,88458,6,0,P|110:252|101:93,1,251.999992309571
111,55,88932,1,0,0:0:0:0:
381,204,89089,5,0,0:0:0:0:
351,298,89247,1,0,0:0:0:0:
265,197,89405,1,0,0:0:0:0:
441,207,89563,1,0,0:0:0:0:
233,303,89721,5,0,0:0:0:0:
228,86,89879,1,0,0:0:0:0:
341,223,90037,1,0,0:0:0:0:
140,168,90195,1,0,0:0:0:0:
368,63,90353,5,0,0:0:0:0:
326,324,90511,1,0,0:0:0:0:
65,110,90668,1,0,0:0:0:0:
477,154,90826,1,0,0:0:0:0:
128,56,90984,5,0,0:0:0:0:
170,324,91300,1,0,0:0:0:0:
431,105,91616,1,0,0:0:0:0:
133,225,91932,5,0,0:0:0:0:
316,113,92089,1,0,0:0:0:0:
244,295,92247,1,0,0:0:0:0:
117,137,92405,5,0,0:0:0:0:
335,254,92563,1,0,0:0:0:0:
236,71,92721,1,0,0:0:0:0:
154,288,92879,2,0,P|102:314|52:313,2,105.000004005432
400,84,93511,5,0,0:0:0:0:
77,198,93826,1,0,0:0:0:0:
406,159,94142,2,0,P|348:125|418:137,1,195.999994018555
300,267,96037,6,0,P|237:186|217:126,1,140
433,193,96668,1,0,0:0:0:0:
444,147,96984,5,0,0:0:0:0:
246,271,97142,1,0,0:0:0:0:
186,91,97300,1,0,0:0:0:0:
348,274,97616,5,0,0:0:0:0:
416,93,97774,1,0,0:0:0:0:
176,109,97932,1,0,0:0:0:0:
457,45,98247,5,0,0:0:0:0:
248,53,98405,1,0,0:0:0:0:
422,115,98563,1,0,0:0:0:0:
210,72,98721,1,0,0:0:0:0:
500,69,98879,1,0,0:0:0:0:
137,164,99195,2,0,L|160:324,1,140
289,243,99668,1,0,0:0:0:0:
200,105,99826,2,0,L|69:171,1,140
408,72,100616,5,0,0:0:0:0:
411,231,100774,1,0,0:0:0:0:
109,137,101089,6,0,P|138:127|206:138,1,97.9999970092774
