osu file format v14

[General]
AudioFilename: audio.mp3
AudioLeadIn: 0
PreviewTime: 42856
Countdown: 0
SampleSet: Soft
StackLeniency: 0.7
Mode: 0
LetterboxInBreaks: 0
WidescreenStoryboard: 1

[Editor]
DistanceSpacing: 1
BeatDivisor: 2
GridSize: 8
TimelineZoom: 1

[Metadata]
Title:Burning Bright
TitleUnicode:Burning Bright
Artist:Allie Crystal
ArtistUnicode:Allie Crystal
Creator:July - San
Version:Normal
Source:League of Legends
Tags:lol poppy jinx lulu lux janna star guardian guardianas estelares song Cloudchaser
BeatmapID:1263901
BeatmapSetID:597903

[Difficulty]
HPDrainRate:5
CircleSize:4
OverallDifficulty:4
ApproachRate:6
SliderMultiplier:1
SliderTickRate:1

[Events]
//Background and Video events
0,0,"BG Star Guardian.jpg",0,0
Video,0,"Star Guardian.mp4"
//Break Periods
2,55524,64674
//Storyboard Layer 0 (Background)
//Storyboard Layer 1 (Fail)
//Storyboard Layer 2 (Pass)
//Storyboard Layer 3 (Foreground)
//Storyboard Sound Samples

[TimingPoints]
5454,389.61038961039,4,2,1,40,1,0
17921,-100,4,2,1,40,0,0
28830,-100,4,2,1,40,0,0
29220,-100,4,3,1,42,0,0
30389,-100,4,2,1,42,0,0
39739,-100,4,2,2,42,0,0
40324,-100,4,2,1,42,0,0
42856,-83.3333333333333,4,2,1,52,0,1
43246,-100,4,2,1,52,0,1
53765,-100,4,2,1,40,0,1
55324,-100,4,2,1,52,0,0
66428,-100,4,3,1,52,0,0
66622,-100,4,2,1,52,0,0
67207,-100,4,3,1,52,0,0
67402,-100,4,2,1,52,0,0
67791,-100,4,2,1,42,0,0
72077,-100,4,2,2,42,0,0
72661,-100,4,2,1,42,0,0
77142,-100,4,2,2,42,0,0
77726,-100,4,2,1,42,0,0
80259,-83.3333333333333,4,2,1,65,0,1
89609,-83.3333333333333,4,2,1,60,0,1
91557,-83.3333333333333,4,2,1,40,0,1
92337,-83.3333333333333,4,2,1,60,0,1
92726,-100,4,2,1,30,0,0
94285,-100,4,2,1,15,0,0
95843,-100,4,2,1,10,0,0

[Colours]
Combo1 : 128,128,255
Combo2 : 128,128,192
Combo3 : 255,128,192
Combo4 : 255,128,64

[HitObjects]
408,344,17921,6,0,L|448:240,1,100,2|0,0:0|0:0,0:0:0:0:
360,192,18700,2,0,L|264:152,1,100
176,136,19479,6,0,P|160:216|240:312,2,200,0|2|0,0:0|0:0|0:0,0:0:0:0:
256,80,21428,5,0,0:0:0:0:
352,64,21817,2,0,P|376:128|352:160,1,100
264,160,22596,6,0,P|248:208|272:256,2,100,2|0|0,0:0|0:0|0:0,0:0:0:0:
184,104,23765,1,2,0:0:0:0:
144,320,24155,6,0,P|168:280|168:216,2,100,2|0|0,0:0|0:0|0:0,0:0:0:0:
80,128,25713,1,2,0:0:0:0:
176,144,26103,6,0,L|240:56,1,100
424,88,27272,5,2,0:0:0:0:
328,56,27661,2,0,P|240:112|200:208,1,200
232,272,28830,6,0,P|232:296|296:328,1,100,8|8,0:0|0:0,0:0:0:0:
376,280,29609,2,0,L|272:104,1,200,2|4,0:0|0:0,0:0:0:0:
176,88,30778,5,8,0:0:0:0:
56,248,31557,5,0,0:0:0:0:
144,296,31947,1,0,0:0:0:0:
224,240,32337,6,0,P|272:256|312:312,1,100,8|0,0:0|0:0,0:0:0:0:
208,328,33116,2,0,L|152:376,2,50,2|0|0,0:0|0:0|0:0,0:0:0:0:
296,280,33895,5,8,0:0:0:0:
328,184,34285,1,0,0:0:0:0:
264,112,34674,2,0,P|224:144|232:208,1,100
312,240,35454,6,0,P|288:296|304:328,1,100,8|0,0:0|0:0,0:0:0:0:
400,288,36233,2,0,L|456:256,2,50,2|0|0,0:0|0:0|0:0,0:0:0:0:
336,216,37012,5,8,0:0:0:0:
248,168,37402,1,0,0:0:0:0:
160,224,37791,6,0,L|120:280,2,50,2|0|0,0:0|0:0|0:0,0:0:0:0:
256,232,38570,2,0,P|328:232|354:210,1,100,8|0,0:0|0:0,0:0:0:0:
304,128,39350,1,2,0:0:0:0:
232,64,39739,6,0,P|152:48|72:64,2,150
296,136,41298,5,0,0:0:0:0:
320,232,41687,2,0,P|274:249|208:240,2,100,8|0|0,0:0|0:0|0:0,0:0:0:0:
240,136,42856,5,4,0:0:0:0:
136,136,43246,1,8,0:0:0:0:
136,232,43635,5,0,0:0:0:0:
240,232,44025,1,8,0:0:0:0:
344,232,44415,6,0,P|344:288|295:333,1,100,0|8,0:0|0:0,0:0:0:0:
216,320,45194,1,0,0:0:0:0:
120,320,45583,1,8,0:0:0:0:
160,224,45973,5,2,0:0:0:0:
160,120,46363,2,0,L|-8:256,1,200,8|8,0:0|0:0,0:0:0:0:
56,328,47531,5,0,0:0:0:0:
160,328,47921,1,8,0:0:0:0:
224,256,48311,2,0,L|320:200,1,100,0|8,0:0|0:0,0:0:0:0:
352,112,49090,6,0,P|312:80|248:80,1,100,2|8,0:0|0:0,0:0:0:0:
208,144,49869,1,0,0:0:0:0:
248,232,50259,5,8,0:0:0:0:
152,248,50648,1,0,0:0:0:0:
64,200,51038,6,0,L|128:104,1,100,8|0,0:0|0:0,0:0:0:0:
208,96,51817,1,8,0:0:0:0:
304,72,52207,5,0,0:0:0:0:
400,88,52596,1,8,0:0:0:0:
320,152,52986,2,0,P|272:184|240:240,1,100,0|8,0:0|0:0,0:0:0:0:
344,240,53765,5,4,0:0:0:0:
448,240,54155,2,0,P|456:288|432:344,1,100,8|0,0:0|0:0,0:0:0:0:
336,328,54934,1,8,0:0:0:0:
240,296,55324,1,4,0:0:0:0:
168,98,66233,6,0,L|224:136,2,50,8|2|8,0:0|0:0|0:0,0:0:0:0:
96,168,67012,2,0,L|88:240,2,50,8|2|8,0:0|0:0|0:0,0:0:0:0:
176,224,67791,6,0,P|171:288|200:336,1,100,4|8,0:0|0:0,0:0:0:0:
280,288,68570,1,0,0:0:0:0:
344,216,68960,1,8,0:0:0:0:
336,120,69350,6,0,P|394:110|454:126,2,100,0|8|0,0:0|0:0|0:0,0:0:0:0:
240,136,70518,1,8,0:0:0:0:
160,200,70908,6,0,P|96:200|56:240,1,100,4|8,0:0|0:0,0:0:0:0:
128,296,71687,1,0,0:0:0:0:
224,304,72077,2,0,P|289:327|364:302,2,150,0|12|8,0:0|0:0|0:0,0:0:0:0:
192,208,73635,6,0,P|113:185|80:192,2,100,8|4|8,0:0|0:0|0:0,0:0:0:0:
288,216,74804,2,0,P|275:295|248:320,1,100,0|8,0:0|0:0,0:0:0:0:
168,320,75583,5,0,0:0:0:0:
72,304,75973,2,0,L|56:200,2,100,8|0|8,0:0|0:0|0:0,0:0:0:0:
168,256,77142,6,0,P|179:190|136:104,2,150,4|0|10,0:0|0:0|0:0,0:0:0:0:
72,264,78700,2,0,P|21:307|22:347,2,100,0|8|0,0:0|0:0|0:0,0:0:0:0:
168,288,79869,1,8,0:0:0:0:
280,232,80259,6,0,P|311:300|296:352,2,119.999996337891,4|0|8,0:0|0:0|0:0,0:0:0:0:
192,152,81428,1,0,0:0:0:0:
272,64,81817,5,0,0:0:0:0:
152,64,82207,2,0,P|115:142|120:200,2,119.999996337891,0|8|0,0:0|0:0|0:0,0:0:0:0:
224,160,83376,6,0,L|296:256,1,119.999996337891
416,240,84155,1,8,0:0:0:0:
464,128,84544,6,0,P|408:112|336:128,2,119.999996337891,2|0|0,0:0|0:0|0:0,0:0:0:0:
432,240,85713,1,8,0:0:0:0:
352,328,86103,1,0,0:0:0:0:
264,240,86492,5,4,0:0:0:0:
152,192,86882,2,0,L|192:56,1,119.999996337891,0|8,0:0|0:0,0:0:0:0:
304,104,87661,1,0,0:0:0:0:
376,200,88051,5,2,0:0:0:0:
296,288,88441,1,0,0:0:0:0:
176,312,88830,1,8,0:0:0:0:
128,200,89609,6,0,P|176:224|256:208,1,119.999996337891,8|8,0:0|0:0,0:0:0:0:
152,296,90389,2,0,P|96:280|16:288,2,119.999996337891,8|8|0,0:0|0:0|0:0,0:0:0:0:
264,256,91557,6,0,P|328:272|360:336,1,119.999996337891,4|8,0:0|0:0,0:0:0:0:
240,344,92337,1,0,0:0:0:0:
152,296,92726,5,6,0:0:0:0:
256,192,93116,12,2,95843,0:0:0:0:
