osu file format v14

[General]
AudioFilename: audio.mp3
AudioLeadIn: 0
PreviewTime: 40539
Countdown: 0
SampleSet: Soft
StackLeniency: 1
Mode: 0
LetterboxInBreaks: 0
WidescreenStoryboard: 0

[Editor]
DistanceSpacing: 1.4
BeatDivisor: 4
GridSize: 4
TimelineZoom: 1.6

[Metadata]
Title:Burning Bright
TitleUnicode:Burning Bright
Artist:Allie Crystal
ArtistUnicode:Allie Crystal
Creator:Cloudchaser
Version:Hard
Source:League of Legends
Tags:Star guardian lux poppy janna jinx lulu mahou shojo EDM
BeatmapID:1102894
BeatmapSetID:519102

[Difficulty]
HPDrainRate:6
CircleSize:4
OverallDifficulty:6
ApproachRate:8
SliderMultiplier:1.6
SliderTickRate:1

[Events]
//Background and Video events
0,0,"20160919193202a0eilt73lm1nabid.jpg",0,0
Video,0,"Burn.avi"
//Break Periods
2,53206,63165
//Storyboard Layer 0 (Background)
//Storyboard Layer 1 (Fail)
//Storyboard Layer 2 (Pass)
//Storyboard Layer 3 (Foreground)
//Storyboard Sound Samples

[TimingPoints]
3137,779.220779220779,4,2,0,60,1,0
15604,-71.4285714285714,4,2,0,60,0,0
28072,389.61038961039,4,2,0,60,1,0
28072,-111.111111111111,4,2,0,60,0,0
40539,-111.111111111111,4,2,0,60,0,1
53006,779.220779220779,4,2,0,60,1,0
53006,-100,4,2,0,60,0,0
63915,-71.4285714285714,4,2,0,60,0,0
65473,389.61038961039,4,2,0,60,1,0
65473,-111.111111111111,4,2,0,60,0,0
77940,-111.111111111111,4,2,0,60,0,1
90018,-111.111111111111,4,2,0,60,0,0
90408,-111.111111111111,4,2,0,60,0,1
102875,-100,4,2,0,60,0,0
102973,-100,4,2,0,60,0,0
103849,-100,4,2,0,40,0,0
104823,-100,4,2,0,30,0,0
105992,-100,4,2,0,15,0,0
106771,-100,4,2,0,10,0,0
107550,-100,4,2,0,5,0,0

[Colours]
Combo1 : 0,128,255
Combo2 : 245,21,10
Combo3 : 255,72,164
Combo4 : 131,255,6
Combo5 : 169,83,255

[HitObjects]
116,244,15604,6,0,P|164:248|200:248,1,55.9999982910157
256,192,15994,2,0,P|284:192|324:196,1,55.9999982910157
380,272,16383,1,0,0:0:0:0:
416,72,16773,1,0,0:0:0:0:
216,68,17162,2,0,B|160:88|156:52|72:80,1,111.999996582031
48,156,17747,2,0,L|64:284,1,111.999996582031
260,224,18526,1,0,0:0:0:0:
348,272,18721,2,0,P|400:264|424:252,1,55.9999982910157
360,172,19111,2,0,P|376:100|372:36,1,111.999996582031
188,64,19890,2,0,P|200:89|210:115,1,55.9999982910157
312,108,20279,2,0,P|310:135|303:163,1,55.9999982910157
216,216,20669,1,0,0:0:0:0:
308,260,20864,1,0,0:0:0:0:
396,212,21059,2,0,P|472:208|532:212,1,111.999996582031
308,260,21838,6,0,P|278:268|200:260,1,55.9999982910157
168,216,22227,1,0,0:0:0:0:
164,116,22422,1,0,0:0:0:0:
260,80,22617,2,0,P|264:140|244:176,1,55.9999982910157
364,160,23007,2,0,P|356:96|380:8,1,111.999996582031
448,232,23786,1,0,0:0:0:0:
448,232,23981,2,0,L|436:364,1,111.999996582031
336,332,24565,2,0,P|264:344|248:336,1,55.9999982910157
204,284,24955,2,0,P|148:268|120:268,1,55.9999982910157
88,348,25344,2,0,P|148:272|68:180,1,223.999993164063
24,100,26318,1,0,0:0:0:0:
24,100,26513,2,0,P|84:92|148:104,1,111.999996582031
228,136,27098,1,0,0:0:0:0:
228,136,27292,2,0,P|283:143|338:135,1,111.999996582031
480,36,28072,5,0,0:0:0:0:
436,204,28461,2,0,P|432:252|408:296,1,71.9999978027344
336,220,28851,2,0,P|312:252|272:280,1,71.9999978027344
188,252,29240,1,0,0:0:0:0:
176,352,29435,1,0,0:0:0:0:
104,280,29630,2,0,B|96:224|116:224|105:168,1,107.999996704102
108,148,30020,2,0,P|152:96|244:116,1,143.999995605469
256,196,30604,1,0,0:0:0:0:
340,140,30799,1,0,0:0:0:0:
432,184,30994,1,0,0:0:0:0:
432,184,31091,1,0,0:0:0:0:
432,184,31188,6,0,P|436:148|432:100,1,71.9999978027344
340,140,31578,2,0,P|332:236|352:304,2,143.999995605469
364,40,32552,1,0,0:0:0:0:
260,60,32747,2,0,P|248:132|232:152,1,71.9999978027344
172,192,33136,1,0,0:0:0:0:
252,252,33331,1,0,0:0:0:0:
160,296,33526,2,0,P|108:300|80:292,1,71.9999978027344
28,212,33916,1,0,0:0:0:0:
156,112,34110,1,0,0:0:0:0:
156,112,34208,1,0,0:0:0:0:
156,112,34305,6,0,P|204:100|240:72,1,71.9999978027344
308,32,34695,1,0,0:0:0:0:
396,76,34890,1,0,0:0:0:0:
388,176,35084,2,0,P|306:210|296:216,1,71.9999978027344
256,280,35474,2,0,P|196:272|164:260,1,71.9999978027344
124,188,35864,2,0,L|128:56,1,107.999996704102
128,56,36253,2,0,P|168:68|216:60,1,71.9999978027344
292,32,36643,1,0,0:0:0:0:
376,88,36838,1,0,0:0:0:0:
376,88,36935,1,0,0:0:0:0:
376,88,37033,1,0,0:0:0:0:
360,188,37227,5,0,0:0:0:0:
272,236,37422,2,0,P|208:244|116:276,1,143.999995605469
32,292,38007,2,0,P|68:240|44:148,1,143.999995605469
16,72,38591,1,0,0:0:0:0:
16,72,38786,1,0,0:0:0:0:
116,84,38981,2,0,P|188:112|216:116,1,71.9999978027344
310,37,39370,2,0,P|294:69|284:104,1,71.9999978027344
240,196,39760,1,0,0:0:0:0:
340,196,39955,1,0,0:0:0:0:
376,288,40149,1,0,0:0:0:0:
316,368,40344,1,0,0:0:0:0:
316,368,40442,1,0,0:0:0:0:
316,368,40539,6,0,P|248:356|224:344,1,71.9999978027344
208,260,40929,2,0,L|56:244,1,143.999995605469
36,148,41513,1,0,0:0:0:0:
132,112,41708,2,0,P|156:64|160:40,1,71.9999978027344
256,16,42097,1,0,0:0:0:0:
312,100,42292,1,0,0:0:0:0:
412,88,42487,2,0,P|416:48|408:8,1,71.9999978027344
312,100,42877,2,0,P|308:140|316:180,1,71.9999978027344
356,264,43266,1,0,0:0:0:0:
356,264,43461,1,0,0:0:0:0:
204,252,43656,6,0,P|144:252|100:264,1,71.9999978027344
28,157,44046,2,0,P|64:162|100:160,1,71.9999978027344
176,92,44435,1,0,0:0:0:0:
256,156,44630,1,0,0:0:0:0:
336,96,44825,2,0,L|344:24,2,71.9999978027344
392,180,45409,1,0,0:0:0:0:
312,240,45604,1,0,0:0:0:0:
212,236,45799,2,0,P|96:222|65:255,1,143.999995605469
146,306,46383,1,0,0:0:0:0:
244,324,46578,1,0,0:0:0:0:
296,236,46773,2,0,L|304:144,1,71.9999978027344
340,72,47162,6,0,B|272:48|264:88|176:52,1,143.999995605469
100,28,47747,1,0,0:0:0:0:
48,112,47942,2,0,P|48:168|40:196,1,71.9999978027344
136,224,48331,2,0,P|136:300|172:332,1,107.999996704102
176,332,48721,2,0,P|216:328|248:332,1,71.9999978027344
344,364,49110,1,0,0:0:0:0:
408,288,49305,1,0,0:0:0:0:
408,288,49403,1,0,0:0:0:0:
408,288,49500,1,0,0:0:0:0:
308,172,49695,1,0,0:0:0:0:
308,172,49792,1,0,0:0:0:0:
308,172,49890,6,0,P|308:116|300:44,1,107.999996704102
280,52,50279,2,0,P|220:36|192:36,1,71.9999978027344
132,100,50669,1,0,0:0:0:0:
148,200,50864,1,0,0:0:0:0:
148,200,50961,1,0,0:0:0:0:
148,200,51059,1,0,0:0:0:0:
68,260,51253,1,0,0:0:0:0:
160,300,51448,2,0,P|224:288|308:308,1,143.999995605469
372,236,52033,2,0,P|436:248|520:228,1,143.999995605469
440,100,52617,2,0,L|432:52,4,35.9999989013672
60,192,63915,6,0,L|140:204,1,55.9999982910157
184,124,64304,2,0,L|252:152,1,55.9999982910157
320,88,64694,2,0,L|360:132,1,55.9999982910157
368,228,65083,1,0,0:0:0:0:
368,228,65181,1,0,0:0:0:0:
368,228,65278,1,0,0:0:0:0:
224,276,65473,6,0,P|152:308|88:272,1,143.999995605469
52,192,66057,1,0,0:0:0:0:
132,132,66252,2,0,P|136:64|128:40,1,71.9999978027344
236,52,66641,2,0,P|232:120|240:144,1,71.9999978027344
308,192,67031,1,0,0:0:0:0:
328,92,67226,1,0,0:0:0:0:
232,122,67421,2,0,L|132:132,1,71.9999978027344
84,64,67810,1,0,0:0:0:0:
64,164,68005,2,0,P|104:232|72:312,1,143.999995605469
76,312,68492,1,0,0:0:0:0:
60,328,68589,1,0,0:0:0:0:
260,292,68979,6,0,P|296:276|356:264,1,71.9999978027344
424,236,69369,2,0,P|444:136|432:76,1,143.999995605469
348,48,69953,1,0,0:0:0:0:
276,120,70148,2,0,L|200:116,1,71.9999978027344
140,40,70537,2,0,L|68:43,1,71.9999978027344
36,140,70927,1,0,0:0:0:0:
60,236,71122,1,0,0:0:0:0:
84,332,71317,1,0,0:0:0:0:
184,312,71511,1,0,0:0:0:0:
280,288,71706,6,0,P|340:264|360:232,1,71.9999978027344
364,244,71998,1,0,0:0:0:0:
376,220,72096,1,0,0:0:0:0:
344,124,72291,1,0,0:0:0:0:
272,52,72485,2,0,P|235:47|192:64,2,71.9999978027344
344,124,73070,1,0,0:0:0:0:
244,132,73265,2,0,P|204:160|180:216,1,107.999996704102
184,236,73654,2,0,P|168:312|160:320,1,71.9999978027344
80,340,74044,2,0,L|0:340,2,71.9999978027344
224,200,74823,6,0,L|380:216,1,143.999995605469
452,160,75408,1,0,0:0:0:0:
376,92,75602,2,0,P|364:32|364:16,1,71.9999978027344
452,160,75992,2,0,P|456:224|432:312,1,143.999995605469
340,332,76576,1,0,0:0:0:0:
340,332,76674,1,0,0:0:0:0:
340,332,76771,2,0,P|280:324|240:324,1,71.9999978027344
172,352,77161,1,0,0:0:0:0:
100,284,77356,2,0,L|60:304,2,35.9999989013672
124,188,77745,1,0,0:0:0:0:
288,84,77940,6,0,P|356:96|384:92,1,71.9999978027344
456,64,78330,2,0,L|432:212,1,143.999995605469
452,304,78914,1,0,0:0:0:0:
356,268,79109,2,0,P|332:232|300:212,1,71.9999978027344
156,283,79498,2,0,P|186:265|207:236,1,71.9999978027344
208,136,79888,1,0,0:0:0:0:
120,188,80083,1,0,0:0:0:0:
160,280,80278,2,0,P|172:336|168:368,1,71.9999978027344
120,188,80667,2,0,P|108:132|112:100,1,71.9999978027344
116,92,80960,1,0,0:0:0:0:
128,68,81057,5,0,0:0:0:0:
280,60,81252,1,0,0:0:0:0:
360,120,81447,1,0,0:0:0:0:
259,296,81641,2,0,P|242:228|272:164,1,143.999995605469
341,237,82226,2,0,P|358:275|359:315,1,71.9999978027344
310,384,82615,1,0,0:0:0:0:
211,367,82810,1,0,0:0:0:0:
164,278,83005,2,0,P|170:240|159:199,1,71.9999978027344
100,130,83395,1,0,0:0:0:0:
180,69,83589,2,0,P|261:89|332:88,1,143.999995605469
418,58,84174,1,0,0:0:0:0:
456,256,84563,6,0,B|388:280|388:240|308:264,1,143.999995605469
224,308,85148,1,0,0:0:0:0:
156,232,85343,2,0,L|148:148,1,71.9999978027344
204,76,85732,2,0,P|240:88|296:84,1,71.9999978027344
300,88,86024,1,0,0:0:0:0:
300,88,86122,1,0,0:0:0:0:
388,36,86317,1,0,0:0:0:0:
428,128,86511,2,0,P|424:172|436:232,1,71.9999978027344
432,224,86804,1,0,0:0:0:0:
444,248,86901,1,0,0:0:0:0:
360,304,87096,5,0,0:0:0:0:
232,232,87291,2,0,P|156:224|140:228,1,71.9999978027344
140,236,87583,1,0,0:0:0:0:
124,252,87680,1,0,0:0:0:0:
188,332,87875,1,0,0:0:0:0:
280,292,88070,2,0,P|308:244|308:216,1,71.9999978027344
304,204,88362,1,0,0:0:0:0:
292,184,88460,2,0,P|264:136|264:108,1,71.9999978027344
392,40,88849,2,0,P|408:103|346:123,1,143.999995605469
212,56,89434,2,0,P|136:40|60:68,1,143.999995605469
48,156,90018,1,0,0:0:0:0:
48,156,90115,1,0,0:0:0:0:
48,156,90213,1,0,0:0:0:0:
48,156,90310,1,0,0:0:0:0:
48,156,90408,5,0,0:0:0:0:
48,256,90602,1,0,0:0:0:0:
144,288,90797,2,0,P|144:328|140:372,2,71.9999978027344
196,200,91382,1,0,0:0:0:0:
260,120,91576,2,0,P|316:108|352:120,1,71.9999978027344
404,176,91966,2,0,L|400:28,1,143.999995605469
304,8,92550,1,0,0:0:0:0:
208,44,92745,2,0,P|156:44|128:56,1,71.9999978027344
76,132,93135,1,0,0:0:0:0:
124,220,93330,1,0,0:0:0:0:
204,280,93524,6,0,P|224:228|223:203,2,71.9999978027344
268,360,94109,2,0,P|316:308|404:336,1,143.999995605469
476,352,94693,2,0,L|472:264,1,71.9999978027344
396,216,95083,1,0,0:0:0:0:
452,132,95278,1,0,0:0:0:0:
352,124,95473,2,0,P|288:132|268:132,1,71.9999978027344
184,100,95862,2,0,P|148:94|112:91,1,71.9999978027344
28,148,96252,1,0,0:0:0:0:
52,244,96447,1,0,0:0:0:0:
52,244,96544,1,0,0:0:0:0:
52,244,96641,6,0,P|96:284|136:296,1,71.9999978027344
208,280,97031,2,0,P|272:260|356:260,1,143.999995605469
448,276,97615,1,0,0:0:0:0:
408,184,97810,2,0,P|372:176|340:152,1,71.9999978027344
264,96,98200,2,0,P|208:64|144:112,1,143.999995605469
140,204,98784,2,0,L|160:360,1,143.999995605469
256,312,99369,2,0,P|300:292|336:284,1,71.9999978027344
464,340,99758,5,0,0:0:0:0:
454,240,99952,1,0,0:0:0:0:
386,164,100148,2,0,P|318:168|294:168,1,71.9999978027344
213,156,100537,2,0,P|182:81|241:19,1,143.999995605469
311,11,101122,1,0,0:0:0:0:
254,94,101317,2,0,L|80:92,1,143.999995605469
45,170,101901,2,0,P|88:249|94:322,1,143.999995605469
186,343,102485,1,0,0:0:0:0:
277,299,102680,1,0,0:0:0:0:
256,192,102875,5,0,0:0:0:0:
256,192,102973,12,0,107550,0:0:0:0:
