osu file format v14

[General]
AudioFilename: audio.mp3
AudioLeadIn: 0
PreviewTime: 216102
Countdown: 0
SampleSet: Normal
StackLeniency: 0.7
Mode: 1
LetterboxInBreaks: 0
WidescreenStoryboard: 1

[Editor]
Bookmarks: 9702,43302,86502,105702,144102,182502,211302,249702,268752
DistanceSpacing: 0.4
BeatDivisor: 4
GridSize: 32
TimelineZoom: 2.1

[Metadata]
Title:Dyson Sphere
TitleUnicode:Dyson Sphere
Artist:Allegaeon
ArtistUnicode:Allegaeon
Creator:Hivie
Version:Oni
Source:
Tags:Elements of the Infinite fa featured artist mpg mg mappers' guild english technical extreme melodic death metal greg burgess corey archuleta brandon park michael stancel riley mcshane
BeatmapID:4287404
BeatmapSetID:2052673

[Difficulty]
HPDrainRate:5.5
CircleSize:2
OverallDifficulty:6
ApproachRate:10
SliderMultiplier:1.4
SliderTickRate:1

[Events]
//Background and Video events
0,0,"bg.jpg",0,0
//Break Periods
//Storyboard Layer 0 (Background)
//Storyboard Layer 1 (Fail)
//Storyboard Layer 2 (Pass)
//Storyboard Layer 3 (Foreground)
//Storyboard Layer 4 (Overlay)
//Storyboard Sound Samples

[TimingPoints]
102,300,4,1,0,10,1,0
102,-200,4,1,0,10,0,0
1299,-181.818181818182,4,1,0,20,0,0
2499,-166.666666666667,4,1,0,30,0,0
3699,-153.846153846154,4,1,0,40,0,0
4899,-142.857142857143,4,1,0,50,0,0
6099,-133.333333333333,4,1,0,60,0,0
7152,-125,4,1,0,80,0,0
7899,-117.647058823529,4,1,0,80,0,0
8499,-111.111111111111,4,1,0,80,0,0
8799,-108.108108108108,4,1,0,80,0,0
9099,-105.263157894737,4,1,0,80,0,0
9399,-102.564102564103,4,1,0,80,0,0
9552,-100,4,1,0,100,0,0
38502,-100,4,1,0,100,0,1
43302,-100,4,1,0,100,0,0
81702,-100,4,1,0,100,0,1
86502,-100,4,1,0,100,0,0
211602,-111.111111111111,4,1,0,100,0,0
214902,-100,4,1,0,100,0,0
215202,-100,4,1,0,5,0,0
216027,-100,4,1,0,100,0,0
216102,-100,4,1,0,100,0,1
225702,-100,4,1,0,100,0,0
244902,-100,4,1,0,100,0,1
249702,-100,4,1,0,100,0,0

[HitObjects]
256,192,7302,5,8,0:0:0:0:
256,192,7902,1,8,0:0:0:0:
256,192,8502,1,8,0:0:0:0:
256,192,8802,1,8,0:0:0:0:
256,192,9102,1,8,0:0:0:0:
256,192,9402,1,8,0:0:0:0:
256,96,9702,1,4,0:0:0:0:
256,192,9852,1,8,0:0:0:0:
256,192,10152,1,0,0:0:0:0:
256,192,10302,1,8,0:0:0:0:
256,192,10452,1,0,0:0:0:0:
256,192,10752,1,0,0:0:0:0:
256,192,11052,1,0,0:0:0:0:
256,192,11352,1,0,0:0:0:0:
256,192,11502,1,8,0:0:0:0:
256,192,11652,1,8,0:0:0:0:
256,192,11802,1,0,0:0:0:0:
256,192,11952,1,8,0:0:0:0:
256,192,12102,1,0,0:0:0:0:
256,192,12252,1,8,0:0:0:0:
256,192,12552,1,0,0:0:0:0:
256,192,12702,1,8,0:0:0:0:
256,192,12852,1,0,0:0:0:0:
256,192,13152,1,0,0:0:0:0:
256,192,13302,1,8,0:0:0:0:
256,192,13377,1,8,0:0:0:0:
256,192,13452,1,8,0:0:0:0:
256,192,13527,1,8,0:0:0:0:
256,192,13602,1,0,0:0:0:0:
256,192,13752,1,0,0:0:0:0:
256,192,13902,1,8,0:0:0:0:
256,192,14052,1,0,0:0:0:0:
256,192,14127,1,0,0:0:0:0:
256,192,14202,1,8,0:0:0:0:
256,192,14352,1,8,0:0:0:0:
256,192,14502,1,0,0:0:0:0:
256,192,14652,1,8,0:0:0:0:
256,192,14952,1,0,0:0:0:0:
256,192,15102,1,8,0:0:0:0:
256,192,15252,1,0,0:0:0:0:
256,192,15552,1,0,0:0:0:0:
256,192,15852,1,0,0:0:0:0:
256,192,16152,1,0,0:0:0:0:
256,192,16302,1,8,0:0:0:0:
256,192,16452,1,8,0:0:0:0:
256,192,16602,1,0,0:0:0:0:
256,192,16752,1,8,0:0:0:0:
256,192,16902,1,0,0:0:0:0:
256,192,17052,1,8,0:0:0:0:
256,192,17352,1,0,0:0:0:0:
256,192,17502,1,8,0:0:0:0:
256,192,17652,1,0,0:0:0:0:
256,192,17952,1,0,0:0:0:0:
256,192,18102,1,8,0:0:0:0:
256,192,18177,1,8,0:0:0:0:
256,192,18252,1,8,0:0:0:0:
256,192,18327,1,8,0:0:0:0:
256,192,18402,1,0,0:0:0:0:
256,192,18552,1,8,0:0:0:0:
256,192,18702,1,0,0:0:0:0:
256,192,18777,1,0,0:0:0:0:
256,192,18852,1,0,0:0:0:0:
256,192,18927,1,0,0:0:0:0:
256,192,19002,1,8,0:0:0:0:
256,192,19152,1,0,0:0:0:0:
256,96,19302,1,12,0:0:0:0:
256,192,19452,1,0,0:0:0:0:
256,192,19752,1,0,0:0:0:0:
256,192,19902,1,8,0:0:0:0:
256,192,20052,1,0,0:0:0:0:
256,192,20202,1,8,0:0:0:0:
256,192,20352,1,0,0:0:0:0:
256,192,20427,1,0,0:0:0:0:
256,192,20502,1,8,0:0:0:0:
256,192,20577,1,8,0:0:0:0:
256,192,20652,1,0,0:0:0:0:
256,192,20802,1,8,0:0:0:0:
256,192,20952,1,0,0:0:0:0:
256,192,21027,1,0,0:0:0:0:
256,192,21102,1,8,0:0:0:0:
256,192,21252,1,0,0:0:0:0:
256,192,21402,1,8,0:0:0:0:
256,192,21552,1,0,0:0:0:0:
256,192,21702,1,8,0:0:0:0:
256,192,21852,1,0,0:0:0:0:
256,192,22152,1,0,0:0:0:0:
256,192,22302,1,8,0:0:0:0:
256,192,22452,1,0,0:0:0:0:
256,192,22602,1,8,0:0:0:0:
256,192,22752,1,0,0:0:0:0:
256,192,22827,1,0,0:0:0:0:
256,192,22902,1,8,0:0:0:0:
256,192,23052,1,0,0:0:0:0:
256,192,23202,1,8,0:0:0:0:
256,192,23352,1,0,0:0:0:0:
256,192,23427,1,0,0:0:0:0:
256,192,23502,1,8,0:0:0:0:
256,192,23652,1,0,0:0:0:0:
256,192,23802,1,8,0:0:0:0:
256,192,23952,1,8,0:0:0:0:
256,192,24027,1,8,0:0:0:0:
256,192,24102,1,0,0:0:0:0:
256,192,24252,1,0,0:0:0:0:
256,192,24552,1,0,0:0:0:0:
256,192,24702,1,8,0:0:0:0:
256,192,24852,1,0,0:0:0:0:
256,192,25002,1,8,0:0:0:0:
256,192,25152,1,0,0:0:0:0:
256,192,25227,1,0,0:0:0:0:
256,192,25302,1,8,0:0:0:0:
256,192,25377,1,8,0:0:0:0:
256,192,25452,1,0,0:0:0:0:
256,192,25602,1,8,0:0:0:0:
256,192,25752,1,0,0:0:0:0:
256,192,25902,1,0,0:0:0:0:
256,192,26052,1,8,0:0:0:0:
256,192,26202,1,0,0:0:0:0:
256,192,26277,1,0,0:0:0:0:
256,192,26352,1,0,0:0:0:0:
256,192,26502,1,8,0:0:0:0:
256,192,26652,1,0,0:0:0:0:
256,192,26952,1,0,0:0:0:0:
256,192,27102,1,8,0:0:0:0:
256,192,27252,1,0,0:0:0:0:
256,192,27402,1,8,0:0:0:0:
256,192,27552,1,0,0:0:0:0:
256,192,27627,1,0,0:0:0:0:
256,192,27702,1,8,0:0:0:0:
256,192,27852,1,0,0:0:0:0:
256,192,28002,1,8,0:0:0:0:
256,192,28152,1,0,0:0:0:0:
256,192,28302,1,8,0:0:0:0:
256,192,28452,1,8,0:0:0:0:
256,192,28527,1,8,0:0:0:0:
256,192,28602,1,0,0:0:0:0:
256,192,28677,1,0,0:0:0:0:
256,192,28752,1,8,0:0:0:0:
256,192,28902,1,0,0:0:0:0:
256,192,29202,1,8,0:0:0:0:
256,192,29352,1,0,0:0:0:0:
256,192,29502,1,8,0:0:0:0:
256,192,29652,1,8,0:0:0:0:
256,192,29802,1,0,0:0:0:0:
256,192,29952,1,0,0:0:0:0:
256,192,30027,1,0,0:0:0:0:
256,192,30102,1,8,0:0:0:0:
256,192,30252,1,0,0:0:0:0:
256,192,30402,1,8,0:0:0:0:
256,192,30477,1,8,0:0:0:0:
256,192,30552,1,0,0:0:0:0:
256,192,30702,1,8,0:0:0:0:
256,192,30852,1,0,0:0:0:0:
256,192,31002,1,8,0:0:0:0:
256,192,31077,1,0,0:0:0:0:
256,192,31152,1,8,0:0:0:0:
256,192,31302,1,0,0:0:0:0:
256,192,31602,1,8,0:0:0:0:
256,192,31752,1,8,0:0:0:0:
256,192,31902,1,0,0:0:0:0:
256,192,31977,1,0,0:0:0:0:
256,192,32052,1,8,0:0:0:0:
256,192,32202,1,0,0:0:0:0:
256,192,32352,1,8,0:0:0:0:
256,192,32427,1,8,0:0:0:0:
256,192,32502,1,0,0:0:0:0:
256,192,32652,1,0,0:0:0:0:
256,192,32802,1,8,0:0:0:0:
256,192,32952,1,8,0:0:0:0:
256,192,33102,1,0,0:0:0:0:
256,192,33177,1,0,0:0:0:0:
256,192,33252,1,8,0:0:0:0:
256,192,33402,1,0,0:0:0:0:
256,192,33552,1,8,0:0:0:0:
256,192,33627,1,8,0:0:0:0:
256,192,33702,1,0,0:0:0:0:
256,192,34002,1,8,0:0:0:0:
256,192,34152,1,0,0:0:0:0:
256,192,34302,1,8,0:0:0:0:
256,192,34452,1,8,0:0:0:0:
256,192,34602,1,0,0:0:0:0:
256,192,34752,1,0,0:0:0:0:
256,192,34827,1,0,0:0:0:0:
256,192,34902,1,8,0:0:0:0:
256,192,35052,1,0,0:0:0:0:
256,192,35202,1,8,0:0:0:0:
256,192,35277,1,8,0:0:0:0:
256,192,35352,1,0,0:0:0:0:
256,192,35427,1,0,0:0:0:0:
256,192,35502,1,8,0:0:0:0:
256,192,35652,1,0,0:0:0:0:
256,192,35802,1,8,0:0:0:0:
256,192,35877,1,0,0:0:0:0:
256,192,35952,1,8,0:0:0:0:
256,192,36102,1,0,0:0:0:0:
256,192,36402,1,8,0:0:0:0:
256,192,36552,1,8,0:0:0:0:
256,192,36702,1,0,0:0:0:0:
256,192,36777,1,0,0:0:0:0:
256,192,36852,1,8,0:0:0:0:
256,192,37002,1,0,0:0:0:0:
256,192,37152,1,8,0:0:0:0:
256,192,37227,1,8,0:0:0:0:
256,192,37302,1,0,0:0:0:0:
256,192,37452,1,0,0:0:0:0:
256,192,37602,1,8,0:0:0:0:
256,192,37752,1,8,0:0:0:0:
256,192,37902,1,0,0:0:0:0:
256,192,37977,1,0,0:0:0:0:
256,192,38052,1,8,0:0:0:0:
256,192,38202,1,0,0:0:0:0:
256,192,38502,1,0,0:0:0:0:
256,192,38652,1,8,0:0:0:0:
256,192,38802,1,0,0:0:0:0:
256,192,38877,1,0,0:0:0:0:
256,192,38952,1,8,0:0:0:0:
256,192,39027,1,8,0:0:0:0:
256,192,39102,1,0,0:0:0:0:
256,192,39252,1,8,0:0:0:0:
256,192,39402,1,0,0:0:0:0:
256,192,39477,1,0,0:0:0:0:
256,192,39552,1,0,0:0:0:0:
256,192,39702,1,8,0:0:0:0:
256,192,39852,1,8,0:0:0:0:
256,192,40002,1,0,0:0:0:0:
256,192,40077,1,0,0:0:0:0:
256,192,40152,1,8,0:0:0:0:
256,192,40302,1,0,0:0:0:0:
256,192,40452,1,8,0:0:0:0:
256,192,40527,1,8,0:0:0:0:
256,192,40602,1,0,0:0:0:0:
256,192,40752,1,0,0:0:0:0:
256,192,40902,1,8,0:0:0:0:
256,192,40977,1,8,0:0:0:0:
256,192,41052,1,0,0:0:0:0:
256,192,41127,1,0,0:0:0:0:
256,192,41202,1,8,0:0:0:0:
256,192,41352,1,0,0:0:0:0:
256,192,41502,1,8,0:0:0:0:
256,192,41577,1,8,0:0:0:0:
256,192,41652,1,8,0:0:0:0:
256,192,41727,1,8,0:0:0:0:
256,192,41802,1,0,0:0:0:0:
256,192,41952,1,0,0:0:0:0:
256,192,42102,1,8,0:0:0:0:
256,192,42177,1,8,0:0:0:0:
256,192,42252,1,0,0:0:0:0:
256,192,42327,1,0,0:0:0:0:
256,192,42402,1,0,0:0:0:0:
256,192,42702,1,0,0:0:0:0:
256,192,42852,1,0,0:0:0:0:
256,192,43002,1,8,0:0:0:0:
256,192,43152,1,0,0:0:0:0:
256,96,43302,1,12,0:0:0:0:
256,192,43452,1,0,0:0:0:0:
256,192,43752,1,0,0:0:0:0:
256,192,43902,1,8,0:0:0:0:
256,192,44052,1,0,0:0:0:0:
256,192,44352,1,0,0:0:0:0:
256,192,44652,1,0,0:0:0:0:
256,192,44952,1,0,0:0:0:0:
256,192,45102,1,8,0:0:0:0:
256,192,45252,1,8,0:0:0:0:
256,192,45402,1,0,0:0:0:0:
256,192,45552,1,8,0:0:0:0:
256,192,45702,1,0,0:0:0:0:
256,192,45852,1,8,0:0:0:0:
256,192,46152,1,0,0:0:0:0:
256,192,46302,1,8,0:0:0:0:
256,192,46452,1,0,0:0:0:0:
256,192,46752,1,0,0:0:0:0:
256,192,46902,1,8,0:0:0:0:
256,192,46977,1,8,0:0:0:0:
256,192,47052,1,8,0:0:0:0:
256,192,47127,1,8,0:0:0:0:
256,192,47202,1,0,0:0:0:0:
256,192,47352,1,0,0:0:0:0:
256,192,47502,1,8,0:0:0:0:
256,192,47652,1,0,0:0:0:0:
256,192,47727,1,0,0:0:0:0:
256,192,47802,1,8,0:0:0:0:
256,192,47952,1,8,0:0:0:0:
256,192,48102,1,0,0:0:0:0:
256,192,48252,1,8,0:0:0:0:
256,192,48552,1,0,0:0:0:0:
256,192,48702,1,8,0:0:0:0:
256,192,48852,1,0,0:0:0:0:
256,192,49152,1,0,0:0:0:0:
256,192,49452,1,0,0:0:0:0:
256,192,49752,1,0,0:0:0:0:
256,192,49902,1,8,0:0:0:0:
256,192,50052,1,8,0:0:0:0:
256,192,50202,1,0,0:0:0:0:
256,192,50352,1,8,0:0:0:0:
256,192,50502,1,0,0:0:0:0:
256,192,50652,1,8,0:0:0:0:
256,192,50952,1,0,0:0:0:0:
256,192,51027,1,0,0:0:0:0:
256,192,51102,1,8,0:0:0:0:
256,192,51252,1,0,0:0:0:0:
256,192,51552,1,0,0:0:0:0:
256,192,51702,1,8,0:0:0:0:
256,192,51777,1,8,0:0:0:0:
256,192,51852,1,8,0:0:0:0:
256,192,51927,1,8,0:0:0:0:
256,192,52002,1,0,0:0:0:0:
256,192,52152,1,8,0:0:0:0:
256,192,52302,1,0,0:0:0:0:
256,192,52377,1,0,0:0:0:0:
256,192,52452,1,0,0:0:0:0:
256,192,52527,1,0,0:0:0:0:
256,192,52602,1,8,0:0:0:0:
256,192,52752,1,0,0:0:0:0:
256,96,52902,1,12,0:0:0:0:
256,192,53202,1,0,0:0:0:0:
256,192,53352,1,0,0:0:0:0:
256,192,53502,1,8,0:0:0:0:
256,192,53652,1,0,0:0:0:0:
256,192,53802,1,8,0:0:0:0:
256,192,53877,1,8,0:0:0:0:
256,192,53952,1,0,0:0:0:0:
256,192,54102,1,8,0:0:0:0:
256,192,54252,1,0,0:0:0:0:
256,192,54402,1,8,0:0:0:0:
256,192,54552,1,0,0:0:0:0:
256,192,54702,1,8,0:0:0:0:
256,192,54777,1,8,0:0:0:0:
256,192,54852,1,8,0:0:0:0:
256,192,55002,1,0,0:0:0:0:
256,192,55302,1,0,0:0:0:0:
256,192,55452,1,8,0:0:0:0:
256,192,55602,1,0,0:0:0:0:
256,192,55677,1,0,0:0:0:0:
256,192,55752,1,0,0:0:0:0:
256,192,55902,1,8,0:0:0:0:
256,192,56052,1,8,0:0:0:0:
256,192,56202,1,0,0:0:0:0:
256,192,56352,1,0,0:0:0:0:
256,192,56502,1,8,0:0:0:0:
256,192,56577,1,8,0:0:0:0:
256,192,56652,1,8,0:0:0:0:
256,192,56727,1,8,0:0:0:0:
256,192,56802,1,0,0:0:0:0:
256,192,56952,1,8,0:0:0:0:
256,192,57102,1,0,0:0:0:0:
256,192,57177,1,0,0:0:0:0:
256,192,57252,1,0,0:0:0:0:
256,192,57327,1,0,0:0:0:0:
256,192,57402,1,8,0:0:0:0:
256,192,57552,1,8,0:0:0:0:
256,192,57702,1,0,0:0:0:0:
256,192,58002,1,8,0:0:0:0:
256,192,58152,1,8,0:0:0:0:
256,192,58227,1,8,0:0:0:0:
256,192,58302,1,0,0:0:0:0:
256,192,58452,1,8,0:0:0:0:
256,192,58602,1,0,0:0:0:0:
256,192,58752,1,0,0:0:0:0:
256,192,58902,1,8,0:0:0:0:
256,192,58977,1,8,0:0:0:0:
256,192,59052,1,0,0:0:0:0:
256,192,59127,1,0,0:0:0:0:
256,192,59202,1,8,0:0:0:0:
256,192,59352,1,8,0:0:0:0:
256,192,59502,1,0,0:0:0:0:
256,192,59577,1,0,0:0:0:0:
256,192,59652,1,0,0:0:0:0:
256,192,59802,1,8,0:0:0:0:
256,192,59877,1,8,0:0:0:0:
256,192,59952,1,0,0:0:0:0:
256,192,60102,1,8,0:0:0:0:
256,192,60252,1,0,0:0:0:0:
256,192,60402,1,8,0:0:0:0:
256,192,60477,1,0,0:0:0:0:
256,192,60552,1,0,0:0:0:0:
256,192,60627,1,0,0:0:0:0:
256,192,60702,1,8,0:0:0:0:
256,192,60852,1,0,0:0:0:0:
256,192,61002,1,8,0:0:0:0:
256,192,61302,1,8,0:0:0:0:
256,192,61377,1,8,0:0:0:0:
256,192,61452,1,8,0:0:0:0:
256,192,61527,1,8,0:0:0:0:
256,192,61602,1,0,0:0:0:0:
256,192,61752,1,8,0:0:0:0:
256,192,61902,1,0,0:0:0:0:
256,192,61977,1,0,0:0:0:0:
256,192,62052,1,0,0:0:0:0:
256,192,62127,1,0,0:0:0:0:
256,192,62202,1,8,0:0:0:0:
256,192,62352,1,0,0:0:0:0:
256,96,62502,1,12,0:0:0:0:
256,192,62652,1,0,0:0:0:0:
256,192,62952,1,0,0:0:0:0:
256,192,63102,1,8,0:0:0:0:
256,192,63252,1,0,0:0:0:0:
256,192,63402,1,8,0:0:0:0:
256,192,63552,1,0,0:0:0:0:
256,192,63627,1,0,0:0:0:0:
256,192,63702,1,8,0:0:0:0:
256,192,63777,1,8,0:0:0:0:
256,192,63852,1,0,0:0:0:0:
256,192,64002,1,8,0:0:0:0:
256,192,64152,1,0,0:0:0:0:
256,192,64227,1,0,0:0:0:0:
256,192,64302,1,8,0:0:0:0:
256,192,64452,1,0,0:0:0:0:
256,192,64602,1,8,0:0:0:0:
256,192,64752,1,0,0:0:0:0:
256,192,64902,1,8,0:0:0:0:
256,192,65052,1,0,0:0:0:0:
256,192,65352,1,0,0:0:0:0:
256,192,65502,1,8,0:0:0:0:
256,192,65652,1,0,0:0:0:0:
256,192,65802,1,8,0:0:0:0:
256,192,65952,1,0,0:0:0:0:
256,192,66027,1,0,0:0:0:0:
256,192,66102,1,8,0:0:0:0:
256,192,66252,1,0,0:0:0:0:
256,192,66402,1,8,0:0:0:0:
256,192,66477,1,8,0:0:0:0:
256,192,66552,1,0,0:0:0:0:
256,192,66702,1,8,0:0:0:0:
256,192,66852,1,0,0:0:0:0:
256,192,67002,1,8,0:0:0:0:
256,192,67077,1,0,0:0:0:0:
256,192,67152,1,8,0:0:0:0:
256,192,67302,1,0,0:0:0:0:
256,192,67452,1,0,0:0:0:0:
256,192,67752,1,0,0:0:0:0:
256,192,67902,1,8,0:0:0:0:
256,192,68052,1,0,0:0:0:0:
256,192,68202,1,8,0:0:0:0:
256,192,68352,1,0,0:0:0:0:
256,192,68427,1,0,0:0:0:0:
256,192,68502,1,8,0:0:0:0:
256,192,68577,1,8,0:0:0:0:
256,192,68652,1,0,0:0:0:0:
256,192,68802,1,8,0:0:0:0:
256,192,68952,1,0,0:0:0:0:
256,192,69102,1,8,0:0:0:0:
256,192,69252,1,0,0:0:0:0:
256,192,69402,1,8,0:0:0:0:
256,192,69477,1,8,0:0:0:0:
256,192,69552,1,0,0:0:0:0:
256,192,69627,1,0,0:0:0:0:
256,192,69702,1,8,0:0:0:0:
256,192,69852,1,0,0:0:0:0:
256,192,70152,1,0,0:0:0:0:
256,192,70302,1,8,0:0:0:0:
256,192,70452,1,0,0:0:0:0:
256,192,70602,1,8,0:0:0:0:
256,192,70752,1,0,0:0:0:0:
256,192,70827,1,0,0:0:0:0:
256,192,70902,1,8,0:0:0:0:
256,192,71052,1,0,0:0:0:0:
256,192,71202,1,8,0:0:0:0:
256,192,71352,1,0,0:0:0:0:
256,192,71427,1,0,0:0:0:0:
256,192,71502,1,8,0:0:0:0:
256,192,71652,1,8,0:0:0:0:
256,192,71727,1,8,0:0:0:0:
256,192,71802,1,0,0:0:0:0:
256,192,71877,1,0,0:0:0:0:
256,192,71952,1,8,0:0:0:0:
256,192,72102,1,0,0:0:0:0:
256,192,72402,1,8,0:0:0:0:
256,192,72552,1,0,0:0:0:0:
256,192,72702,1,8,0:0:0:0:
256,192,72852,1,8,0:0:0:0:
256,192,73002,1,0,0:0:0:0:
256,192,73152,1,0,0:0:0:0:
256,192,73227,1,0,0:0:0:0:
256,192,73302,1,8,0:0:0:0:
256,192,73452,1,0,0:0:0:0:
256,192,73602,1,8,0:0:0:0:
256,192,73677,1,8,0:0:0:0:
256,192,73752,1,0,0:0:0:0:
256,192,73902,1,8,0:0:0:0:
256,192,74052,1,0,0:0:0:0:
256,192,74202,1,8,0:0:0:0:
256,192,74277,1,0,0:0:0:0:
256,192,74352,1,8,0:0:0:0:
256,192,74502,1,0,0:0:0:0:
256,192,74802,1,8,0:0:0:0:
256,192,74952,1,8,0:0:0:0:
256,192,75102,1,0,0:0:0:0:
256,192,75177,1,0,0:0:0:0:
256,192,75252,1,8,0:0:0:0:
256,192,75402,1,0,0:0:0:0:
256,192,75552,1,8,0:0:0:0:
256,192,75627,1,8,0:0:0:0:
256,192,75702,1,0,0:0:0:0:
256,192,75852,1,0,0:0:0:0:
256,192,76002,1,8,0:0:0:0:
256,192,76152,1,8,0:0:0:0:
256,192,76302,1,0,0:0:0:0:
256,192,76377,1,0,0:0:0:0:
256,192,76452,1,8,0:0:0:0:
256,192,76602,1,0,0:0:0:0:
256,192,76752,1,8,0:0:0:0:
256,192,76827,1,8,0:0:0:0:
256,192,76902,1,0,0:0:0:0:
256,192,77202,1,8,0:0:0:0:
256,192,77352,1,0,0:0:0:0:
256,192,77502,1,8,0:0:0:0:
256,192,77652,1,8,0:0:0:0:
256,192,77802,1,0,0:0:0:0:
256,192,77952,1,0,0:0:0:0:
256,192,78027,1,0,0:0:0:0:
256,192,78102,1,8,0:0:0:0:
256,192,78252,1,0,0:0:0:0:
256,192,78402,1,8,0:0:0:0:
256,192,78477,1,8,0:0:0:0:
256,192,78552,1,0,0:0:0:0:
256,192,78627,1,0,0:0:0:0:
256,192,78702,1,8,0:0:0:0:
256,192,78852,1,0,0:0:0:0:
256,192,79002,1,8,0:0:0:0:
256,192,79077,1,0,0:0:0:0:
256,192,79152,1,8,0:0:0:0:
256,192,79302,1,0,0:0:0:0:
256,192,79602,1,8,0:0:0:0:
256,192,79752,1,8,0:0:0:0:
256,192,79902,1,0,0:0:0:0:
256,192,79977,1,0,0:0:0:0:
256,192,80052,1,8,0:0:0:0:
256,192,80202,1,0,0:0:0:0:
256,192,80352,1,8,0:0:0:0:
256,192,80427,1,8,0:0:0:0:
256,192,80502,1,0,0:0:0:0:
256,192,80652,1,0,0:0:0:0:
256,192,80802,1,8,0:0:0:0:
256,192,80952,1,8,0:0:0:0:
256,192,81102,1,0,0:0:0:0:
256,192,81177,1,0,0:0:0:0:
256,192,81252,1,8,0:0:0:0:
256,192,81402,1,0,0:0:0:0:
256,192,81702,1,0,0:0:0:0:
256,192,81852,1,8,0:0:0:0:
256,192,82002,1,0,0:0:0:0:
256,192,82077,1,0,0:0:0:0:
256,192,82152,1,8,0:0:0:0:
256,192,82227,1,8,0:0:0:0:
256,192,82302,1,0,0:0:0:0:
256,192,82452,1,8,0:0:0:0:
256,192,82602,1,0,0:0:0:0:
256,192,82677,1,0,0:0:0:0:
256,192,82752,1,0,0:0:0:0:
256,192,82902,1,8,0:0:0:0:
256,192,83052,1,8,0:0:0:0:
256,192,83202,1,0,0:0:0:0:
256,192,83277,1,0,0:0:0:0:
256,192,83352,1,8,0:0:0:0:
256,192,83502,1,0,0:0:0:0:
256,192,83652,1,8,0:0:0:0:
256,192,83727,1,8,0:0:0:0:
256,192,83802,1,0,0:0:0:0:
256,192,83952,1,0,0:0:0:0:
256,192,84102,1,8,0:0:0:0:
256,192,84177,1,8,0:0:0:0:
256,192,84252,1,0,0:0:0:0:
256,192,84327,1,0,0:0:0:0:
256,192,84402,1,8,0:0:0:0:
256,192,84552,1,0,0:0:0:0:
256,192,84702,1,8,0:0:0:0:
256,192,84777,1,8,0:0:0:0:
256,192,84852,1,8,0:0:0:0:
256,192,84927,1,8,0:0:0:0:
256,192,85002,1,0,0:0:0:0:
256,192,85152,1,0,0:0:0:0:
256,192,85302,1,8,0:0:0:0:
256,192,85377,1,8,0:0:0:0:
256,192,85452,1,0,0:0:0:0:
256,192,85527,1,0,0:0:0:0:
256,192,85602,1,0,0:0:0:0:
256,192,85902,1,8,0:0:0:0:
256,192,86052,1,0,0:0:0:0:
256,192,86202,1,0,0:0:0:0:
256,192,86352,1,0,0:0:0:0:
256,96,86502,1,12,0:0:0:0:
256,192,86652,1,0,0:0:0:0:
256,192,86952,1,0,0:0:0:0:
256,192,87102,1,8,0:0:0:0:
256,192,87252,1,0,0:0:0:0:
256,192,87552,1,0,0:0:0:0:
256,192,87852,1,0,0:0:0:0:
256,192,88152,1,0,0:0:0:0:
256,192,88302,1,8,0:0:0:0:
256,192,88452,1,8,0:0:0:0:
256,192,88602,1,0,0:0:0:0:
256,192,88752,1,8,0:0:0:0:
256,192,88902,1,0,0:0:0:0:
256,192,89052,1,8,0:0:0:0:
256,192,89352,1,0,0:0:0:0:
256,192,89502,1,8,0:0:0:0:
256,192,89652,1,0,0:0:0:0:
256,192,89952,1,0,0:0:0:0:
256,192,90102,1,8,0:0:0:0:
256,192,90177,1,8,0:0:0:0:
256,192,90252,1,8,0:0:0:0:
256,192,90327,1,8,0:0:0:0:
256,192,90402,1,0,0:0:0:0:
256,192,90552,1,0,0:0:0:0:
256,192,90702,1,8,0:0:0:0:
256,192,90852,1,0,0:0:0:0:
256,192,90927,1,0,0:0:0:0:
256,192,91002,1,8,0:0:0:0:
256,192,91152,1,8,0:0:0:0:
256,192,91302,1,0,0:0:0:0:
256,192,91452,1,8,0:0:0:0:
256,192,91752,1,0,0:0:0:0:
256,192,91902,1,8,0:0:0:0:
256,192,92052,1,0,0:0:0:0:
256,192,92352,1,0,0:0:0:0:
256,192,92652,1,0,0:0:0:0:
256,192,92952,1,0,0:0:0:0:
256,192,93102,1,8,0:0:0:0:
256,192,93252,1,8,0:0:0:0:
256,192,93402,1,0,0:0:0:0:
256,192,93552,1,8,0:0:0:0:
256,192,93702,1,0,0:0:0:0:
256,192,93852,1,8,0:0:0:0:
256,192,94152,1,0,0:0:0:0:
256,192,94302,1,8,0:0:0:0:
256,192,94452,1,0,0:0:0:0:
256,192,94752,1,0,0:0:0:0:
256,192,94902,1,8,0:0:0:0:
256,192,94977,1,8,0:0:0:0:
256,192,95052,1,8,0:0:0:0:
256,192,95127,1,8,0:0:0:0:
256,192,95202,1,0,0:0:0:0:
256,192,95352,1,8,0:0:0:0:
256,192,95502,1,0,0:0:0:0:
256,192,95577,1,0,0:0:0:0:
256,192,95652,1,0,0:0:0:0:
256,192,95727,1,0,0:0:0:0:
256,192,95802,1,8,0:0:0:0:
256,192,95952,1,0,0:0:0:0:
256,96,96102,1,12,0:0:0:0:
256,192,96402,1,0,0:0:0:0:
256,192,96552,1,0,0:0:0:0:
256,192,96702,1,8,0:0:0:0:
256,192,96852,1,0,0:0:0:0:
256,192,97002,1,8,0:0:0:0:
256,192,97077,1,8,0:0:0:0:
256,192,97152,1,0,0:0:0:0:
256,192,97302,1,8,0:0:0:0:
256,192,97452,1,0,0:0:0:0:
256,192,97602,1,8,0:0:0:0:
256,192,97752,1,0,0:0:0:0:
256,192,97902,1,8,0:0:0:0:
256,192,97977,1,8,0:0:0:0:
256,192,98052,1,8,0:0:0:0:
256,192,98202,1,0,0:0:0:0:
256,192,98502,1,0,0:0:0:0:
256,192,98652,1,8,0:0:0:0:
256,192,98802,1,0,0:0:0:0:
256,192,98877,1,0,0:0:0:0:
256,192,98952,1,0,0:0:0:0:
256,192,99102,1,8,0:0:0:0:
256,192,99252,1,8,0:0:0:0:
256,192,99402,1,0,0:0:0:0:
256,192,99552,1,0,0:0:0:0:
256,192,99702,1,8,0:0:0:0:
256,192,99777,1,8,0:0:0:0:
256,192,99852,1,8,0:0:0:0:
256,192,99927,1,8,0:0:0:0:
256,192,100002,1,0,0:0:0:0:
256,192,100152,1,8,0:0:0:0:
256,192,100302,1,0,0:0:0:0:
256,192,100377,1,0,0:0:0:0:
256,192,100452,1,0,0:0:0:0:
256,192,100527,1,0,0:0:0:0:
256,192,100602,1,8,0:0:0:0:
256,192,100752,1,8,0:0:0:0:
256,192,100902,1,0,0:0:0:0:
256,192,101202,1,8,0:0:0:0:
256,192,101352,1,8,0:0:0:0:
256,192,101427,1,8,0:0:0:0:
256,192,101502,1,0,0:0:0:0:
256,192,101652,1,8,0:0:0:0:
256,192,101802,1,0,0:0:0:0:
256,192,101952,1,0,0:0:0:0:
256,192,102102,1,8,0:0:0:0:
256,192,102177,1,8,0:0:0:0:
256,192,102252,1,0,0:0:0:0:
256,192,102327,1,0,0:0:0:0:
256,192,102402,1,8,0:0:0:0:
256,192,102552,1,8,0:0:0:0:
256,192,102702,1,0,0:0:0:0:
256,192,102777,1,0,0:0:0:0:
256,192,102852,1,0,0:0:0:0:
256,192,103002,1,8,0:0:0:0:
256,192,103077,1,8,0:0:0:0:
256,192,103152,1,0,0:0:0:0:
256,192,103302,1,8,0:0:0:0:
256,192,103452,1,0,0:0:0:0:
256,192,103602,1,8,0:0:0:0:
256,192,103677,1,0,0:0:0:0:
256,192,103752,1,0,0:0:0:0:
256,192,103827,1,0,0:0:0:0:
256,192,103902,1,8,0:0:0:0:
256,192,104052,1,0,0:0:0:0:
256,192,104202,1,8,0:0:0:0:
256,192,104502,1,8,0:0:0:0:
256,192,104577,1,8,0:0:0:0:
256,192,104652,1,8,0:0:0:0:
256,192,104727,1,8,0:0:0:0:
256,192,104802,1,0,0:0:0:0:
256,192,104952,1,8,0:0:0:0:
256,192,105102,1,0,0:0:0:0:
256,192,105177,1,0,0:0:0:0:
256,192,105252,1,0,0:0:0:0:
256,192,105327,1,0,0:0:0:0:
256,192,105402,1,8,0:0:0:0:
256,192,105552,1,0,0:0:0:0:
256,96,105702,1,12,0:0:0:0:
256,192,106002,1,0,0:0:0:0:
256,192,106152,1,8,0:0:0:0:
256,192,106302,1,0,0:0:0:0:
256,192,106452,1,8,0:0:0:0:
256,192,106527,1,8,0:0:0:0:
256,192,106602,1,0,0:0:0:0:
256,192,106752,1,0,0:0:0:0:
256,192,106902,1,8,0:0:0:0:
256,192,107052,1,0,0:0:0:0:
256,192,107202,1,0,0:0:0:0:
256,192,107352,1,8,0:0:0:0:
256,192,107502,1,8,0:0:0:0:
256,192,107652,1,0,0:0:0:0:
256,192,107802,1,8,0:0:0:0:
256,192,107877,1,0,0:0:0:0:
256,192,107952,1,8,0:0:0:0:
256,192,108102,1,0,0:0:0:0:
256,192,108252,1,0,0:0:0:0:
256,192,108402,1,0,0:0:0:0:
256,192,108552,1,8,0:0:0:0:
256,192,108702,1,0,0:0:0:0:
256,192,108852,1,8,0:0:0:0:
256,192,108927,1,0,0:0:0:0:
256,192,109002,1,8,0:0:0:0:
256,192,109152,1,0,0:0:0:0:
256,192,109302,1,8,0:0:0:0:
256,192,109452,1,8,0:0:0:0:
256,192,109602,1,0,0:0:0:0:
256,192,109752,1,8,0:0:0:0:
256,192,109902,1,8,0:0:0:0:
256,192,110052,1,0,0:0:0:0:
256,192,110202,1,8,0:0:0:0:
256,192,110277,1,8,0:0:0:0:
256,192,110352,1,8,0:0:0:0:
256,192,110502,1,0,0:0:0:0:
256,192,110802,1,8,0:0:0:0:
256,192,110952,1,0,0:0:0:0:
256,192,111102,1,8,0:0:0:0:
256,192,111177,1,8,0:0:0:0:
256,192,111252,1,0,0:0:0:0:
256,192,111402,1,8,0:0:0:0:
256,192,111552,1,0,0:0:0:0:
256,192,111702,1,8,0:0:0:0:
256,192,111852,1,0,0:0:0:0:
256,192,111927,1,8,0:0:0:0:
256,192,112002,1,0,0:0:0:0:
256,192,112152,1,8,0:0:0:0:
256,192,112302,1,0,0:0:0:0:
256,192,112452,1,0,0:0:0:0:
256,192,112602,1,8,0:0:0:0:
256,192,112677,1,8,0:0:0:0:
256,192,112752,1,0,0:0:0:0:
256,192,112902,1,8,0:0:0:0:
256,192,113052,1,0,0:0:0:0:
256,192,113202,1,0,0:0:0:0:
256,192,113352,1,8,0:0:0:0:
256,192,113502,1,0,0:0:0:0:
256,192,113652,1,0,0:0:0:0:
256,192,113802,1,8,0:0:0:0:
256,192,113877,1,8,0:0:0:0:
256,192,113952,1,0,0:0:0:0:
256,192,114102,1,8,0:0:0:0:
256,192,114252,1,0,0:0:0:0:
256,192,114402,1,0,0:0:0:0:
256,192,114552,1,8,0:0:0:0:
256,192,114627,1,8,0:0:0:0:
256,192,114702,1,0,0:0:0:0:
256,192,114852,1,0,0:0:0:0:
256,192,115002,1,8,0:0:0:0:
256,192,115077,1,0,0:0:0:0:
256,192,115152,1,8,0:0:0:0:
256,192,115302,1,0,0:0:0:0:
256,192,115602,1,8,0:0:0:0:
256,192,115752,1,0,0:0:0:0:
256,192,115902,1,8,0:0:0:0:
256,192,115977,1,8,0:0:0:0:
256,192,116052,1,8,0:0:0:0:
256,192,116202,1,0,0:0:0:0:
256,192,116352,1,8,0:0:0:0:
256,192,116502,1,0,0:0:0:0:
256,192,116652,1,8,0:0:0:0:
256,192,116727,1,0,0:0:0:0:
256,192,116802,1,8,0:0:0:0:
256,192,116952,1,0,0:0:0:0:
256,192,117102,1,8,0:0:0:0:
256,192,117252,1,0,0:0:0:0:
256,192,117402,1,8,0:0:0:0:
256,192,117702,1,0,0:0:0:0:
256,192,117852,1,8,0:0:0:0:
256,192,118002,1,0,0:0:0:0:
256,192,118152,1,0,0:0:0:0:
256,192,118302,1,8,0:0:0:0:
256,192,118377,1,8,0:0:0:0:
256,192,118452,1,8,0:0:0:0:
256,192,118602,1,0,0:0:0:0:
256,192,118752,1,8,0:0:0:0:
256,192,118902,1,0,0:0:0:0:
256,192,119052,1,8,0:0:0:0:
256,192,119202,1,0,0:0:0:0:
256,192,119277,1,0,0:0:0:0:
256,192,119352,1,0,0:0:0:0:
256,192,119502,1,8,0:0:0:0:
256,192,119652,1,0,0:0:0:0:
256,192,119802,1,8,0:0:0:0:
256,192,120102,1,0,0:0:0:0:
256,192,120187,1,0,0:0:0:0:
256,192,120273,1,8,0:0:0:0:
256,192,120359,1,8,0:0:0:0:
256,192,120444,1,0,0:0:0:0:
256,192,120702,1,8,0:0:0:0:
256,192,120852,1,0,0:0:0:0:
256,192,121002,1,8,0:0:0:0:
256,192,121152,1,8,0:0:0:0:
256,192,121302,1,0,0:0:0:0:
256,192,121387,1,0,0:0:0:0:
256,192,121473,1,8,0:0:0:0:
256,192,121559,1,8,0:0:0:0:
256,192,121644,1,0,0:0:0:0:
256,192,121902,1,8,0:0:0:0:
256,192,122052,1,0,0:0:0:0:
256,192,122202,1,8,0:0:0:0:
256,192,122277,1,8,0:0:0:0:
256,192,122352,1,8,0:0:0:0:
256,192,122502,1,0,0:0:0:0:
256,192,122802,1,8,0:0:0:0:
256,192,122952,1,0,0:0:0:0:
256,192,123027,1,0,0:0:0:0:
256,192,123102,1,8,0:0:0:0:
256,192,123177,1,8,0:0:0:0:
256,192,123252,1,0,0:0:0:0:
256,192,123402,1,8,0:0:0:0:
256,192,123552,1,0,0:0:0:0:
256,192,123627,1,0,0:0:0:0:
256,192,123702,1,8,0:0:0:0:
256,192,123852,1,0,0:0:0:0:
256,192,124002,1,8,0:0:0:0:
256,192,124077,1,8,0:0:0:0:
256,192,124152,1,8,0:0:0:0:
256,192,124302,1,0,0:0:0:0:
256,192,124452,1,8,0:0:0:0:
256,192,124602,1,0,0:0:0:0:
256,192,124752,1,8,0:0:0:0:
256,96,124902,1,4,0:0:0:0:
256,192,125202,1,8,0:0:0:0:
256,192,125352,1,0,0:0:0:0:
256,192,125502,1,8,0:0:0:0:
256,192,125652,1,0,0:0:0:0:
256,192,125802,1,0,0:0:0:0:
256,192,125952,1,0,0:0:0:0:
256,192,126102,1,8,0:0:0:0:
256,192,126252,1,0,0:0:0:0:
256,192,126402,1,0,0:0:0:0:
256,192,126552,1,8,0:0:0:0:
256,192,126702,1,8,0:0:0:0:
256,192,126852,1,0,0:0:0:0:
256,192,127002,1,8,0:0:0:0:
256,192,127077,1,8,0:0:0:0:
256,192,127152,1,0,0:0:0:0:
256,192,127302,1,8,0:0:0:0:
256,192,127602,1,0,0:0:0:0:
256,192,127752,1,8,0:0:0:0:
256,192,127902,1,0,0:0:0:0:
256,192,128052,1,8,0:0:0:0:
256,192,128202,1,0,0:0:0:0:
256,192,128352,1,0,0:0:0:0:
256,192,128502,1,8,0:0:0:0:
256,192,128577,1,8,0:0:0:0:
256,192,128652,1,0,0:0:0:0:
256,192,128802,1,0,0:0:0:0:
256,192,128952,1,8,0:0:0:0:
256,192,129102,1,8,0:0:0:0:
256,192,129252,1,0,0:0:0:0:
256,192,129402,1,8,0:0:0:0:
256,192,129477,1,8,0:0:0:0:
256,192,129552,1,8,0:0:0:0:
256,192,129702,1,0,0:0:0:0:
256,192,130002,1,0,0:0:0:0:
256,192,130152,1,8,0:0:0:0:
256,192,130302,1,8,0:0:0:0:
256,192,130452,1,0,0:0:0:0:
256,192,130602,1,0,0:0:0:0:
256,192,130752,1,8,0:0:0:0:
256,192,130902,1,0,0:0:0:0:
256,192,130977,1,0,0:0:0:0:
256,192,131052,1,0,0:0:0:0:
256,192,131202,1,8,0:0:0:0:
256,192,131352,1,8,0:0:0:0:
256,192,131502,1,0,0:0:0:0:
256,192,131652,1,0,0:0:0:0:
256,192,131802,1,8,0:0:0:0:
256,192,131877,1,8,0:0:0:0:
256,192,131952,1,0,0:0:0:0:
256,192,132102,1,8,0:0:0:0:
256,192,132402,1,8,0:0:0:0:
256,192,132552,1,8,0:0:0:0:
256,192,132702,1,0,0:0:0:0:
256,192,132852,1,0,0:0:0:0:
256,192,133002,1,8,0:0:0:0:
256,192,133152,1,0,0:0:0:0:
256,192,133302,1,8,0:0:0:0:
256,192,133452,1,0,0:0:0:0:
256,192,133602,1,8,0:0:0:0:
256,192,133677,1,0,0:0:0:0:
256,192,133752,1,8,0:0:0:0:
256,192,133902,1,0,0:0:0:0:
256,192,134052,1,8,0:0:0:0:
256,192,134202,1,8,0:0:0:0:
256,192,134352,1,0,0:0:0:0:
256,192,134427,1,0,0:0:0:0:
256,192,134502,1,8,0:0:0:0:
256,192,134802,1,8,0:0:0:0:
256,192,134952,1,0,0:0:0:0:
256,192,135102,1,8,0:0:0:0:
256,192,135177,1,8,0:0:0:0:
256,192,135252,1,0,0:0:0:0:
256,192,135327,1,0,0:0:0:0:
256,192,135402,1,8,0:0:0:0:
256,192,135552,1,0,0:0:0:0:
256,192,135702,1,8,0:0:0:0:
256,192,135852,1,0,0:0:0:0:
256,192,136002,1,8,0:0:0:0:
256,192,136077,1,8,0:0:0:0:
256,192,136152,1,8,0:0:0:0:
256,192,136302,1,0,0:0:0:0:
256,192,136452,1,0,0:0:0:0:
256,192,136602,1,8,0:0:0:0:
256,192,136677,1,8,0:0:0:0:
256,192,136752,1,0,0:0:0:0:
256,192,136902,1,8,0:0:0:0:
256,192,137202,1,8,0:0:0:0:
256,192,137352,1,8,0:0:0:0:
256,192,137502,1,0,0:0:0:0:
256,192,137652,1,0,0:0:0:0:
256,192,137802,1,8,0:0:0:0:
256,192,137952,1,0,0:0:0:0:
256,192,138027,1,0,0:0:0:0:
256,192,138102,1,8,0:0:0:0:
256,192,138177,1,8,0:0:0:0:
256,192,138252,1,0,0:0:0:0:
256,192,138402,1,8,0:0:0:0:
256,192,138552,1,0,0:0:0:0:
256,192,138702,1,0,0:0:0:0:
256,192,138852,1,8,0:0:0:0:
256,192,139002,1,0,0:0:0:0:
256,192,139077,1,0,0:0:0:0:
256,192,139152,1,0,0:0:0:0:
256,192,139302,1,8,0:0:0:0:
256,192,139602,1,8,0:0:0:0:
256,192,139752,1,0,0:0:0:0:
256,192,139827,1,0,0:0:0:0:
256,192,139902,1,8,0:0:0:0:
256,192,140052,1,0,0:0:0:0:
256,192,140202,1,8,0:0:0:0:
256,192,140352,1,0,0:0:0:0:
256,192,140502,1,8,0:0:0:0:
256,192,140577,1,8,0:0:0:0:
256,192,140652,1,0,0:0:0:0:
256,192,140727,1,0,0:0:0:0:
256,192,140802,1,8,0:0:0:0:
256,192,140952,1,0,0:0:0:0:
256,192,141102,1,8,0:0:0:0:
256,192,141252,1,0,0:0:0:0:
256,192,141402,1,8,0:0:0:0:
256,192,141477,1,8,0:0:0:0:
256,192,141552,1,0,0:0:0:0:
256,192,141702,1,8,0:0:0:0:
256,192,142002,1,8,0:0:0:0:
256,192,142152,1,0,0:0:0:0:
256,192,142227,1,0,0:0:0:0:
256,192,142302,1,8,0:0:0:0:
256,192,142377,1,8,0:0:0:0:
256,192,142452,1,0,0:0:0:0:
256,192,142602,1,8,0:0:0:0:
256,192,142752,1,0,0:0:0:0:
256,192,142902,1,8,0:0:0:0:
256,192,142977,1,8,0:0:0:0:
256,192,143052,1,8,0:0:0:0:
256,192,143127,1,8,0:0:0:0:
256,192,143202,1,0,0:0:0:0:
256,192,143352,1,0,0:0:0:0:
256,192,143502,1,8,0:0:0:0:
256,192,143577,1,8,0:0:0:0:
256,192,143652,1,0,0:0:0:0:
256,192,143727,1,0,0:0:0:0:
256,192,143802,1,8,0:0:0:0:
256,192,143952,1,0,0:0:0:0:
256,96,144102,1,12,0:0:0:0:
256,192,144252,1,0,0:0:0:0:
256,192,144552,1,0,0:0:0:0:
256,192,144702,1,8,0:0:0:0:
256,192,144852,1,8,0:0:0:0:
256,192,145152,1,0,0:0:0:0:
256,192,145302,1,8,0:0:0:0:
256,192,145452,1,8,0:0:0:0:
256,192,145752,1,0,0:0:0:0:
256,192,145902,1,8,0:0:0:0:
256,192,146052,1,8,0:0:0:0:
256,192,146202,1,0,0:0:0:0:
256,192,146352,1,0,0:0:0:0:
256,192,146502,1,8,0:0:0:0:
256,192,146652,1,0,0:0:0:0:
256,192,146952,1,0,0:0:0:0:
256,192,147102,1,8,0:0:0:0:
256,192,147252,1,8,0:0:0:0:
256,192,147552,1,0,0:0:0:0:
256,192,147702,1,8,0:0:0:0:
256,192,147852,1,8,0:0:0:0:
256,192,148152,1,0,0:0:0:0:
256,192,148302,1,8,0:0:0:0:
256,192,148452,1,8,0:0:0:0:
256,192,148602,1,0,0:0:0:0:
256,192,148752,1,0,0:0:0:0:
256,192,148827,1,0,0:0:0:0:
256,192,148902,1,8,0:0:0:0:
256,192,149052,1,0,0:0:0:0:
256,192,149352,1,0,0:0:0:0:
256,192,149502,1,8,0:0:0:0:
256,192,149652,1,8,0:0:0:0:
256,192,149952,1,0,0:0:0:0:
256,192,150102,1,8,0:0:0:0:
256,192,150252,1,8,0:0:0:0:
256,192,150552,1,0,0:0:0:0:
256,192,150702,1,8,0:0:0:0:
256,192,150852,1,8,0:0:0:0:
256,192,151002,1,0,0:0:0:0:
256,192,151152,1,0,0:0:0:0:
256,192,151302,1,8,0:0:0:0:
256,192,151452,1,0,0:0:0:0:
256,192,151752,1,0,0:0:0:0:
256,192,151902,1,8,0:0:0:0:
256,192,152052,1,8,0:0:0:0:
256,192,152352,1,0,0:0:0:0:
256,192,152502,1,8,0:0:0:0:
256,192,152577,1,8,0:0:0:0:
256,192,152652,1,8,0:0:0:0:
256,192,152727,1,8,0:0:0:0:
256,192,152802,1,0,0:0:0:0:
256,192,152952,1,8,0:0:0:0:
256,192,153102,1,0,0:0:0:0:
256,192,153177,1,0,0:0:0:0:
256,192,153252,1,0,0:0:0:0:
256,192,153327,1,0,0:0:0:0:
256,192,153402,1,8,0:0:0:0:
256,192,153552,1,0,0:0:0:0:
256,192,153702,1,8,0:0:0:0:
256,192,154002,1,8,0:0:0:0:
256,192,154152,1,8,0:0:0:0:
256,192,154302,1,0,0:0:0:0:
256,192,154452,1,8,0:0:0:0:
256,192,154602,1,0,0:0:0:0:
256,192,154752,1,8,0:0:0:0:
256,192,154902,1,0,0:0:0:0:
256,192,155052,1,0,0:0:0:0:
256,192,155202,1,0,0:0:0:0:
256,192,155352,1,8,0:0:0:0:
256,192,155502,1,8,0:0:0:0:
256,192,155652,1,8,0:0:0:0:
256,192,155802,1,0,0:0:0:0:
256,192,156102,1,0,0:0:0:0:
256,192,156252,1,0,0:0:0:0:
256,192,156402,1,8,0:0:0:0:
256,192,156552,1,8,0:0:0:0:
256,192,156702,1,0,0:0:0:0:
256,192,156852,1,8,0:0:0:0:
256,192,157002,1,0,0:0:0:0:
256,192,157152,1,8,0:0:0:0:
256,192,157302,1,0,0:0:0:0:
256,192,157452,1,0,0:0:0:0:
256,192,157602,1,0,0:0:0:0:
256,192,157752,1,8,0:0:0:0:
256,192,157902,1,8,0:0:0:0:
256,192,157977,1,8,0:0:0:0:
256,192,158052,1,0,0:0:0:0:
256,192,158202,1,0,0:0:0:0:
256,192,158502,1,8,0:0:0:0:
256,192,158652,1,0,0:0:0:0:
256,192,158802,1,8,0:0:0:0:
256,192,158952,1,8,0:0:0:0:
256,192,159102,1,0,0:0:0:0:
256,192,159252,1,8,0:0:0:0:
256,192,159402,1,0,0:0:0:0:
256,192,159552,1,8,0:0:0:0:
256,192,159702,1,0,0:0:0:0:
256,192,159852,1,0,0:0:0:0:
256,192,160002,1,0,0:0:0:0:
256,192,160152,1,8,0:0:0:0:
256,192,160302,1,8,0:0:0:0:
256,192,160452,1,8,0:0:0:0:
256,192,160602,1,0,0:0:0:0:
256,192,160902,1,0,0:0:0:0:
256,192,161052,1,0,0:0:0:0:
256,192,161202,1,8,0:0:0:0:
256,192,161352,1,8,0:0:0:0:
256,192,161502,1,0,0:0:0:0:
256,192,161652,1,8,0:0:0:0:
256,192,161802,1,0,0:0:0:0:
256,192,161952,1,8,0:0:0:0:
256,192,162102,1,0,0:0:0:0:
256,192,162252,1,0,0:0:0:0:
256,192,162402,1,0,0:0:0:0:
256,192,162552,1,8,0:0:0:0:
256,192,162702,1,8,0:0:0:0:
256,192,162777,1,8,0:0:0:0:
256,192,162852,1,0,0:0:0:0:
256,192,163002,1,0,0:0:0:0:
256,192,163302,1,8,0:0:0:0:
256,192,163452,1,0,0:0:0:0:
256,192,163602,1,8,0:0:0:0:
256,192,163677,1,0,0:0:0:0:
256,192,163752,1,8,0:0:0:0:
256,192,163902,1,0,0:0:0:0:
256,192,164052,1,8,0:0:0:0:
256,192,164202,1,0,0:0:0:0:
256,192,164352,1,8,0:0:0:0:
256,192,164427,1,8,0:0:0:0:
256,192,164502,1,0,0:0:0:0:
256,192,164652,1,8,0:0:0:0:
256,192,164802,1,8,0:0:0:0:
256,192,164952,1,0,0:0:0:0:
256,192,165102,1,8,0:0:0:0:
256,192,165177,1,8,0:0:0:0:
256,192,165252,1,0,0:0:0:0:
256,192,165327,1,0,0:0:0:0:
256,192,165402,1,8,0:0:0:0:
256,192,165552,1,0,0:0:0:0:
256,192,165702,1,8,0:0:0:0:
256,192,165852,1,0,0:0:0:0:
256,192,166002,1,8,0:0:0:0:
256,192,166152,1,8,0:0:0:0:
256,192,166227,1,8,0:0:0:0:
256,192,166302,1,0,0:0:0:0:
256,192,166452,1,8,0:0:0:0:
256,192,166602,1,0,0:0:0:0:
256,192,166752,1,0,0:0:0:0:
256,192,166827,1,8,0:0:0:0:
256,192,166902,1,0,0:0:0:0:
256,192,167052,1,8,0:0:0:0:
256,192,167202,1,8,0:0:0:0:
256,192,167352,1,0,0:0:0:0:
256,192,167502,1,8,0:0:0:0:
256,192,167577,1,8,0:0:0:0:
256,192,167652,1,0,0:0:0:0:
256,192,167727,1,0,0:0:0:0:
256,192,167802,1,8,0:0:0:0:
256,192,168102,1,8,0:0:0:0:
256,192,168252,1,0,0:0:0:0:
256,192,168402,1,8,0:0:0:0:
256,192,168477,1,0,0:0:0:0:
256,192,168552,1,8,0:0:0:0:
256,192,168702,1,0,0:0:0:0:
256,192,168852,1,8,0:0:0:0:
256,192,169002,1,0,0:0:0:0:
256,192,169152,1,8,0:0:0:0:
256,192,169227,1,8,0:0:0:0:
256,192,169302,1,0,0:0:0:0:
256,192,169452,1,8,0:0:0:0:
256,192,169602,1,8,0:0:0:0:
256,192,169752,1,0,0:0:0:0:
256,192,169902,1,8,0:0:0:0:
256,192,169977,1,8,0:0:0:0:
256,192,170052,1,0,0:0:0:0:
256,192,170127,1,0,0:0:0:0:
256,192,170202,1,8,0:0:0:0:
256,192,170352,1,0,0:0:0:0:
256,192,170502,1,8,0:0:0:0:
256,192,170652,1,0,0:0:0:0:
256,192,170727,1,0,0:0:0:0:
256,192,170802,1,8,0:0:0:0:
256,192,170877,1,0,0:0:0:0:
256,192,170952,1,8,0:0:0:0:
256,192,171102,1,0,0:0:0:0:
256,192,171252,1,8,0:0:0:0:
256,192,171402,1,0,0:0:0:0:
256,192,171477,1,0,0:0:0:0:
256,192,171552,1,8,0:0:0:0:
256,192,171702,1,0,0:0:0:0:
256,192,171852,1,0,0:0:0:0:
256,192,171927,1,0,0:0:0:0:
256,192,172002,1,8,0:0:0:0:
256,192,172077,1,8,0:0:0:0:
256,192,172152,1,0,0:0:0:0:
256,192,172302,1,8,0:0:0:0:
256,192,172452,1,0,0:0:0:0:
256,192,172527,1,0,0:0:0:0:
256,192,172602,1,8,0:0:0:0:
256,192,172752,1,0,0:0:0:0:
256,96,172902,1,12,0:0:0:0:
256,192,173202,1,0,0:0:0:0:
256,192,173352,1,8,0:0:0:0:
256,192,173502,1,8,0:0:0:0:
256,192,173652,1,8,0:0:0:0:
256,192,173802,1,0,0:0:0:0:
256,192,173952,1,8,0:0:0:0:
256,192,174102,1,8,0:0:0:0:
256,192,174252,1,0,0:0:0:0:
256,192,174402,1,8,0:0:0:0:
256,192,174552,1,8,0:0:0:0:
256,192,174702,1,0,0:0:0:0:
256,192,174852,1,0,0:0:0:0:
256,192,175002,1,8,0:0:0:0:
256,192,175302,1,8,0:0:0:0:
256,192,175402,1,0,0:0:0:0:
256,192,175502,1,0,0:0:0:0:
256,192,175602,1,8,0:0:0:0:
256,192,175802,1,0,0:0:0:0:
256,192,175902,1,8,0:0:0:0:
256,192,176002,1,0,0:0:0:0:
256,192,176102,1,0,0:0:0:0:
256,192,176202,1,8,0:0:0:0:
256,192,176502,1,8,0:0:0:0:
256,192,176652,1,0,0:0:0:0:
256,192,176802,1,0,0:0:0:0:
256,192,176952,1,8,0:0:0:0:
256,192,177102,1,0,0:0:0:0:
256,192,177252,1,0,0:0:0:0:
256,192,177402,1,8,0:0:0:0:
256,192,177552,1,0,0:0:0:0:
256,192,177702,1,8,0:0:0:0:
256,192,177852,1,0,0:0:0:0:
256,192,178002,1,8,0:0:0:0:
256,192,178152,1,8,0:0:0:0:
256,192,178302,1,0,0:0:0:0:
256,192,178452,1,8,0:0:0:0:
256,192,178602,1,8,0:0:0:0:
256,192,178752,1,8,0:0:0:0:
256,192,178902,1,0,0:0:0:0:
256,192,179002,1,0,0:0:0:0:
256,192,179102,1,0,0:0:0:0:
256,192,179202,1,8,0:0:0:0:
256,192,179402,1,0,0:0:0:0:
256,192,179502,1,8,0:0:0:0:
256,192,179602,1,8,0:0:0:0:
256,192,179702,1,0,0:0:0:0:
256,192,179802,1,8,0:0:0:0:
256,192,180102,1,8,0:0:0:0:
256,192,180202,1,0,0:0:0:0:
256,192,180302,1,0,0:0:0:0:
256,192,180402,1,8,0:0:0:0:
256,192,180602,1,8,0:0:0:0:
256,192,180702,1,8,0:0:0:0:
256,192,180802,1,0,0:0:0:0:
256,192,180902,1,0,0:0:0:0:
256,192,181002,1,8,0:0:0:0:
256,192,181302,1,8,0:0:0:0:
256,192,181452,1,0,0:0:0:0:
256,192,181602,1,8,0:0:0:0:
256,192,181677,1,8,0:0:0:0:
256,192,181752,1,8,0:0:0:0:
256,192,181827,1,8,0:0:0:0:
256,192,181902,1,0,0:0:0:0:
256,192,182052,1,8,0:0:0:0:
256,192,182202,1,0,0:0:0:0:
256,192,182277,1,0,0:0:0:0:
256,192,182352,1,0,0:0:0:0:
256,96,182502,1,12,0:0:0:0:
256,192,182802,1,8,0:0:0:0:
256,192,182952,1,0,0:0:0:0:
256,192,183027,1,8,0:0:0:0:
256,192,183102,1,8,0:0:0:0:
256,192,183252,1,0,0:0:0:0:
256,192,183402,1,8,0:0:0:0:
256,192,183552,1,0,0:0:0:0:
256,192,183702,1,8,0:0:0:0:
256,192,183852,1,0,0:0:0:0:
256,192,183927,1,0,0:0:0:0:
256,192,184002,1,8,0:0:0:0:
256,192,184077,1,8,0:0:0:0:
256,192,184152,1,0,0:0:0:0:
256,192,184302,1,8,0:0:0:0:
256,192,184452,1,8,0:0:0:0:
256,192,184602,1,0,0:0:0:0:
256,192,184677,1,0,0:0:0:0:
256,192,184752,1,8,0:0:0:0:
256,192,184902,1,8,0:0:0:0:
256,192,185102,1,0,0:0:0:0:
256,192,185202,1,8,0:0:0:0:
256,192,185302,1,0,0:0:0:0:
256,192,185402,1,0,0:0:0:0:
256,192,185502,1,8,0:0:0:0:
256,192,185702,1,8,0:0:0:0:
256,192,185802,1,0,0:0:0:0:
256,192,185902,1,0,0:0:0:0:
256,192,186002,1,0,0:0:0:0:
256,192,186102,1,8,0:0:0:0:
256,192,186302,1,8,0:0:0:0:
256,192,186402,1,8,0:0:0:0:
256,192,186502,1,0,0:0:0:0:
256,192,186602,1,0,0:0:0:0:
256,192,186702,1,8,0:0:0:0:
256,192,186902,1,0,0:0:0:0:
256,192,187002,1,8,0:0:0:0:
256,192,187102,1,0,0:0:0:0:
256,192,187202,1,0,0:0:0:0:
256,192,187302,1,8,0:0:0:0:
256,192,187602,1,8,0:0:0:0:
256,192,187752,1,0,0:0:0:0:
256,192,187902,1,8,0:0:0:0:
256,192,188052,1,0,0:0:0:0:
256,192,188127,1,0,0:0:0:0:
256,192,188202,1,8,0:0:0:0:
256,192,188352,1,8,0:0:0:0:
256,192,188427,1,8,0:0:0:0:
256,192,188502,1,0,0:0:0:0:
256,192,188652,1,0,0:0:0:0:
256,192,188802,1,8,0:0:0:0:
256,192,188952,1,0,0:0:0:0:
256,192,189102,1,8,0:0:0:0:
256,192,189252,1,8,0:0:0:0:
256,192,189402,1,0,0:0:0:0:
256,192,189477,1,0,0:0:0:0:
256,192,189552,1,8,0:0:0:0:
256,192,189702,1,0,0:0:0:0:
256,192,190002,1,8,0:0:0:0:
256,192,190152,1,0,0:0:0:0:
256,192,190302,1,0,0:0:0:0:
256,192,190452,1,0,0:0:0:0:
256,192,190602,1,8,0:0:0:0:
256,192,190752,1,0,0:0:0:0:
256,192,190827,1,0,0:0:0:0:
256,192,190902,1,8,0:0:0:0:
256,192,191052,1,0,0:0:0:0:
256,192,191202,1,8,0:0:0:0:
256,192,191352,1,0,0:0:0:0:
256,192,191502,1,8,0:0:0:0:
256,192,191577,1,8,0:0:0:0:
256,192,191652,1,8,0:0:0:0:
256,192,191727,1,8,0:0:0:0:
256,192,191802,1,0,0:0:0:0:
256,192,191952,1,8,0:0:0:0:
256,96,192102,1,4,0:0:0:0:
256,192,192402,1,0,0:0:0:0:
256,192,192552,1,0,0:0:0:0:
256,192,192702,1,8,0:0:0:0:
256,192,192852,1,8,0:0:0:0:
256,192,192927,1,8,0:0:0:0:
256,192,193002,1,0,0:0:0:0:
256,192,193152,1,8,0:0:0:0:
256,192,193452,1,0,0:0:0:0:
256,192,193602,1,0,0:0:0:0:
256,192,193752,1,8,0:0:0:0:
256,192,193902,1,8,0:0:0:0:
256,96,194052,1,4,0:0:0:0:
256,96,194352,1,12,0:0:0:0:
256,192,194802,1,0,0:0:0:0:
256,192,194952,1,8,0:0:0:0:
256,192,195102,1,0,0:0:0:0:
256,192,195252,1,8,0:0:0:0:
256,192,195327,1,8,0:0:0:0:
256,192,195402,1,0,0:0:0:0:
256,192,195552,1,8,0:0:0:0:
256,192,195852,1,0,0:0:0:0:
256,192,196002,1,8,0:0:0:0:
256,192,196152,1,0,0:0:0:0:
256,192,196302,1,8,0:0:0:0:
256,192,196452,1,8,0:0:0:0:
256,192,196602,1,8,0:0:0:0:
256,192,196752,1,8,0:0:0:0:
256,96,196902,1,4,0:0:0:0:
256,192,197202,1,0,0:0:0:0:
256,192,197352,1,0,0:0:0:0:
256,192,197502,1,8,0:0:0:0:
256,192,197652,1,8,0:0:0:0:
256,192,197727,1,8,0:0:0:0:
256,192,197802,1,0,0:0:0:0:
256,192,197952,1,8,0:0:0:0:
256,192,198252,1,0,0:0:0:0:
256,192,198402,1,8,0:0:0:0:
256,192,198552,1,8,0:0:0:0:
256,192,198702,1,8,0:0:0:0:
256,96,198852,1,4,0:0:0:0:
256,96,199152,1,12,0:0:0:0:
256,192,199602,1,0,0:0:0:0:
256,192,199752,1,0,0:0:0:0:
256,192,199902,1,8,0:0:0:0:
256,192,200052,1,0,0:0:0:0:
256,192,200127,1,0,0:0:0:0:
256,192,200202,1,8,0:0:0:0:
256,192,200352,1,0,0:0:0:0:
256,192,200502,1,8,0:0:0:0:
256,192,200577,1,8,0:0:0:0:
256,192,200652,1,8,0:0:0:0:
256,192,200727,1,8,0:0:0:0:
256,192,200802,1,0,0:0:0:0:
256,192,200952,1,0,0:0:0:0:
256,192,201102,1,8,0:0:0:0:
256,192,201252,1,0,0:0:0:0:
256,192,201402,1,0,0:0:0:0:
256,192,201552,1,0,0:0:0:0:
256,96,201702,1,12,0:0:0:0:
256,192,202002,1,0,0:0:0:0:
256,192,202152,1,8,0:0:0:0:
256,192,202227,1,0,0:0:0:0:
256,192,202302,1,0,0:0:0:0:
256,192,202452,1,0,0:0:0:0:
256,192,202602,1,8,0:0:0:0:
256,192,202677,1,8,0:0:0:0:
256,192,202752,1,0,0:0:0:0:
256,192,202902,1,8,0:0:0:0:
256,192,203202,1,0,0:0:0:0:
256,192,203352,1,0,0:0:0:0:
256,192,203502,1,8,0:0:0:0:
256,96,203652,1,4,0:0:0:0:
256,96,203952,1,12,0:0:0:0:
256,192,204402,1,8,0:0:0:0:
256,192,204552,1,0,0:0:0:0:
256,192,204702,1,8,0:0:0:0:
256,192,204852,1,8,0:0:0:0:
256,192,204927,1,8,0:0:0:0:
256,192,205002,1,0,0:0:0:0:
256,192,205152,1,8,0:0:0:0:
256,192,205302,1,0,0:0:0:0:
256,192,205452,1,0,0:0:0:0:
256,192,205602,1,8,0:0:0:0:
256,192,205752,1,0,0:0:0:0:
256,192,205827,1,0,0:0:0:0:
256,192,205902,1,8,0:0:0:0:
256,192,206052,1,0,0:0:0:0:
256,192,206202,1,8,0:0:0:0:
256,192,206352,1,8,0:0:0:0:
256,96,206502,1,4,0:0:0:0:
256,192,206802,1,0,0:0:0:0:
256,192,206952,1,8,0:0:0:0:
256,192,207102,1,8,0:0:0:0:
256,192,207252,1,0,0:0:0:0:
256,192,207402,1,8,0:0:0:0:
256,192,207552,1,0,0:0:0:0:
256,192,207627,1,0,0:0:0:0:
256,192,207702,1,8,0:0:0:0:
256,192,207852,1,0,0:0:0:0:
256,192,208002,1,0,0:0:0:0:
256,192,208152,1,8,0:0:0:0:
256,192,208302,1,8,0:0:0:0:
256,96,208452,1,4,0:0:0:0:
256,96,208752,1,12,0:0:0:0:
256,192,209202,1,0,0:0:0:0:
256,192,209352,1,8,0:0:0:0:
256,192,209502,1,0,0:0:0:0:
256,192,209577,1,0,0:0:0:0:
256,192,209652,1,8,0:0:0:0:
256,192,209802,1,8,0:0:0:0:
256,192,209952,1,0,0:0:0:0:
256,192,210102,1,8,0:0:0:0:
256,192,210177,1,8,0:0:0:0:
256,192,210252,1,0,0:0:0:0:
256,192,210327,1,0,0:0:0:0:
256,192,210402,1,8,0:0:0:0:
256,192,210552,1,0,0:0:0:0:
256,192,210702,1,8,0:0:0:0:
256,192,210777,1,8,0:0:0:0:
256,192,210852,1,8,0:0:0:0:
256,192,210927,1,8,0:0:0:0:
256,192,211002,1,0,0:0:0:0:
256,96,211302,1,12,0:0:0:0:
256,192,211602,1,8,0:0:0:0:
256,192,212202,1,8,0:0:0:0:
256,192,212802,1,8,0:0:0:0:
256,192,213402,1,8,0:0:0:0:
256,192,214002,1,8,0:0:0:0:
256,192,214602,1,8,0:0:0:0:
256,96,214902,1,4,0:0:0:0:
256,192,216102,1,0,0:0:0:0:
256,192,216252,1,8,0:0:0:0:
256,192,216327,1,8,0:0:0:0:
256,192,216402,1,0,0:0:0:0:
256,192,216552,1,8,0:0:0:0:
256,192,216702,1,0,0:0:0:0:
256,192,216777,1,0,0:0:0:0:
256,192,216852,1,8,0:0:0:0:
256,192,216927,1,8,0:0:0:0:
256,192,217002,1,0,0:0:0:0:
256,192,217152,1,8,0:0:0:0:
256,192,217302,1,0,0:0:0:0:
256,192,217452,1,8,0:0:0:0:
256,192,217602,1,0,0:0:0:0:
256,192,217752,1,8,0:0:0:0:
256,192,217827,1,8,0:0:0:0:
256,192,217902,1,0,0:0:0:0:
256,192,217977,1,0,0:0:0:0:
256,192,218052,1,8,0:0:0:0:
256,192,218202,1,0,0:0:0:0:
256,192,218352,1,8,0:0:0:0:
256,192,218502,1,0,0:0:0:0:
256,192,218652,1,8,0:0:0:0:
256,192,218727,1,8,0:0:0:0:
256,192,218802,1,0,0:0:0:0:
256,192,218952,1,8,0:0:0:0:
256,192,219102,1,0,0:0:0:0:
256,192,219177,1,0,0:0:0:0:
256,192,219252,1,8,0:0:0:0:
256,192,219327,1,8,0:0:0:0:
256,192,219402,1,0,0:0:0:0:
256,192,219552,1,8,0:0:0:0:
256,192,219702,1,0,0:0:0:0:
256,192,219777,1,0,0:0:0:0:
256,192,219852,1,0,0:0:0:0:
256,192,219927,1,0,0:0:0:0:
256,192,220002,1,8,0:0:0:0:
256,192,220152,1,0,0:0:0:0:
256,192,220302,1,8,0:0:0:0:
256,192,220452,1,0,0:0:0:0:
256,192,220527,1,0,0:0:0:0:
256,192,220602,1,8,0:0:0:0:
256,192,220752,1,8,0:0:0:0:
256,192,220902,1,0,0:0:0:0:
256,192,221202,1,0,0:0:0:0:
256,192,221352,1,8,0:0:0:0:
256,192,221502,1,8,0:0:0:0:
256,192,221577,1,8,0:0:0:0:
256,192,221652,1,0,0:0:0:0:
256,192,221727,1,0,0:0:0:0:
256,192,221802,1,8,0:0:0:0:
256,192,221952,1,0,0:0:0:0:
256,192,222102,1,8,0:0:0:0:
256,192,222252,1,8,0:0:0:0:
256,192,222402,1,0,0:0:0:0:
256,192,222477,1,0,0:0:0:0:
256,192,222552,1,8,0:0:0:0:
256,192,222627,1,8,0:0:0:0:
256,192,222702,1,0,0:0:0:0:
256,192,222852,1,0,0:0:0:0:
256,192,223002,1,8,0:0:0:0:
256,192,223152,1,0,0:0:0:0:
256,192,223227,1,0,0:0:0:0:
256,192,223302,1,8,0:0:0:0:
256,192,223452,1,0,0:0:0:0:
256,192,223602,1,0,0:0:0:0:
256,192,223752,1,8,0:0:0:0:
256,192,223827,1,8,0:0:0:0:
256,192,223902,1,0,0:0:0:0:
256,192,223977,1,0,0:0:0:0:
256,192,224052,1,8,0:0:0:0:
256,192,224202,1,0,0:0:0:0:
256,192,224352,1,0,0:0:0:0:
256,192,224502,1,8,0:0:0:0:
256,192,224577,1,8,0:0:0:0:
256,192,224652,1,8,0:0:0:0:
256,192,224727,1,8,0:0:0:0:
256,192,224802,1,0,0:0:0:0:
256,192,224952,1,8,0:0:0:0:
256,192,225102,1,0,0:0:0:0:
256,192,225177,1,0,0:0:0:0:
256,192,225252,1,0,0:0:0:0:
256,192,225327,1,0,0:0:0:0:
256,192,225402,1,8,0:0:0:0:
256,192,225552,1,0,0:0:0:0:
256,96,225702,1,12,0:0:0:0:
256,192,225852,1,0,0:0:0:0:
256,192,226152,1,0,0:0:0:0:
256,192,226302,1,8,0:0:0:0:
256,192,226452,1,0,0:0:0:0:
256,192,226602,1,8,0:0:0:0:
256,192,226752,1,0,0:0:0:0:
256,192,226827,1,0,0:0:0:0:
256,192,226902,1,8,0:0:0:0:
256,192,226977,1,8,0:0:0:0:
256,192,227052,1,0,0:0:0:0:
256,192,227202,1,8,0:0:0:0:
256,192,227352,1,0,0:0:0:0:
256,192,227427,1,0,0:0:0:0:
256,192,227502,1,8,0:0:0:0:
256,192,227652,1,0,0:0:0:0:
256,192,227802,1,8,0:0:0:0:
256,192,227952,1,0,0:0:0:0:
256,192,228102,1,8,0:0:0:0:
256,192,228252,1,0,0:0:0:0:
256,192,228552,1,0,0:0:0:0:
256,192,228702,1,8,0:0:0:0:
256,192,228852,1,0,0:0:0:0:
256,192,229002,1,8,0:0:0:0:
256,192,229152,1,0,0:0:0:0:
256,192,229227,1,0,0:0:0:0:
256,192,229302,1,8,0:0:0:0:
256,192,229452,1,0,0:0:0:0:
256,192,229602,1,8,0:0:0:0:
256,192,229677,1,8,0:0:0:0:
256,192,229752,1,0,0:0:0:0:
256,192,229902,1,8,0:0:0:0:
256,192,230052,1,0,0:0:0:0:
256,192,230202,1,8,0:0:0:0:
256,192,230277,1,0,0:0:0:0:
256,192,230352,1,8,0:0:0:0:
256,192,230502,1,0,0:0:0:0:
256,192,230652,1,0,0:0:0:0:
256,192,230952,1,0,0:0:0:0:
256,192,231102,1,8,0:0:0:0:
256,192,231252,1,0,0:0:0:0:
256,192,231402,1,8,0:0:0:0:
256,192,231552,1,0,0:0:0:0:
256,192,231627,1,0,0:0:0:0:
256,192,231702,1,8,0:0:0:0:
256,192,231777,1,8,0:0:0:0:
256,192,231852,1,0,0:0:0:0:
256,192,232002,1,8,0:0:0:0:
256,192,232152,1,0,0:0:0:0:
256,192,232302,1,8,0:0:0:0:
256,192,232452,1,0,0:0:0:0:
256,192,232602,1,8,0:0:0:0:
256,192,232677,1,8,0:0:0:0:
256,192,232752,1,0,0:0:0:0:
256,192,232827,1,0,0:0:0:0:
256,192,232902,1,8,0:0:0:0:
256,192,233052,1,0,0:0:0:0:
256,192,233352,1,0,0:0:0:0:
256,192,233502,1,8,0:0:0:0:
256,192,233652,1,0,0:0:0:0:
256,192,233802,1,8,0:0:0:0:
256,192,233952,1,0,0:0:0:0:
256,192,234027,1,0,0:0:0:0:
256,192,234102,1,8,0:0:0:0:
256,192,234252,1,0,0:0:0:0:
256,192,234402,1,8,0:0:0:0:
256,192,234552,1,0,0:0:0:0:
256,192,234627,1,0,0:0:0:0:
256,192,234702,1,8,0:0:0:0:
256,192,234852,1,8,0:0:0:0:
256,192,234927,1,8,0:0:0:0:
256,192,235002,1,0,0:0:0:0:
256,192,235077,1,0,0:0:0:0:
256,192,235152,1,8,0:0:0:0:
256,192,235302,1,0,0:0:0:0:
256,192,235602,1,8,0:0:0:0:
256,192,235752,1,0,0:0:0:0:
256,192,235902,1,8,0:0:0:0:
256,192,236052,1,8,0:0:0:0:
256,192,236202,1,0,0:0:0:0:
256,192,236352,1,0,0:0:0:0:
256,192,236427,1,0,0:0:0:0:
256,192,236502,1,8,0:0:0:0:
256,192,236652,1,0,0:0:0:0:
256,192,236802,1,8,0:0:0:0:
256,192,236877,1,8,0:0:0:0:
256,192,236952,1,0,0:0:0:0:
256,192,237102,1,8,0:0:0:0:
256,192,237252,1,0,0:0:0:0:
256,192,237402,1,8,0:0:0:0:
256,192,237477,1,0,0:0:0:0:
256,192,237552,1,8,0:0:0:0:
256,192,237702,1,0,0:0:0:0:
256,192,238002,1,8,0:0:0:0:
256,192,238152,1,8,0:0:0:0:
256,192,238302,1,0,0:0:0:0:
256,192,238377,1,0,0:0:0:0:
256,192,238452,1,8,0:0:0:0:
256,192,238602,1,0,0:0:0:0:
256,192,238752,1,8,0:0:0:0:
256,192,238827,1,8,0:0:0:0:
256,192,238902,1,0,0:0:0:0:
256,192,239052,1,0,0:0:0:0:
256,192,239202,1,8,0:0:0:0:
256,192,239352,1,8,0:0:0:0:
256,192,239502,1,0,0:0:0:0:
256,192,239577,1,0,0:0:0:0:
256,192,239652,1,8,0:0:0:0:
256,192,239802,1,0,0:0:0:0:
256,192,239952,1,8,0:0:0:0:
256,192,240027,1,8,0:0:0:0:
256,192,240102,1,0,0:0:0:0:
256,192,240402,1,8,0:0:0:0:
256,192,240552,1,0,0:0:0:0:
256,192,240702,1,8,0:0:0:0:
256,192,240852,1,8,0:0:0:0:
256,192,241002,1,0,0:0:0:0:
256,192,241152,1,0,0:0:0:0:
256,192,241227,1,0,0:0:0:0:
256,192,241302,1,8,0:0:0:0:
256,192,241452,1,0,0:0:0:0:
256,192,241602,1,8,0:0:0:0:
256,192,241677,1,8,0:0:0:0:
256,192,241752,1,0,0:0:0:0:
256,192,241827,1,0,0:0:0:0:
256,192,241902,1,8,0:0:0:0:
256,192,242052,1,0,0:0:0:0:
256,192,242202,1,8,0:0:0:0:
256,192,242277,1,0,0:0:0:0:
256,192,242352,1,8,0:0:0:0:
256,192,242502,1,0,0:0:0:0:
256,192,242802,1,8,0:0:0:0:
256,192,242952,1,8,0:0:0:0:
256,192,243102,1,0,0:0:0:0:
256,192,243177,1,0,0:0:0:0:
256,192,243252,1,8,0:0:0:0:
256,192,243402,1,0,0:0:0:0:
256,192,243552,1,8,0:0:0:0:
256,192,243627,1,8,0:0:0:0:
256,192,243702,1,0,0:0:0:0:
256,192,243852,1,0,0:0:0:0:
256,192,244002,1,8,0:0:0:0:
256,192,244152,1,8,0:0:0:0:
256,192,244302,1,0,0:0:0:0:
256,192,244377,1,0,0:0:0:0:
256,192,244452,1,8,0:0:0:0:
256,192,244602,1,0,0:0:0:0:
256,192,244902,1,0,0:0:0:0:
256,192,245052,1,8,0:0:0:0:
256,192,245202,1,0,0:0:0:0:
256,192,245277,1,0,0:0:0:0:
256,192,245352,1,8,0:0:0:0:
256,192,245427,1,8,0:0:0:0:
256,192,245502,1,0,0:0:0:0:
256,192,245652,1,8,0:0:0:0:
256,192,245802,1,0,0:0:0:0:
256,192,245877,1,0,0:0:0:0:
256,192,245952,1,0,0:0:0:0:
256,192,246102,1,8,0:0:0:0:
256,192,246252,1,8,0:0:0:0:
256,192,246402,1,0,0:0:0:0:
256,192,246477,1,0,0:0:0:0:
256,192,246552,1,8,0:0:0:0:
256,192,246702,1,0,0:0:0:0:
256,192,246852,1,8,0:0:0:0:
256,192,246927,1,8,0:0:0:0:
256,192,247002,1,0,0:0:0:0:
256,192,247152,1,0,0:0:0:0:
256,192,247302,1,8,0:0:0:0:
256,192,247377,1,8,0:0:0:0:
256,192,247452,1,0,0:0:0:0:
256,192,247527,1,0,0:0:0:0:
256,192,247602,1,8,0:0:0:0:
256,192,247752,1,0,0:0:0:0:
256,192,247902,1,8,0:0:0:0:
256,192,247977,1,8,0:0:0:0:
256,192,248052,1,8,0:0:0:0:
256,192,248127,1,8,0:0:0:0:
256,192,248202,1,0,0:0:0:0:
256,192,248352,1,0,0:0:0:0:
256,192,248502,1,8,0:0:0:0:
256,192,248577,1,8,0:0:0:0:
256,192,248652,1,0,0:0:0:0:
256,192,248727,1,0,0:0:0:0:
256,192,248802,1,0,0:0:0:0:
256,192,249102,1,8,0:0:0:0:
256,192,249252,1,0,0:0:0:0:
256,192,249402,1,0,0:0:0:0:
256,192,249552,1,0,0:0:0:0:
256,96,249702,1,12,0:0:0:0:
256,192,249852,1,0,0:0:0:0:
256,192,250152,1,0,0:0:0:0:
256,192,250302,1,8,0:0:0:0:
256,192,250452,1,0,0:0:0:0:
256,192,250752,1,0,0:0:0:0:
256,192,251052,1,0,0:0:0:0:
256,192,251352,1,0,0:0:0:0:
256,192,251502,1,8,0:0:0:0:
256,192,251652,1,8,0:0:0:0:
256,192,251802,1,0,0:0:0:0:
256,192,251952,1,8,0:0:0:0:
256,192,252102,1,0,0:0:0:0:
256,192,252252,1,8,0:0:0:0:
256,192,252552,1,0,0:0:0:0:
256,192,252702,1,8,0:0:0:0:
256,192,252852,1,0,0:0:0:0:
256,192,253152,1,0,0:0:0:0:
256,192,253302,1,8,0:0:0:0:
256,192,253377,1,8,0:0:0:0:
256,192,253452,1,8,0:0:0:0:
256,192,253527,1,8,0:0:0:0:
256,192,253602,1,0,0:0:0:0:
256,192,253752,1,0,0:0:0:0:
256,192,253902,1,8,0:0:0:0:
256,192,254052,1,0,0:0:0:0:
256,192,254127,1,0,0:0:0:0:
256,192,254202,1,8,0:0:0:0:
256,192,254352,1,8,0:0:0:0:
256,192,254502,1,0,0:0:0:0:
256,192,254652,1,8,0:0:0:0:
256,192,254952,1,0,0:0:0:0:
256,192,255102,1,8,0:0:0:0:
256,192,255252,1,0,0:0:0:0:
256,192,255552,1,0,0:0:0:0:
256,192,255852,1,0,0:0:0:0:
256,192,256152,1,0,0:0:0:0:
256,192,256302,1,8,0:0:0:0:
256,192,256452,1,8,0:0:0:0:
256,192,256602,1,0,0:0:0:0:
256,192,256752,1,8,0:0:0:0:
256,192,256902,1,0,0:0:0:0:
256,192,257052,1,8,0:0:0:0:
256,192,257352,1,0,0:0:0:0:
256,192,257502,1,8,0:0:0:0:
256,192,257652,1,0,0:0:0:0:
256,192,257952,1,0,0:0:0:0:
256,192,258102,1,8,0:0:0:0:
256,192,258177,1,8,0:0:0:0:
256,192,258252,1,8,0:0:0:0:
256,192,258327,1,8,0:0:0:0:
256,192,258402,1,0,0:0:0:0:
256,192,258552,1,8,0:0:0:0:
256,192,258702,1,0,0:0:0:0:
256,192,258777,1,0,0:0:0:0:
256,192,258852,1,0,0:0:0:0:
256,192,258927,1,0,0:0:0:0:
256,192,259002,1,8,0:0:0:0:
256,192,259152,1,0,0:0:0:0:
256,96,259302,1,12,0:0:0:0:
256,192,259602,1,0,0:0:0:0:
256,192,259752,1,0,0:0:0:0:
256,192,259902,1,8,0:0:0:0:
256,192,260052,1,0,0:0:0:0:
256,192,260202,1,8,0:0:0:0:
256,192,260277,1,8,0:0:0:0:
256,192,260352,1,0,0:0:0:0:
256,192,260502,1,8,0:0:0:0:
256,192,260652,1,0,0:0:0:0:
256,192,260802,1,8,0:0:0:0:
256,192,260952,1,0,0:0:0:0:
256,192,261102,1,8,0:0:0:0:
256,192,261177,1,8,0:0:0:0:
256,192,261252,1,8,0:0:0:0:
256,192,261402,1,0,0:0:0:0:
256,192,261702,1,0,0:0:0:0:
256,192,261852,1,8,0:0:0:0:
256,192,262002,1,0,0:0:0:0:
256,192,262077,1,0,0:0:0:0:
256,192,262152,1,0,0:0:0:0:
256,192,262302,1,8,0:0:0:0:
256,192,262452,1,8,0:0:0:0:
256,192,262602,1,0,0:0:0:0:
256,192,262752,1,0,0:0:0:0:
256,192,262902,1,8,0:0:0:0:
256,192,262977,1,8,0:0:0:0:
256,192,263052,1,8,0:0:0:0:
256,192,263127,1,8,0:0:0:0:
256,192,263202,1,0,0:0:0:0:
256,192,263352,1,8,0:0:0:0:
256,192,263502,1,0,0:0:0:0:
256,192,263577,1,0,0:0:0:0:
256,192,263652,1,0,0:0:0:0:
256,192,263727,1,0,0:0:0:0:
256,192,263802,1,8,0:0:0:0:
256,192,263952,1,8,0:0:0:0:
256,192,264102,1,0,0:0:0:0:
256,192,264402,1,8,0:0:0:0:
256,192,264552,1,8,0:0:0:0:
256,192,264627,1,8,0:0:0:0:
256,192,264702,1,0,0:0:0:0:
256,192,264852,1,8,0:0:0:0:
256,192,265002,1,0,0:0:0:0:
256,192,265152,1,0,0:0:0:0:
256,192,265302,1,8,0:0:0:0:
256,192,265377,1,8,0:0:0:0:
256,192,265452,1,0,0:0:0:0:
256,192,265527,1,0,0:0:0:0:
256,192,265602,1,8,0:0:0:0:
256,192,265752,1,8,0:0:0:0:
256,192,265902,1,0,0:0:0:0:
256,192,265977,1,0,0:0:0:0:
256,192,266052,1,0,0:0:0:0:
256,192,266202,1,8,0:0:0:0:
256,192,266277,1,8,0:0:0:0:
256,192,266352,1,0,0:0:0:0:
256,192,266502,1,8,0:0:0:0:
256,192,266652,1,0,0:0:0:0:
256,192,266802,1,8,0:0:0:0:
256,192,266877,1,0,0:0:0:0:
256,192,266952,1,0,0:0:0:0:
256,192,267027,1,0,0:0:0:0:
256,192,267102,1,8,0:0:0:0:
256,192,267252,1,0,0:0:0:0:
256,192,267402,1,8,0:0:0:0:
256,192,267702,1,8,0:0:0:0:
256,192,267777,1,8,0:0:0:0:
256,192,267852,1,8,0:0:0:0:
256,192,267927,1,8,0:0:0:0:
256,192,268002,1,0,0:0:0:0:
256,192,268152,1,8,0:0:0:0:
256,192,268302,1,0,0:0:0:0:
256,192,268377,1,0,0:0:0:0:
256,192,268452,1,0,0:0:0:0:
256,192,268527,1,0,0:0:0:0:
256,192,268602,1,8,0:0:0:0:
256,192,268752,1,4,0:0:0:0:
