osu file format v14

[General]
AudioFilename: audio.mp3
AudioLeadIn: 0
PreviewTime: 142080
Countdown: 0
SampleSet: Soft
StackLeniency: 0.7
Mode: 0
LetterboxInBreaks: 0
WidescreenStoryboard: 1

[Editor]
Bookmarks: 218,3159,3551,9825,16100,22374,33355,36492,39629,52178,64727,67864,80414,91394,94531,97668,110217,122766,129041,135315,142374,143159,155708,174531,178453
DistanceSpacing: 1
BeatDivisor: 2
GridSize: 4
TimelineZoom: 1

[Metadata]
Title:Under A Paper Moon
TitleUnicode:Under A Paper Moon
Artist:All Time Low
ArtistUnicode:All Time Low
Creator:Squichu
Version:Easy
Source:
Tags:dirty work bakari namki
BeatmapID:1058207
BeatmapSetID:494050

[Difficulty]
HPDrainRate:2
CircleSize:3
OverallDifficulty:2
ApproachRate:4.5
SliderMultiplier:1
SliderTickRate:1

[Events]
//Background and Video events
0,0,"moon.jpg",0,0
//Break Periods
2,129241,134055
//Storyboard Layer 0 (Background)
//Storyboard Layer 1 (Fail)
//Storyboard Layer 2 (Pass)
//Storyboard Layer 3 (Foreground)
//Storyboard Sound Samples

[TimingPoints]
414,392.156862745098,4,2,9,50,1,0
39629,-100,4,2,9,50,0,1
51786,-100,4,2,9,50,0,0
52178,-100,4,2,9,50,0,1
64727,-100,4,2,9,50,0,0
97668,-100,4,2,9,50,0,1
109825,-100,4,2,9,50,0,0
110217,-100,4,2,9,50,0,1
122766,-100,4,2,9,50,0,0
143159,-100,4,2,9,50,0,1
155315,-100,4,2,9,50,0,0
155708,-100,4,2,9,50,0,1
174531,-100,4,2,9,50,0,0

[Colours]
Combo1 : 176,157,253
Combo2 : 253,227,151
Combo3 : 102,126,242
Combo4 : 255,254,225

[HitObjects]
75,297,217,6,0,P|118:213|212:221,1,200
424,354,1982,1,0,0:0:0:0:
469,159,2766,2,0,P|420:148|371:157,1,100
274,182,3551,6,0,P|201:173|163:112,2,150
357,237,5119,2,0,B|525:227,2,150
314,329,6688,6,0,P|241:313|171:337,1,150
35,275,7864,1,0,0:0:0:0:
74,182,8257,2,0,L|67:132,2,50
145,251,9041,1,0,0:0:0:0:
220,185,9433,1,0,0:0:0:0:
316,212,9825,5,0,0:0:0:0:
456,69,10610,2,0,L|571:63,2,100
283,170,12178,2,0,P|274:225|296:268,1,100
374,206,12963,5,0,0:0:0:0:
380,305,13355,1,0,0:0:0:0:
293,355,13747,2,0,B|228:350|228:350|173:324|173:324|99:331,2,200
385,316,15708,1,0,0:0:0:0:
394,216,16100,5,0,0:0:0:0:
287,46,16884,2,0,P|234:61|187:51,2,100
477,108,18453,1,0,0:0:0:0:
464,207,18845,6,0,P|387:262|298:226,1,200
227,155,20021,2,0,P|179:148|127:164,1,100
64,237,20806,1,0,0:0:0:0:
111,324,21198,2,0,B|187:309|187:309|229:336|229:336|301:330,1,200
400,318,22374,6,0,P|393:272|397:209,1,100
480,165,23159,2,0,P|486:119|483:56,1,100
390,31,23943,2,0,B|344:50|344:50|277:31,1,100
195,42,24727,1,0,0:0:0:0:
146,129,25119,1,0,0:0:0:0:
181,222,25512,5,0,0:0:0:0:
279,236,25904,2,0,P|373:229|432:309,1,200
333,322,27080,1,0,0:0:0:0:
133,329,27864,2,0,P|85:344|37:334,1,100
80,244,28649,6,0,L|21:236,2,50
112,149,29433,2,0,L|53:141,2,50
177,224,30217,1,0,0:0:0:0:
344,333,31002,2,0,P|393:338|440:319,1,100
471,224,31786,6,0,P|421:218|375:238,1,100
277,222,32570,2,0,L|225:216,2,50
344,147,33355,6,0,P|360:77|318:11,2,150
258,94,34923,2,0,B|184:77|184:116|109:98,2,150
330,162,36492,6,0,L|308:316,1,150
165,353,37668,1,0,0:0:0:0:
78,302,38061,2,0,L|18:305,2,50
134,219,38845,2,0,L|183:216,1,50
312,137,39629,6,0,P|319:89|301:43,2,100
263,225,40806,1,0,0:0:0:0:
297,318,41198,1,0,0:0:0:0:
480,237,41982,2,0,L|487:132,1,100
392,102,42766,6,0,L|385:201,1,100
316,274,43551,2,0,P|252:283|171:182,1,200
270,184,44727,1,0,0:0:0:0:
255,85,45119,2,0,B|205:99|205:99|158:86,1,100
69,40,45904,5,0,0:0:0:0:
18,126,46296,2,0,B|12:225|54:225|48:322,1,200
142,356,47472,1,0,0:0:0:0:
208,281,47864,1,0,0:0:0:0:
299,320,48257,2,0,L|402:325,1,100
451,239,49041,6,0,L|501:236,2,50
412,146,49825,2,0,L|462:143,2,50
328,202,50610,2,0,P|281:216|232:208,1,100
201,113,51394,2,0,L|195:63,1,50
47,92,52178,6,0,L|33:203,2,100
134,43,53355,1,0,0:0:0:0:
231,66,53747,1,0,0:0:0:0:
311,247,54531,2,0,P|354:273|403:273,1,100
471,201,55315,6,0,P|429:175|380:176,1,100
311,247,56100,2,0,B|246:245|246:245|198:280|198:280|104:286,1,200
31,244,57276,1,0,0:0:0:0:
43,144,57668,2,0,P|90:102|144:101,1,100
125,197,58453,5,0,0:0:0:0:
197,265,58845,2,0,L|396:266,1,200
457,186,60021,1,0,0:0:0:0:
406,99,60413,1,0,0:0:0:0:
306,112,60806,2,0,P|257:120|210:105,1,100
116,70,61590,6,0,L|123:9,2,50
19,95,62374,2,0,L|26:34,2,50
19,195,63159,2,0,L|30:294,1,100
127,320,63943,1,0,0:0:0:0:
204,257,64335,1,0,0:0:0:0:
192,156,64727,6,0,P|192:84|248:38,1,150
398,36,65904,1,0,0:0:0:0:
436,128,66296,2,0,L|485:130,2,50
340,157,67080,2,0,P|324:207|335:256,1,100
394,331,67864,5,0,0:0:0:0:
194,342,68649,2,0,B|146:326|146:326|76:340,1,100
4,298,69433,1,0,0:0:0:0:
46,207,69825,2,0,P|88:169|59:34,1,200
166,26,71002,6,0,L|278:31,1,100
321,113,71786,2,0,L|433:108,1,100
500,48,72570,1,0,0:0:0:0:
486,247,73355,2,0,P|433:265|384:255,1,100
308,200,74139,6,0,P|258:193|212:210,1,100
189,308,74923,2,0,P|115:240|136:146,1,200
225,114,76100,2,0,P|285:116|332:82,1,100
367,9,76884,1,0,0:0:0:0:
461,41,77276,6,0,P|462:91|461:141,1,100
411,227,78060,1,0,0:0:0:0:
312,246,78453,1,0,0:0:0:0:
218,210,78845,2,0,L|168:217,2,50
475,55,80413,6,0,P|494:105|489:155,1,100
410,213,81198,2,0,P|391:167|395:118,1,100
328,43,81982,2,0,L|214:40,1,100
133,71,82766,1,0,0:0:0:0:
121,170,83159,1,0,0:0:0:0:
204,225,83551,6,0,L|322:221,1,100
329,124,84335,2,0,L|229:127,1,100
132,153,85119,2,0,P|107:208|114:262,1,100
204,225,85903,1,0,0:0:0:0:
264,304,86296,1,0,0:0:0:0:
357,269,86688,6,0,L|409:267,2,50
358,169,87472,2,0,L|410:167,2,50
260,144,88257,2,0,P|242:95|254:48,1,100
347,18,89041,1,0,0:0:0:0:
414,91,89433,1,0,0:0:0:0:
494,150,89825,6,0,B|485:201|485:201|500:257,1,100
440,329,90609,2,0,L|426:381,2,50
398,237,91394,6,0,P|331:205|262:228,2,150
326,306,92963,2,0,P|256:328|190:297,2,150
398,237,94531,6,0,B|382:184|382:184|395:134|395:134|390:90,1,150
252,31,95707,1,0,0:0:0:0:
172,91,96100,2,0,L|119:92,2,50
239,164,96884,2,0,L|288:163,1,50
414,244,97668,6,0,P|416:298|381:345,2,100
351,165,98845,1,0,0:0:0:0:
379,69,99237,1,0,0:0:0:0:
179,58,100021,2,0,B|130:73|130:73|53:58,1,100
57,160,100806,6,0,B|106:171|106:171|166:223,1,100
228,255,101590,2,0,P|145:303|60:258,1,200
143,203,102766,1,0,0:0:0:0:
203,122,103159,2,0,P|272:122|306:144,1,100
353,219,103943,5,0,0:0:0:0:
318,312,104335,2,0,B|259:315|259:315|207:348|207:348|119:334,1,200
60,262,105512,1,0,0:0:0:0:
96,168,105904,1,0,0:0:0:0:
195,162,106296,2,0,P|242:176|296:168,1,100
362,98,107080,6,0,L|359:36,2,50
460,117,107864,2,0,L|457:55,2,50
456,217,108649,2,0,L|451:316,1,100
358,356,109433,2,0,P|334:361|309:361,1,50
176,292,110217,6,0,P|127:285|82:305,2,100
271,323,111394,1,0,0:0:0:0:
338,249,111786,1,0,0:0:0:0:
239,75,112570,2,0,L|122:71,1,100
104,165,113355,6,0,L|203:168,1,100
297,204,114139,2,0,P|334:290|265:353,1,200
183,296,115315,1,0,0:0:0:0:
113,222,115708,2,0,P|64:216|18:234,1,100
75,316,116492,5,0,0:0:0:0:
113,222,116884,2,0,B|103:161|103:161|151:95|151:95|149:23,1,200
247,17,118061,1,0,0:0:0:0:
316,88,118453,1,0,0:0:0:0:
289,184,118845,2,0,P|284:243|306:294,1,100
388,322,119629,6,0,L|437:324,2,50
423,228,120413,2,0,L|472:230,2,50
335,178,121198,2,0,P|317:120|332:73,1,100
409,28,121982,1,0,0:0:0:0:
477,100,122374,1,0,0:0:0:0:
427,186,122766,6,0,L|439:295,1,100
363,352,123551,1,0,0:0:0:0:
291,282,123943,1,0,0:0:0:0:
203,331,124335,1,0,0:0:0:0:
126,267,124727,2,0,L|64:268,2,50
319,318,125904,6,0,L|381:319,2,50
249,246,126688,1,0,0:0:0:0:
271,148,127080,1,0,0:0:0:0:
365,115,127472,2,0,P|412:133|461:129,2,100
309,32,128649,1,0,0:0:0:0:
217,71,129041,5,0,0:0:0:0:
217,71,135315,6,0,B|170:60|170:60|103:69,2,100
271,155,136492,1,0,0:0:0:0:
318,243,136884,2,0,B|365:254|365:254|432:245,2,100
271,155,138061,1,0,0:0:0:0:
171,167,138453,5,0,0:0:0:0:
256,192,138649,12,0,140021,0:0:0:0:
171,167,142374,6,0,L|177:110,1,50
310,49,143159,6,0,P|374:44|427:77,2,100
272,141,144335,1,0,0:0:0:0:
345,208,144727,1,0,0:0:0:0:
195,341,145512,2,0,L|90:345,1,100
71,247,146296,6,0,L|170:243,1,100
268,223,147080,2,0,B|295:184|287:128|287:128|342:143|404:110,1,200
454,46,148257,1,0,0:0:0:0:
505,131,148649,2,0,L|488:241,1,100
416,297,149433,5,0,0:0:0:0:
319,271,149825,2,0,B|223:264|224:305|122:296,1,200
55,221,151002,1,0,0:0:0:0:
88,126,151394,1,0,0:0:0:0:
187,119,151786,2,0,P|248:131|302:112,1,100
358,55,152570,6,0,L|371:3,2,50
444,105,153355,2,0,L|457:53,2,50
378,180,154139,2,0,P|314:177|280:153,1,100
196,111,154923,2,0,P|164:106|129:110,1,50
46,219,155708,6,0,L|39:331,2,100
132,169,156884,1,0,0:0:0:0:
226,202,157276,1,0,0:0:0:0:
419,150,158061,2,0,P|426:84|406:41,1,100
329,105,158845,6,0,P|319:154|333:202,1,100
417,255,159629,2,0,P|333:302|249:256,1,200
231,157,160806,1,0,0:0:0:0:
151,96,161198,2,0,L|30:101,1,100
21,195,161982,5,0,0:0:0:0:
75,278,162374,2,0,P|143:294|221:198,1,200
209,105,163551,1,0,0:0:0:0:
289,45,163943,1,0,0:0:0:0:
378,90,164335,2,0,L|371:196,1,100
308,267,165119,6,0,L|312:316,2,50
228,206,165904,2,0,L|232:156,2,50
164,283,166688,2,0,P|93:306|50:290,1,100
33,207,167472,1,0,0:0:0:0:
112,146,167864,1,0,0:0:0:0:
75,52,168257,5,0,0:0:0:0:
169,19,168649,2,0,B|237:13|237:13|292:59|292:59|358:60,1,200
449,38,169825,1,0,0:0:0:0:
491,128,170217,2,0,P|486:230|477:338,1,200
381,353,171394,6,0,L|300:361,2,50
316,276,172178,2,0,L|235:284,2,50
390,209,172963,2,0,P|413:158|402:101,1,100
341,42,173747,1,0,0:0:0:0:
248,78,174139,1,0,0:0:0:0:
156,36,174531,6,0,B|105:30|105:30|32:63,1,100
14,139,175315,1,0,0:0:0:0:
87,206,175708,1,0,0:0:0:0:
174,156,176100,1,0,0:0:0:0:
254,215,176492,2,0,L|321:218,2,50
76,298,177668,6,0,L|9:301,2,50
