osu file format v14

[General]
AudioFilename: All Time Low - Under A Paper Moon.mp3
AudioLeadIn: 0
PreviewTime: 39428
Countdown: 0
SampleSet: Normal
StackLeniency: 0.7
Mode: 0
LetterboxInBreaks: 0
WidescreenStoryboard: 1

[Editor]
Bookmarks: 1518,3489,36146,67616,79624,90949,108989,164479
DistanceSpacing: 1.4
BeatDivisor: 4
GridSize: 4
TimelineZoom: 1

[Metadata]
Title:Under A Paper Moon
TitleUnicode:Under A Paper Moon
Artist:All Time Low
ArtistUnicode:All Time Low
Creator:KASUM1
Version:Insane
Source:
Tags:dirty work punk alex gaskarth jack barakat zack merrick rian dawson
BeatmapID:772985
BeatmapSetID:350635

[Difficulty]
HPDrainRate:6
CircleSize:4
OverallDifficulty:7
ApproachRate:8
SliderMultiplier:1.59999990463257
SliderTickRate:1

[Events]
//Background and Video events
0,0,"BG.jpg",0,0
//Break Periods
2,64922,66325
2,122961,128286
//Storyboard Layer 0 (Background)
//Storyboard Layer 1 (Fail)
//Storyboard Layer 2 (Pass)
//Storyboard Layer 3 (Foreground)
//Storyboard Sound Samples

[TimingPoints]
3546,392.156862745098,4,1,1,55,1,0
39624,-100,4,2,1,75,0,1
51193,-100,4,2,1,55,0,0
51977,-100,4,2,2,75,0,1
64722,-100,4,1,1,55,0,0
97663,-100,4,2,1,75,0,1
109232,-100,4,2,1,55,0,0
110212,-100,4,2,1,75,0,1
122761,-100,4,1,1,55,0,0
143153,-100,4,2,2,75,0,1
154526,-100,4,2,1,55,0,0
155506,-100,4,2,2,75,0,1
174330,-100,4,2,1,55,0,0

[Colours]
Combo1 : 20,89,146
Combo2 : 0,128,192
Combo3 : 209,209,209
Combo4 : 0,0,128
Combo5 : 128,128,255

[HitObjects]
48,176,2761,5,0,0:0:0:0:
104,348,2957,2,0,P|128:308|128:260,1,79.9999952316285
112,84,3349,1,0,0:0:0:0:
112,84,3447,1,0,0:0:0:0:
112,84,3546,6,0,P|188:104|265:84,1,159.999990463257
368,60,4134,2,0,P|347:136|367:213,1,159.999990463257
432,300,4722,2,0,P|452:248|440:204,1,79.9999952316285
216,340,5114,6,0,P|288:360|392:344,1,159.999990463257
257,258,5702,2,0,P|185:238|81:254,1,159.999990463257
28,308,6291,1,0,0:0:0:0:
96,104,6487,1,0,0:0:0:0:
164,192,6683,6,0,P|188:132|160:12,1,159.999990463257
304,18,7271,2,0,P|280:78|308:198,1,159.999990463257
380,224,7859,2,0,L|468:240,1,79.9999952316285
432,144,8251,5,0,0:0:0:0:
327,316,8447,2,0,P|306:283|304:244,1,79.9999952316285
408,72,8840,1,0,0:0:0:0:
312,136,9036,2,0,P|252:144|184:120,1,119.999992847443
168,104,9428,2,0,P|108:96|40:120,1,119.999992847443
44,68,9820,6,0,P|0:140|8:228,1,159.999990463257
64,336,10408,1,0,0:0:0:0:
148,320,10604,1,0,0:0:0:0:
92,256,10800,1,0,0:0:0:0:
64,336,10996,1,0,0:0:0:0:
148,320,11193,6,0,P|216:304|320:316,1,159.999990463257
392,348,11781,1,0,0:0:0:0:
472,292,11977,2,0,P|480:248|472:208,1,79.9999952316285
362,170,12369,2,0,P|354:214|362:254,1,79.9999952316285
444,128,12761,6,0,P|392:88|288:72,1,159.999990463257
140,84,13349,1,0,0:0:0:0:
208,220,13546,2,0,P|236:144|212:56,1,159.999990463257
80,24,14134,1,0,0:0:0:0:
16,172,14330,2,0,L|16:76,1,79.9999952316285
96,232,14722,6,0,L|96:136,1,79.9999952316285
176,292,15114,2,0,L|176:196,1,79.9999952316285
175,133,15506,2,0,P|235:98|311:119,1,150
392,200,16095,5,0,0:0:0:0:
431,317,16291,2,0,L|351:331,1,79.9999952316285
260,259,16683,1,0,0:0:0:0:
153,337,16879,1,0,0:0:0:0:
194,211,17075,1,0,0:0:0:0:
235,337,17271,1,0,0:0:0:0:
128,259,17467,2,0,L|42:274,1,79.9999952316285
153,144,17859,6,0,P|189:130|234:142,1,79.9999952316285
354,91,18251,2,0,P|362:54|399:21,1,79.9999952316285
448,108,18644,1,0,0:0:0:0:
480,204,18840,1,0,0:0:0:0:
480,204,19036,6,0,P|497:277|470:357,1,159.999990463257
372,368,19624,1,0,0:0:0:0:
372,368,19820,1,0,0:0:0:0:
280,336,20016,2,0,P|242:335|206:307,2,79.9999952316285
374,221,20604,2,0,P|344:201|301:201,1,79.9999952316285
177,188,20996,5,0,0:0:0:0:
151,298,21193,1,0,0:0:0:0:
284,337,21389,2,0,L|364:322,1,79.9999952316285
449,232,21781,1,0,0:0:0:0:
449,232,21977,2,0,L|366:220,1,79.9999952316285
229,134,22369,38,0,P|161:114|99:170,1,159.999990463257
127,280,22957,1,0,0:0:0:0:
257,204,23153,2,0,P|289:181|304:138,1,79.9999952316285
165,119,23546,1,0,0:0:0:0:
52,157,23742,1,0,0:0:0:0:
14,45,23938,5,0,0:0:0:0:
126,6,24134,1,0,0:0:0:0:
286,65,24330,2,0,L|371:79,1,79.9999952316285
490,151,24722,2,0,L|480:232,1,79.9999952316285
407,338,25114,2,0,L|394:241,1,79.9999952316285
324,131,25506,38,0,P|252:132|208:64,1,159.999990463257
321,18,26095,1,0,0:0:0:0:
321,18,26291,1,0,0:0:0:0:
440,79,26487,2,0,P|480:62|519:66,2,79.9999952316285
394,190,27075,6,0,P|408:236|398:269,1,79.9999952316285
316,343,27467,1,0,0:0:0:0:
316,343,27663,1,0,0:0:0:0:
254,216,27859,2,0,L|163:246,1,79.9999952316285
108,304,28251,2,0,P|78:335|40:347,1,79.9999952316285
108,260,28644,5,0,0:0:0:0:
30,189,28840,1,0,0:0:0:0:
30,189,29036,1,0,0:0:0:0:
77,63,29232,2,0,B|156:83,1,79.9999952316285
248,104,29624,1,0,0:0:0:0:
274,27,29820,2,0,B|195:11,1,79.9999952316285
243,123,30212,5,0,0:0:0:0:
320,217,30408,1,0,0:0:0:0:
440,209,30604,1,0,0:0:0:0:
503,108,30800,1,0,0:0:0:0:
376,136,30996,2,0,B|367:49,1,79.9999952316285
320,217,31389,2,0,P|332:268|362:296,1,79.9999952316285
493,290,31781,6,0,P|442:302|414:331,1,79.9999952316285
266,320,32173,2,0,P|209:356|126:315,1,159.999990463257
87,220,32761,1,0,0:0:0:0:
87,220,32957,1,0,0:0:0:0:
239,251,33153,6,0,P|281:247|316:267,2,79.9999952316285
87,220,33742,2,0,P|83:178|104:142,1,79.9999952316285
167,52,34134,1,0,0:0:0:0:
167,52,34330,1,0,0:0:0:0:
289,121,34526,2,0,L|275:201,1,79.9999952316285
383,258,34918,6,0,L|392:349,1,79.9999952316285
275,194,35310,1,0,0:0:0:0:
347,200,35531,2,0,P|307:260|224:246,1,159.999990463257
400,136,36095,2,0,L|479:121,1,79.9999952316285
256,192,36487,12,0,38644,0:0:0:0:
344,256,38840,5,0,0:0:0:0:
160,108,39036,1,0,0:0:0:0:
451,128,39624,5,0,0:0:0:0:
502,230,39820,1,0,0:0:0:0:
444,326,40016,1,0,0:0:0:0:
332,337,40212,1,0,0:0:0:0:
191,258,40408,2,0,P|146:255|112:276,1,79.9999952316285
277,260,40800,2,0,P|322:263|355:242,1,79.9999952316285
252,117,41193,6,0,L|240:202,1,79.9999952316285
136,204,41585,1,0,0:0:0:0:
170,75,41781,1,0,0:0:0:0:
170,75,41977,2,0,P|127:29|30:61,1,159.999990463257
39,161,42565,1,0,0:0:0:0:
39,161,42761,5,0,0:0:0:0:
91,287,42957,2,0,B|85:369,2,79.9999952316285
165,150,43546,2,0,B|174:71,1,79.9999952316285
249,190,43938,1,0,0:0:0:0:
249,190,44134,1,0,0:0:0:0:
196,334,44330,6,0,P|251:367|349:315,1,159.999990463257
296,248,44918,2,0,L|384:262,1,79.9999952316285
510,261,45310,1,0,0:0:0:0:
376,152,45506,1,0,0:0:0:0:
192,36,45702,2,0,L|105:60,1,79.9999952316285
262,77,46095,5,0,0:0:0:0:
364,29,46291,1,0,0:0:0:0:
471,66,46487,1,0,0:0:0:0:
512,172,46683,1,0,0:0:0:0:
458,324,46879,2,0,P|442:285|447:238,1,79.9999952316285
393,112,47271,2,0,P|394:155|371:197,1,79.9999952316285
332,272,47663,5,0,0:0:0:0:
244,324,47859,2,0,L|161:341,1,79.9999952316285
32,288,48251,2,0,L|114:272,1,79.9999952316285
296,204,48644,1,0,0:0:0:0:
312,176,48742,1,0,0:0:0:0:
316,144,48840,1,0,0:0:0:0:
308,112,48938,1,0,0:0:0:0:
288,88,49036,5,0,0:0:0:0:
160,84,49232,1,0,0:0:0:0:
121,230,49428,1,0,0:0:0:0:
85,104,49624,1,0,0:0:0:0:
195,210,49820,1,0,0:0:0:0:
67,177,50016,1,0,0:0:0:0:
214,135,50212,1,0,0:0:0:0:
324,96,50408,1,0,0:0:0:0:
428,60,50604,6,0,L|428:168,1,79.9999952316285
428,140,50996,1,0,0:0:0:0:
220,228,51389,1,0,0:0:0:0:
432,144,51585,1,0,0:0:0:0:
204,235,52173,6,0,P|119:208|51:246,1,159.999990463257
45,349,52761,1,0,0:0:0:0:
45,349,52957,1,0,0:0:0:0:
189,309,53153,2,0,P|235:305|270:270,2,79.9999952316285
251,170,53742,6,0,P|287:163|327:176,1,79.9999952316285
431,206,54134,1,0,0:0:0:0:
481,106,54330,1,0,0:0:0:0:
370,15,54526,2,0,L|281:31,1,79.9999952316285
165,76,54918,2,0,L|255:94,1,79.9999952316285
323,218,55310,6,0,P|271:254|178:221,1,159.999990463257
120,146,55898,1,0,0:0:0:0:
18,36,56095,2,0,L|1:118,1,79.9999952316285
67,218,56487,1,0,0:0:0:0:
180,257,56683,1,0,0:0:0:0:
141,369,56879,5,0,0:0:0:0:
29,331,57075,1,0,0:0:0:0:
209,326,57271,2,0,P|240:303|253:254,1,79.9999952316285
251,131,57663,2,0,P|230:154|170:165,1,79.9999952316285
255,38,58055,2,0,P|286:42|329:86,1,79.9999952316285
469,124,58447,38,0,P|404:174|432:251,1,159.999990463257
464,344,59036,1,0,0:0:0:0:
464,344,59232,1,0,0:0:0:0:
327,346,59428,2,0,L|248:354,2,79.9999952316285
229,249,60016,6,0,L|148:231,1,79.9999952316285
145,336,60408,1,0,0:0:0:0:
145,336,60604,1,0,0:0:0:0:
293,285,60800,2,0,P|299:226|248:160,1,119.999992847443
244,156,61193,1,0,0:0:0:0:
212,148,61291,1,0,0:0:0:0:
180,152,61389,1,0,0:0:0:0:
152,164,61487,1,0,0:0:0:0:
128,188,61585,5,0,0:0:0:0:
192,280,61781,1,0,0:0:0:0:
329,301,61977,1,0,0:0:0:0:
217,345,62173,1,0,0:0:0:0:
235,224,62369,1,0,0:0:0:0:
286,356,62565,1,0,0:0:0:0:
304,236,62761,1,0,0:0:0:0:
224,156,62957,1,0,0:0:0:0:
336,136,63153,6,0,L|436:115,1,79.9999952316285
355,23,63546,1,0,0:0:0:0:
355,23,63742,1,0,0:0:0:0:
212,12,63938,2,0,P|171:23|149:57,1,79.9999952316285
30,122,64330,2,0,L|41:40,1,79.9999952316285
117,132,64722,5,0,0:0:0:0:
201,209,67075,5,0,0:0:0:0:
181,320,67271,1,0,0:0:0:0:
77,363,67467,1,0,0:0:0:0:
22,228,67663,1,0,0:0:0:0:
22,228,67859,6,0,P|63:227|104:251,1,79.9999952316285
240,274,68251,2,0,P|278:282|318:272,1,79.9999952316285
278,140,68644,2,0,L|271:56,1,79.9999952316285
424,41,69036,2,0,P|385:100|396:185,1,159.999990463257
495,129,69624,5,0,0:0:0:0:
495,129,69820,1,0,0:0:0:0:
497,273,70016,2,0,L|505:355,2,79.9999952316285
394,176,70604,2,0,L|384:273,1,79.9999952316285
415,364,70996,5,0,0:0:0:0:
415,364,71193,1,0,0:0:0:0:
302,282,71389,2,0,P|258:283|225:307,1,79.9999952316285
101,355,71781,2,0,P|127:320|130:278,1,79.9999952316285
232,181,72173,2,0,P|299:177|326:92,1,159.999990463257
241,33,72761,5,0,0:0:0:0:
156,126,72957,2,0,L|146:213,1,79.9999952316285
247,274,73349,1,0,0:0:0:0:
171,357,73546,1,0,0:0:0:0:
62,331,73742,1,0,0:0:0:0:
6,234,73938,1,0,0:0:0:0:
68,112,74134,6,0,L|79:26,1,79.9999952316285
215,66,74526,2,0,P|239:86|296:92,1,79.9999952316285
416,29,74918,2,0,L|508:11,1,79.9999952316285
506,162,75310,2,0,P|463:116|361:146,1,159.999990463257
329,233,75898,5,0,0:0:0:0:
329,233,76095,1,0,0:0:0:0:
197,192,76291,2,0,B|116:166,2,79.9999952316285
329,233,76879,2,0,B|411:222,1,79.9999952316285
460,330,77271,5,0,0:0:0:0:
460,330,77467,1,0,0:0:0:0:
315,331,77663,2,0,P|264:306|251:267,1,79.9999952316285
268,176,78055,2,0,L|275:88,1,79.9999952316285
172,40,78447,2,0,L|163:127,1,79.9999952316285
76,192,78840,6,0,L|86:104,1,79.9999952316285
85,112,79232,1,0,0:0:0:0:
192,264,79624,2,0,P|244:276|286:262,1,79.9999952316285
378,246,80016,1,0,0:0:0:0:
452,164,80212,1,0,0:0:0:0:
452,164,80408,6,0,P|400:152|350:168,1,79.9999952316285
216,68,80800,1,0,0:0:0:0:
200,172,80996,1,0,0:0:0:0:
296,116,81193,1,0,0:0:0:0:
112,109,81389,2,0,P|80:161|77:199,1,79.9999952316285
120,272,81781,1,0,0:0:0:0:
226,306,81977,6,0,P|258:254|258:210,1,79.9999952316285
296,116,82369,1,0,0:0:0:0:
153,57,82565,1,0,0:0:0:0:
296,116,82761,2,0,L|333:36,1,79.9999952316285
208,152,83153,2,0,P|192:220|209:261,1,79.9999952316285
280,300,83546,5,0,0:0:0:0:
368,264,83742,2,0,P|420:252|472:266,1,79.9999952316285
480,156,84134,1,0,0:0:0:0:
400,92,84330,1,0,0:0:0:0:
296,116,84526,1,0,0:0:0:0:
208,152,84722,2,0,P|184:104|191:66,1,79.9999952316285
296,116,85114,5,0,0:0:0:0:
183,235,85310,2,0,L|165:330,1,79.9999952316285
84,232,85702,1,0,0:0:0:0:
164,331,85898,1,0,0:0:0:0:
264,252,86095,2,0,L|280:337,1,79.9999952316285
372,288,86487,2,0,P|400:232|397:191,1,79.9999952316285
354,87,86879,5,0,0:0:0:0:
247,159,87075,1,0,0:0:0:0:
247,159,87271,1,0,0:0:0:0:
376,168,87467,1,0,0:0:0:0:
266,81,87663,1,0,0:0:0:0:
306,224,87859,1,0,0:0:0:0:
164,147,88055,2,0,P|128:183|118:234,1,79.9999952316285
127,313,88447,5,0,0:0:0:0:
232,273,88644,2,0,P|268:237|274:187,1,79.9999952316285
267,100,89036,1,0,0:0:0:0:
382,132,89232,2,0,P|429:141|475:132,1,79.9999952316285
415,235,89624,1,0,0:0:0:0:
312,316,89820,5,0,0:0:0:0:
248,195,90016,1,0,0:0:0:0:
179,315,90212,1,0,0:0:0:0:
179,315,90408,1,0,0:0:0:0:
323,194,90604,1,0,0:0:0:0:
170,195,90800,1,0,0:0:0:0:
252,321,90996,1,0,0:0:0:0:
360,188,91193,1,0,0:0:0:0:
360,188,91389,6,0,P|336:144|340:100,1,79.9999952316285
448,100,91781,1,0,0:0:0:0:
350,29,91977,1,0,0:0:0:0:
256,103,92173,1,0,0:0:0:0:
229,239,92369,2,0,L|169:296,1,79.9999952316285
29,246,92761,1,0,0:0:0:0:
222,221,92957,6,0,P|242:161|233:126,1,79.9999952316285
145,125,93349,1,0,0:0:0:0:
154,269,93546,2,0,B|198:301|198:301|247:309,1,79.9999952316285
324,212,93938,1,0,0:0:0:0:
389,312,94134,1,0,0:0:0:0:
456,212,94330,1,0,0:0:0:0:
256,192,94526,12,0,96683,0:0:0:0:
342,129,96879,5,0,0:0:0:0:
202,250,97075,1,0,0:0:0:0:
280,72,97663,6,0,P|264:128|279:170,1,79.9999952316285
332,248,98055,1,0,0:0:0:0:
164,276,98251,2,0,P|180:220|167:177,1,79.9999952316285
112,100,98644,1,0,0:0:0:0:
224,44,98840,1,0,0:0:0:0:
340,76,99036,2,0,L|417:47,1,79.9999952316285
304,152,99428,6,0,P|320:220|306:256,1,79.9999952316285
232,300,99820,1,0,0:0:0:0:
144,264,100016,2,0,P|92:252|51:259,1,79.9999952316285
32,156,100408,1,0,0:0:0:0:
112,92,100604,1,0,0:0:0:0:
216,116,100800,5,0,0:0:0:0:
304,152,100996,1,0,0:0:0:0:
304,152,101193,2,0,P|328:104|322:63,1,79.9999952316285
216,116,101585,1,0,0:0:0:0:
329,235,101781,2,0,L|347:329,1,79.9999952316285
428,232,102173,1,0,0:0:0:0:
348,331,102369,5,0,0:0:0:0:
238,308,102565,2,0,L|171:358,1,79.9999952316285
112,248,102957,1,0,0:0:0:0:
248,178,103153,1,0,0:0:0:0:
124,155,103349,1,0,0:0:0:0:
238,298,103546,1,0,0:0:0:0:
238,298,103742,1,0,0:0:0:0:
316,163,103938,5,0,0:0:0:0:
176,224,104134,1,0,0:0:0:0:
343,176,104330,1,0,0:0:0:0:
184,312,104526,2,0,P|136:320|94:292,1,79.9999952316285
176,224,104918,1,0,0:0:0:0:
297,288,105114,1,0,0:0:0:0:
297,288,105310,1,0,0:0:0:0:
343,176,105506,5,0,0:0:0:0:
201,160,105702,1,0,0:0:0:0:
380,207,105898,2,0,L|456:234,1,79.9999952316285
312,288,106291,2,0,P|256:280|226:294,1,79.9999952316285
99,302,106683,1,0,0:0:0:0:
84,278,106781,1,0,0:0:0:0:
71,244,106879,1,0,0:0:0:0:
80,209,106977,1,0,0:0:0:0:
94,185,107075,5,0,0:0:0:0:
205,183,107271,1,0,0:0:0:0:
314,262,107467,1,0,0:0:0:0:
328,128,107663,1,0,0:0:0:0:
237,254,107859,1,0,0:0:0:0:
251,120,108055,1,0,0:0:0:0:
360,199,108251,1,0,0:0:0:0:
357,87,108447,1,0,0:0:0:0:
258,32,108644,6,0,P|203:35|168:69,1,79.9999952316285
183,48,109036,1,0,0:0:0:0:
323,254,109428,1,0,0:0:0:0:
196,136,109624,1,0,0:0:0:0:
485,207,110212,38,0,P|441:193|379:212,1,79.9999952316285
317,209,110604,1,0,0:0:0:0:
317,209,110800,1,0,0:0:0:0:
412,109,110996,2,0,P|362:122|316:109,1,79.9999952316285
226,174,111389,2,0,L|221:69,1,79.9999952316285
318,209,111781,6,0,L|316:290,1,79.9999952316285
214,312,112173,1,0,0:0:0:0:
113,329,112369,1,0,0:0:0:0:
17,226,112565,1,0,0:0:0:0:
141,244,112761,1,0,0:0:0:0:
37,263,112957,2,0,L|26:161,1,79.9999952316285
40,74,113349,38,0,P|89:63|130:85,1,79.9999952316285
262,115,113742,2,0,P|216:111|166:140,1,79.9999952316285
191,254,114134,2,0,P|230:269|272:262,1,79.9999952316285
372,245,114526,1,0,0:0:0:0:
472,226,114722,1,0,0:0:0:0:
375,176,114918,6,0,L|400:274,1,79.9999952316285
362,322,115310,2,0,P|408:332|444:318,1,79.9999952316285
472,226,115702,2,0,L|447:125,1,79.9999952316285
486,76,116095,2,0,P|440:64|399:80,1,79.9999952316285
291,37,116487,6,0,P|342:51|350:172,1,159.999990463257
259,176,117075,1,0,0:0:0:0:
174,114,117271,2,0,P|168:83|176:19,1,79.9999952316285
260,177,117663,2,0,P|266:208|259:272,1,79.9999952316285
312,335,118055,5,0,0:0:0:0:
312,335,118251,1,0,0:0:0:0:
213,340,118447,2,0,P|176:361|118:353,1,79.9999952316285
61,284,118840,1,0,0:0:0:0:
24,195,119036,1,0,0:0:0:0:
111,98,119232,1,0,0:0:0:0:
138,82,119330,1,0,0:0:0:0:
168,73,119428,1,0,0:0:0:0:
199,78,119526,1,0,0:0:0:0:
226,94,119624,5,0,0:0:0:0:
297,180,119820,1,0,0:0:0:0:
244,299,120016,1,0,0:0:0:0:
373,285,120212,1,0,0:0:0:0:
236,224,120408,1,0,0:0:0:0:
312,330,120604,1,0,0:0:0:0:
366,210,120800,1,0,0:0:0:0:
286,154,120996,2,0,P|290:102|287:62,1,79.9999952316285
62,128,121389,6,0,P|58:76|62:38,1,79.9999952316285
230,12,121781,1,0,0:0:0:0:
239,208,121977,6,0,P|290:196|376:269,1,159.999990463257
472,295,122761,1,0,0:0:0:0:
255,156,129036,5,0,0:0:0:0:
291,192,130604,5,0,0:0:0:0:
256,228,132173,5,0,0:0:0:0:
218,191,133545,5,0,0:0:0:0:
162,151,135310,6,0,P|145:107|148:67,2,79.9999952316285
348,200,135898,2,0,P|365:244|362:284,2,79.9999952316285
251,190,136487,1,0,0:0:0:0:
197,270,136683,1,0,0:0:0:0:
197,270,136781,1,0,0:0:0:0:
197,270,136879,6,0,P|176:312|145:337,2,79.9999952316285
288,113,137467,2,0,P|308:70|339:45,2,79.9999952316285
349,206,138055,2,0,P|333:240|316:250,5,39.9999976158142
312,255,138644,1,0,0:0:0:0:
288,258,138742,1,0,0:0:0:0:
264,253,138840,1,0,0:0:0:0:
243,241,138938,1,0,0:0:0:0:
224,225,139036,1,0,0:0:0:0:
211,204,139134,1,0,0:0:0:0:
205,180,139232,1,0,0:0:0:0:
205,156,139330,1,0,0:0:0:0:
214,133,139428,1,0,0:0:0:0:
230,115,139526,2,0,L|258:85,3,39.9999976158142
293,58,139918,1,0,0:0:0:0:
256,192,140016,12,0,142173,0:0:0:0:
121,84,142369,5,0,0:0:0:0:
359,268,142565,1,0,0:0:0:0:
360,156,143153,5,0,0:0:0:0:
428,224,143349,2,0,P|400:248|356:252,1,79.9999952316285
216,320,143741,2,0,B|256:308|256:308|296:320,1,79.9999952316285
154,253,144133,2,0,P|112:248|84:224,1,79.9999952316285
144,80,144525,2,0,B|160:112|160:112|152:160,1,79.9999952316285
256,236,144918,5,0,0:0:0:0:
256,236,145114,1,0,0:0:0:0:
360,156,145310,2,0,B|352:112|352:112|368:80,1,79.9999952316285
216,48,145702,2,0,B|256:24|296:48|296:48,1,79.9999952316285
360,156,146094,1,0,0:0:0:0:
152,156,146290,5,0,0:0:0:0:
104,304,146486,1,0,0:0:0:0:
208,240,146682,2,0,B|192:248|192:248|132:232,1,79.9999952316285
256,324,147074,1,0,0:0:0:0:
304,240,147271,2,0,B|320:248|320:248|380:232,1,79.9999952316285
413,304,147663,6,0,P|457:256|429:172,1,159.999990463257
328,140,148251,2,0,B|284:132|256:108|256:108|228:132|184:140,1,159.999990463257
104,304,148839,2,0,P|60:256|88:172,1,159.999990463257
180,36,149427,5,0,0:0:0:0:
332,36,149623,1,0,0:0:0:0:
212,112,149820,1,0,0:0:0:0:
300,112,150016,1,0,0:0:0:0:
212,192,150212,2,0,P|180:216|172:256,1,79.9999952316285
341,254,150604,2,0,P|332:216|300:192,1,79.9999952316285
160,328,150996,5,0,0:0:0:0:
256,276,151192,1,0,0:0:0:0:
352,328,151388,2,0,P|412:284|400:208,1,159.999990463257
344,128,151976,1,0,0:0:0:0:
236,94,152173,1,0,0:0:0:0:
217,120,152271,1,0,0:0:0:0:
206,150,152369,1,0,0:0:0:0:
211,181,152467,1,0,0:0:0:0:
227,208,152565,5,0,0:0:0:0:
326,258,152761,1,0,0:0:0:0:
469,203,152957,1,0,0:0:0:0:
337,183,153153,1,0,0:0:0:0:
386,307,153349,1,0,0:0:0:0:
409,155,153545,1,0,0:0:0:0:
458,279,153742,1,0,0:0:0:0:
310,319,153938,1,0,0:0:0:0:
200,343,154134,6,0,L|117:343,1,79.9999952316285
120,343,154526,1,0,0:0:0:0:
240,187,154918,1,0,0:0:0:0:
374,285,155114,1,0,0:0:0:0:
180,156,155702,6,0,P|208:124|252:120,1,79.9999952316285
252,212,156095,1,0,0:0:0:0:
164,248,156291,1,0,0:0:0:0:
92,184,156487,1,0,0:0:0:0:
164,248,156683,1,0,0:0:0:0:
232,316,156879,2,0,L|312:300,1,79.9999952316285
484,332,157271,6,0,L|404:348,1,79.9999952316285
400,236,157663,2,0,P|384:200|392:156,1,79.9999952316285
309,229,158055,2,0,P|281:200|274:156,1,79.9999952316285
389,160,158447,1,0,0:0:0:0:
229,258,158644,1,0,0:0:0:0:
229,258,158840,6,0,P|194:235|166:195,2,79.9999952316285
264,356,159428,1,0,0:0:0:0:
172,320,159624,2,0,B|136:304|136:304|96:308,1,79.9999952316285
112,136,160016,2,0,B|96:172|96:172|100:212,1,79.9999952316285
24,120,160408,6,0,L|56:44,1,79.9999952316285
156,20,160801,1,0,0:0:0:0:
256,44,160997,1,0,0:0:0:0:
352,88,161193,1,0,0:0:0:0:
328,188,161389,1,0,0:0:0:0:
408,264,161585,1,0,0:0:0:0:
432,164,161781,1,0,0:0:0:0:
328,188,161977,6,0,P|308:276|224:295,1,159.999990463257
155,297,162565,1,0,0:0:0:0:
127,188,162761,2,0,P|119:148|127:108,1,79.9999952316285
32,33,163153,2,0,P|40:73|32:113,1,79.9999952316285
52,290,163545,6,0,P|44:250|52:210,1,80
136,167,163938,1,0,0:0:0:0:
224,184,164134,1,0,0:0:0:0:
292,116,164330,2,0,P|368:96|427:138,1,119.999992847443
419,128,164722,1,0,0:0:0:0:
431,148,164820,1,0,0:0:0:0:
437,170,164918,1,0,0:0:0:0:
439,193,165016,1,0,0:0:0:0:
434,216,165114,5,0,0:0:0:0:
336,270,165310,1,0,0:0:0:0:
192,206,165506,1,0,0:0:0:0:
328,192,165702,1,0,0:0:0:0:
272,316,165898,1,0,0:0:0:0:
257,161,166095,1,0,0:0:0:0:
202,284,166291,1,0,0:0:0:0:
336,270,166487,1,0,0:0:0:0:
224,184,166683,6,0,P|200:152|196:112,1,80
328,200,167075,2,0,P|352:228|356:272,1,80
439,127,167468,2,0,L|360:112,1,80
184,200,167860,2,0,P|160:228|156:272,2,80
74,127,168447,6,0,L|152:112,1,80
308,40,168840,1,0,0:0:0:0:
204,40,169036,1,0,0:0:0:0:
204,40,169232,1,0,0:0:0:0:
152,120,169428,2,0,P|136:160|144:200,1,80
256,176,169821,5,0,0:0:0:0:
356,216,170017,2,0,P|372:256|364:296,1,80
296,344,170409,2,0,B|256:340|256:340|216:344,1,80
145,292,170801,2,0,P|140:257|156:217,1,80
256,176,171193,1,0,0:0:0:0:
496,124,171389,5,0,0:0:0:0:
496,124,171585,2,0,P|456:124|420:140,1,80
456,48,171977,2,0,P|416:52|376:36,1,80
204,40,172369,2,0,P|244:36|284:52,1,80
104,52,172761,2,0,P|64:56|24:40,1,80
104,52,173153,5,0,0:0:0:0:
204,40,173349,1,0,0:0:0:0:
208,140,173545,1,0,0:0:0:0:
108,152,173742,1,0,0:0:0:0:
112,252,173938,1,0,0:0:0:0:
212,240,174134,1,0,0:0:0:0:
328,168,174330,1,0,0:0:0:0:
328,168,174526,6,0,B|320:196|352:217|337:244,1,79.9999952316285
412,168,174918,2,0,L|424:88,1,80
500,252,175310,2,0,L|416:240,1,80
348,92,175702,2,0,L|264:80,1,80
132,64,176095,5,0,0:0:0:0:
68,136,176291,1,0,0:0:0:0:
72,232,176487,2,0,P|112:300|192:312,1,160
164,224,177075,1,0,0:0:0:0:
164,224,177271,1,0,0:0:0:0:
250,152,177467,6,0,P|294:130|340:139,2,79.9999952316285
305,214,178055,1,0,0:0:0:0:
