osu file format v14

[General]
AudioFilename: hiHaxwell.mp3
AudioLeadIn: 0
PreviewTime: 151864
Countdown: 0
SampleSet: Soft
StackLeniency: 0.7
Mode: 0
LetterboxInBreaks: 0
WidescreenStoryboard: 1

[Editor]
Bookmarks: 3632,20774,34489,37060,37917,50132,50774,51632,65346,68774,82489,96203,98774,99632,112489,113346,127060,133917,140774,149346,151917,152774,165632,166489,180203,187060,190274,193917
DistanceSpacing: 1.2
BeatDivisor: 4
GridSize: 4
TimelineZoom: 1.4

[Metadata]
Title:Backseat Serenade
TitleUnicode:Backseat Serenade
Artist:All Time Low
ArtistUnicode:All Time Low
Creator:Squichu
Version:Hard
Source:
Tags:hopeless records dont panic its longer now pop punk squirrel
BeatmapID:1476898
BeatmapSetID:415339

[Difficulty]
HPDrainRate:6
CircleSize:4
OverallDifficulty:6
ApproachRate:7.5
SliderMultiplier:1.5
SliderTickRate:1

[Events]
//Background and Video events
0,0,"dontpanic.jpg",0,0
Video,0,"yay.flv"
//Break Periods
2,127260,133092
//Storyboard Layer 0 (Background)
//Storyboard Layer 1 (Fail)
//Storyboard Layer 2 (Pass)
//Storyboard Layer 3 (Foreground)
//Storyboard Sound Samples

[TimingPoints]
3632,428.571428571429,4,2,1,40,1,0
7489,-100,4,2,2,40,0,0
20774,-100,4,2,3,65,0,0
34489,-100,4,2,3,70,0,0
37060,-100,4,2,3,80,0,0
37917,-100,4,3,1,80,0,1
65346,-100,4,3,1,45,0,0
68774,-100,4,2,3,65,0,0
81632,-100,4,2,3,60,0,0
82489,-100,4,2,3,25,0,0
82917,-100,4,2,3,65,0,0
96203,-100,4,2,3,70,0,0
98774,-100,4,2,3,80,0,0
99632,-100,4,3,1,80,0,1
127060,-100,4,3,1,30,0,0
140774,-100,4,2,1,40,0,0
142489,-100,4,2,1,45,0,0
144203,-100,4,2,1,50,0,0
145917,-100,4,2,1,55,0,0
147632,-100,4,2,1,60,0,0
149346,-100,4,2,1,30,0,0
151917,-100,4,2,1,50,0,0
152774,-100,4,3,1,80,0,1
180203,-100,4,2,3,50,0,0
190489,-100,4,2,3,40,0,0
192203,-100,4,2,3,30,0,0
193917,-100,4,2,1,10,0,0

[Colours]
Combo1 : 176,98,94
Combo2 : 199,213,104
Combo3 : 106,174,146
Combo4 : 247,219,134

[HitObjects]
118,123,3632,6,0,L|112:207,1,75,2|0,0:0|0:0,0:0:0:0:
155,276,4060,1,8,0:0:0:0:
332,306,4489,1,2,0:0:0:0:
312,217,4703,2,0,P|251:256|244:328,1,150,0|0,0:0|0:0,0:0:0:0:
332,306,5346,6,0,L|408:303,1,75,2|0,0:0|0:0,0:0:0:0:
474,243,5774,1,8,0:0:0:0:
438,66,6203,1,2,0:0:0:0:
372,127,6417,2,0,B|324:121|324:121|272:136|272:136|224:131,1,150,0|0,0:0|0:0,0:0:0:0:
187,49,7060,6,0,L|269:58,1,75,2|0,0:0|0:0,0:0:0:0:
275,216,7489,2,0,L|200:207,1,75,8|0,0:0|0:0,0:0:0:0:
333,145,7917,2,0,P|365:215|322:293,1,150,2|8,0:0|0:0,0:0:0:0:
281,349,8560,6,0,P|249:279|292:201,1,150,2|0,0:0|0:0,0:0:0:0:
339,278,9203,1,8,0:0:0:0:
176,355,9632,1,2,0:0:0:0:
87,336,9846,1,8,0:0:0:0:
87,336,10060,1,8,0:0:0:0:
39,259,10274,6,0,B|53:214|53:214|47:182|47:182|55:112,1,150,0|0,0:0|0:0,0:0:0:0:
133,66,10917,1,8,0:0:0:0:
223,70,11132,2,0,B|204:230,1,150,0|0,0:0|0:0,0:0:0:0:
269,281,11774,1,8,0:0:0:0:
358,271,11989,6,0,B|340:122,1,150,0|0,0:0|0:0,0:0:0:0:
354,33,12632,1,8,0:0:0:0:
386,194,13060,1,2,0:0:0:0:
315,249,13274,1,8,0:0:0:0:
315,249,13489,1,8,0:0:0:0:
156,164,13917,6,0,P|154:89|149:14,1,150,2|8,0:0|0:0,0:0:0:0:
72,60,14560,2,0,P|68:134|66:209,1,150,0|0,0:0|0:0,0:0:0:0:
94,296,15203,1,8,0:0:0:0:
182,276,15417,6,0,P|138:217|65:209,1,150,0|0,0:0|0:0,0:0:0:0:
6,276,16060,2,0,L|8:350,2,75,8|0|2,0:0|0:0|0:0,0:0:0:0:
94,296,16703,1,8,0:0:0:0:
94,296,16917,1,8,0:0:0:0:
172,340,17132,6,0,B|218:333|218:333|246:345|246:345|319:343,1,150,0|0,0:0|0:0,0:0:0:0:
372,270,17774,1,8,0:0:0:0:
193,257,18203,2,0,L|273:244,1,75,2|0,0:0|0:0,0:0:0:0:
172,340,18632,2,0,L|92:327,1,75,8|0,0:0|0:0,0:0:0:0:
29,261,19060,6,0,P|22:213|25:171,1,75,2|0,0:0|0:0,0:0:0:0:
102,144,19489,2,0,P|109:96|106:54,1,75,8|0,0:0|0:0,0:0:0:0:
23,99,19917,1,2,0:0:0:0:
108,69,20132,1,0,0:0:0:0:
98,229,20346,1,12,0:0:0:0:
22,181,20561,1,0,0:0:0:0:
188,237,20774,6,0,P|178:273|154:301,1,75,2|0,0:0|0:0,0:0:0:0:
98,229,21203,1,8,0:0:0:0:
148,154,21417,1,0,0:0:0:0:
147,154,21632,2,0,P|220:148|272:199,1,150,2|8,0:0|0:0,0:0:0:0:
336,262,22274,6,0,P|408:267|461:216,1,150,0|0,0:0|0:0,0:0:0:0:
377,182,22917,1,8,0:0:0:0:
325,354,23346,1,2,0:0:0:0:
325,354,23560,1,0,0:0:0:0:
353,268,23774,1,8,0:0:0:0:
401,344,23989,6,0,L|231:337,1,150,0|0,0:0|0:0,0:0:0:0:
204,260,24632,1,8,0:0:0:0:
249,182,24846,1,0,0:0:0:0:
249,182,25060,2,0,P|248:136|246:99,1,75,2|0,0:0|0:0,0:0:0:0:
172,55,25489,1,8,0:0:0:0:
99,107,25703,1,0,0:0:0:0:
128,191,25917,6,0,P|89:195|53:184,1,75,2|0,0:0|0:0,0:0:0:0:
26,100,26346,2,0,P|65:96|101:107,1,75,8|0,0:0|0:0,0:0:0:0:
53,260,26774,2,0,P|54:214|56:177,1,75,2|0,0:0|0:0,0:0:0:0:
191,122,27203,1,12,0:0:0:0:
185,211,27417,1,0,0:0:0:0:
185,211,27632,6,0,P|243:209|264:212,2,75,2|0|8,0:0|0:0|0:0,0:0:0:0:
137,294,28274,2,0,L|289:288,1,150,0|0,0:0|0:0,0:0:0:0:
360,235,28917,1,8,0:0:0:0:
349,324,29132,6,0,P|286:287|271:216,1,150,2|0,0:0|0:0,0:0:0:0:
360,235,29774,2,0,L|440:238,1,75,8|0,0:0|0:0,0:0:0:0:
471,155,30203,1,2,0:0:0:0:
471,155,30417,1,0,0:0:0:0:
407,91,30632,2,0,L|332:88,1,75,8|0,0:0|0:0,0:0:0:0:
256,39,31060,6,0,L|181:41,1,75,2|0,0:0|0:0,0:0:0:0:
145,125,31489,2,0,L|219:122,1,75,8|0,0:0|0:0,0:0:0:0:
100,50,31917,2,0,P|69:84|61:115,1,75,2|0,0:0|0:0,0:0:0:0:
74,200,32346,1,8,0:0:0:0:
78,289,32560,6,0,P|27:301|0:297,2,75,0|2|0,0:0|0:0|0:0,0:0:0:0:
153,240,33203,2,0,P|190:238|225:249,1,75,8|0,0:0|0:0,0:0:0:0:
267,329,33632,1,2,0:0:0:0:
178,326,33846,1,0,0:0:0:0:
266,182,34060,1,8,0:0:0:0:
355,179,34274,1,0,0:0:0:0:
178,326,34489,6,0,L|103:329,2,75,6|0|8,0:0|0:0|0:0,0:0:0:0:
262,293,35132,1,0,0:0:0:0:
280,205,35346,2,0,L|205:202,1,75,2|0,0:0|0:0,0:0:0:0:
125,159,35774,1,8,0:0:0:0:
57,219,35989,1,0,0:0:0:0:
57,219,36096,1,0,0:0:0:0:
57,219,36203,5,6,0:0:0:0:
125,159,36417,1,0,0:0:0:0:
109,70,36632,1,8,0:0:0:0:
23,41,36846,1,6,0:0:0:0:
109,70,37060,1,2,0:0:0:0:
194,39,37275,1,0,0:0:0:0:
269,87,37489,2,0,L|272:138,3,37.5,8|0|0|0,0:0|0:0|0:0|0:0,0:0:0:0:
253,165,37917,5,6,0:0:0:0:
307,237,38132,1,0,0:0:0:0:
237,294,38346,2,0,B|181:278|181:278|152:251|152:251|89:252,1,150,8|2,0:0|0:0,0:0:0:0:
77,164,38989,1,0,0:0:0:0:
152,112,39203,1,8,0:0:0:0:
108,33,39417,6,0,P|180:25|234:74,1,150
318,34,40060,2,0,L|398:37,1,75,8|0,0:0|0:0,0:0:0:0:
435,116,40489,2,0,L|360:113,1,75,2|0,0:0|0:0,0:0:0:0:
316,191,40917,2,0,L|396:194,1,75,8|0,0:0|0:0,0:0:0:0:
481,194,41346,5,6,0:0:0:0:
435,116,41560,1,0,0:0:0:0:
390,193,41774,1,8,0:0:0:0:
421,277,41989,1,0,0:0:0:0:
356,338,42203,2,0,P|319:341|264:341,2,75,2|0|8,0:0|0:0|0:0,0:0:0:0:
317,256,42846,6,0,P|245:250|190:324,1,150,0|0,0:0|0:0,0:0:0:0:
120,355,43489,2,0,L|38:351,1,75,8|0,0:0|0:0,0:0:0:0:
19,265,43917,1,2,0:0:0:0:
25,220,44024,1,0,0:0:0:0:
57,188,44132,1,2,0:0:0:0:
104,264,44346,2,0,L|142:266,3,37.5,8|0|8|0,0:0|0:0|0:0|0:0,0:0:0:0:
183,250,44774,5,6,0:0:0:0:
220,167,44989,1,0,0:0:0:0:
224,77,45203,2,0,P|161:55|143:119,1,150,8|2,0:0|0:0,0:0:0:0:
220,167,45846,1,0,0:0:0:0:
175,247,46060,1,8,0:0:0:0:
175,247,46274,6,0,P|129:190|143:119,1,150,0|0,0:0|0:0,0:0:0:0:
294,169,46917,2,0,L|212:166,1,75,8|0,0:0|0:0,0:0:0:0:
161,332,47346,2,0,P|231:315|265:250,1,150,2|8,0:0|0:0,0:0:0:0:
175,247,47989,1,0,0:0:0:0:
316,348,48203,6,0,L|395:352,1,75,6|0,0:0|0:0,0:0:0:0:
472,264,48632,2,0,L|393:268,1,75,12|0,0:0|0:0,0:0:0:0:
319,172,49060,2,0,L|398:176,1,75,6|0,0:0|0:0,0:0:0:0:
475,88,49489,2,0,L|396:92,1,75,12|0,0:0|0:0,0:0:0:0:
321,48,49917,6,0,L|268:47,1,37.5,2|0,0:0|0:0,0:0:0:0:
248,76,50132,2,0,L|195:75,1,37.5,2|0,0:0|0:0,0:0:0:0:
175,46,50346,1,8,0:0:0:0:
86,62,50560,2,0,P|82:82|85:103,3,37.5,8|0|2|0,0:0|0:0|0:0|0:0,0:0:0:0:
105,138,50989,1,2,0:0:0:0:
162,206,51203,2,0,P|165:226|163:247,3,37.5,8|0|8|0,0:0|0:0|0:0|0:0,0:0:0:0:
140,282,51632,5,6,0:0:0:0:
50,275,51846,1,0,0:0:0:0:
5,196,52060,2,0,L|-4:346,1,150,8|2,0:0|0:0,0:0:0:0:
81,375,52703,1,0,0:0:0:0:
131,300,52917,1,8,0:0:0:0:
203,353,53132,6,0,B|254:342|297:365|363:348,1,150,0|0,0:0|0:0,0:0:0:0:
344,260,53774,2,0,P|305:263|249:264,1,75,8|0,0:0|0:0,0:0:0:0:
234,180,54203,2,0,P|270:179|309:182,1,75,2|0,0:0|0:0,0:0:0:0:
351,102,54632,2,0,P|293:95|267:97,1,75,8|0,0:0|0:0,0:0:0:0:
234,180,55060,5,6,0:0:0:0:
188,102,55274,1,0,0:0:0:0:
98,117,55489,1,8,0:0:0:0:
87,206,55703,1,0,0:0:0:0:
11,156,55917,2,0,L|11:77,1,75,2|0,0:0|0:0,0:0:0:0:
89,36,56346,1,8,0:0:0:0:
89,36,56560,6,0,L|86:197,1,150,0|0,0:0|0:0,0:0:0:0:
167,145,57203,2,0,L|167:66,1,75,8|0,0:0|0:0,0:0:0:0:
242,19,57632,1,2,0:0:0:0:
285,30,57739,1,0,0:0:0:0:
314,63,57846,1,2,0:0:0:0:
380,123,58060,2,0,L|417:116,3,37.5,8|0|8|0,0:0|0:0|0:0|0:0,0:0:0:0:
462,117,58489,5,6,0:0:0:0:
495,200,58703,1,0,0:0:0:0:
447,276,58917,2,0,L|297:259,1,150,8|2,0:0|0:0,0:0:0:0:
268,174,59560,1,0,0:0:0:0:
356,191,59774,1,8,0:0:0:0:
297,259,59989,6,0,B|249:256|201:280|146:274,1,150,0|0,0:0|0:0,0:0:0:0:
225,188,60632,2,0,P|171:201|125:192,1,75,8|0,0:0|0:0,0:0:0:0:
180,39,61060,2,0,P|203:112|137:112,1,150,2|8,0:0|0:0,0:0:0:0:
89,55,61703,1,0,0:0:0:0:
48,71,61810,1,0,0:0:0:0:
10,92,61917,6,0,L|6:169,1,75,6|0,0:0|0:0,0:0:0:0:
92,256,62346,2,0,L|88:181,1,75,12|0,0:0|0:0,0:0:0:0:
177,94,62774,2,0,L|173:171,1,75,6|0,0:0|0:0,0:0:0:0:
259,258,63203,2,0,L|255:183,1,75,12|0,0:0|0:0,0:0:0:0:
335,50,63632,6,0,L|331:127,2,75,6|0|8,0:0|0:0|0:0,0:0:0:0:
255,183,64274,2,0,L|259:260,2,75,6|2|0,0:0|0:0|0:0,0:0:0:0:
126,102,64917,2,0,L|86:106,1,37.5,8|0,0:0|0:0,0:0:0:0:
105,148,65132,2,0,L|65:152,1,37.5,0|0,0:0|0:0,0:0:0:0:
46,192,65346,6,0,P|46:229|60:263,2,75,6|0|8,0:0|0:0|0:0,0:0:0:0:
134,213,65989,1,0,0:0:0:0:
208,263,66203,2,0,P|222:228|222:191,1,75,2|0,0:0|0:0,0:0:0:0:
187,54,66846,1,0,0:0:0:0:
187,54,66953,1,0,0:0:0:0:
187,54,67060,5,6,0:0:0:0:
276,47,67274,1,0,0:0:0:0:
365,38,67489,1,8,0:0:0:0:
425,104,67703,2,0,L|516:113,2,75,0|2|0,0:0|0:0|0:0,0:0:0:0:
385,185,68346,2,0,L|332:191,3,37.5,8|0|8|0,0:0|0:0|0:0|0:0,0:0:0:0:
323,226,68774,5,6,0:0:0:0:
453,350,69203,2,0,P|457:311|453:268,1,75,8|0,0:0|0:0,0:0:0:0:
369,304,69632,2,0,P|366:341|370:378,2,75,2|0|8,0:0|0:0|0:0,0:0:0:0:
323,225,70274,6,0,P|290:293|288:367,1,150,0|0,0:0|0:0,0:0:0:0:
198,373,70917,1,8,0:0:0:0:
131,311,71132,2,0,L|25:310,2,75,0|2|0,0:0|0:0|0:0,0:0:0:0:
208,265,71774,1,8,0:0:0:0:
257,189,71989,6,0,P|185:177|128:222,1,150,0|0,0:0|0:0,0:0:0:0:
208,265,72632,1,8,0:0:0:0:
297,265,72846,2,0,L|295:98,1,150,0|0,0:0|0:0,0:0:0:0:
363,56,73489,1,8,0:0:0:0:
451,72,73703,6,0,B|449:145|449:145|457:169|457:169|455:227,1,150,0|0,0:0|0:0,0:0:0:0:
371,254,74346,2,0,L|374:176,1,75,8|0,0:0|0:0,0:0:0:0:
455,221,74774,1,2,0:0:0:0:
476,308,74989,1,8,0:0:0:0:
350,341,75203,1,12,0:0:0:0:
371,254,75418,1,0,0:0:0:0:
424,369,75632,6,0,L|274:365,1,150,2|8,0:0|0:0,0:0:0:0:
221,250,76274,2,0,L|371:254,1,150,0|0,0:0|0:0,0:0:0:0:
186,336,76917,1,8,0:0:0:0:
186,336,77132,6,0,P|135:283|138:210,1,150,0|0,0:0|0:0,0:0:0:0:
221,250,77774,1,8,0:0:0:0:
263,329,77989,2,0,P|306:269|292:197,1,150,0|0,0:0|0:0,0:0:0:0:
216,151,78632,1,8,0:0:0:0:
243,65,78846,6,0,L|392:60,1,150,0|0,0:0|0:0,0:0:0:0:
466,112,79488,1,8,0:0:0:0:
466,112,79703,1,0,0:0:0:0:
427,193,79917,2,0,P|398:170|379:137,1,75,2|0,0:0|0:0,0:0:0:0:
509,214,80346,2,0,P|490:246|461:269,1,75,8|0,0:0|0:0,0:0:0:0:
377,341,80774,6,0,L|379:257,1,75,2|0,0:0|0:0,0:0:0:0:
293,235,81203,2,0,L|291:309,1,75,8|0,0:0|0:0,0:0:0:0:
363,184,81631,1,6,0:0:0:0:
291,309,81846,1,0,0:0:0:0:
317,114,82060,1,12,0:0:0:0:
377,341,82275,1,0,0:0:0:0:
282,287,82917,6,0,P|235:276|196:286,1,75,12|0,0:0|0:0,0:0:0:0:
143,342,83346,2,0,L|53:337,1,75,2|0,0:0|0:0,0:0:0:0:
12,267,83774,1,8,0:0:0:0:
67,337,83989,6,0,P|101:272|74:204,1,150,0|0,0:0|0:0,0:0:0:0:
12,138,84632,2,0,P|6:91|27:54,1,75,8|0,0:0|0:0,0:0:0:0:
96,108,85061,1,2,0:0:0:0:
96,108,85275,1,0,0:0:0:0:
163,49,85489,1,8,0:0:0:0:
197,132,85704,6,0,P|248:80|243:7,1,150,0|0,0:0|0:0,0:0:0:0:
163,49,86347,1,8,0:0:0:0:
107,119,86560,2,0,P|110:166|134:201,2,75,0|2|0,0:0|0:0|0:0,0:0:0:0:
197,132,87204,1,8,0:0:0:0:
208,220,87417,6,0,L|47:229,1,150,0|0,0:0|0:0,0:0:0:0:
112,300,88060,2,0,L|186:296,1,75,8|0,0:0|0:0,0:0:0:0:
282,223,88489,2,0,L|207:219,1,75,2|0,0:0|0:0,0:0:0:0:
193,376,88918,1,12,0:0:0:0:
279,352,89132,1,0,0:0:0:0:
279,352,89346,6,0,L|276:261,2,75,2|0|8,0:0|0:0|0:0,0:0:0:0:
368,361,89989,2,0,P|440:355|485:297,1,150,0|0,0:0|0:0,0:0:0:0:
397,273,90632,1,8,0:0:0:0:
415,183,90846,6,0,P|474:224|484:296,1,150,0|0,0:0|0:0,0:0:0:0:
397,273,91489,2,0,L|322:269,1,75,8|0,0:0|0:0,0:0:0:0:
260,203,91918,1,2,0:0:0:0:
260,203,92132,1,0,0:0:0:0:
176,237,92346,1,8,0:0:0:0:
176,237,92560,6,0,P|174:297|177:326,2,75,0|2|0,0:0|0:0|0:0,0:0:0:0:
260,203,93203,2,0,P|261:165|259:128,1,75,8|0,0:0|0:0,0:0:0:0:
182,80,93632,2,0,P|180:140|183:169,1,75,2|0,0:0|0:0,0:0:0:0:
260,203,94061,1,8,0:0:0:0:
335,154,94274,6,0,L|417:157,2,75,0|2|0,0:0|0:0|0:0,0:0:0:0:
260,203,94917,2,0,L|178:206,1,75,8|0,0:0|0:0,0:0:0:0:
102,168,95347,1,2,0:0:0:0:
175,115,95561,1,0,0:0:0:0:
185,205,95775,1,8,0:0:0:0:
112,257,95989,1,0,0:0:0:0:
28,220,96203,6,0,P|13:187|13:149,2,75,6|0|8,0:0|0:0|0:0,0:0:0:0:
112,257,96846,1,6,0:0:0:0:
107,346,97060,2,0,L|18:353,1,75,2|0,0:0|0:0,0:0:0:0:
112,257,97489,1,8,0:0:0:0:
201,247,97703,1,0,0:0:0:0:
243,260,97810,1,0,0:0:0:0:
285,274,97917,6,0,L|341:269,4,37.5,6|0|2|0|8,0:0|0:0|0:0|0:0|0:0,0:0:0:0:
307,186,98560,2,0,L|363:181,5,37.5,0|0|2|0|2|0,0:0|0:0|0:0|0:0|0:0|0:0,0:0:0:0:
322,143,99203,2,0,L|378:138,1,37.5,8|0,0:0|0:0,0:0:0:0:
386,103,99417,2,0,L|423:106,1,37.5,0|0,0:0|0:0,0:0:0:0:
463,127,99632,5,6,0:0:0:0:
502,207,99846,1,0,0:0:0:0:
449,279,100060,2,0,P|386:256|413:195,1,150,8|2,0:0|0:0,0:0:0:0:
502,207,100703,1,8,0:0:0:0:
463,127,100917,1,8,0:0:0:0:
488,40,101132,6,0,B|439:30|398:56|335:42,1,150,0|0,0:0|0:0,0:0:0:0:
308,127,101774,2,0,P|344:122|388:125,1,75,8|0,0:0|0:0,0:0:0:0:
345,205,102203,2,0,P|347:243|353:283,1,75,2|0,0:0|0:0,0:0:0:0:
435,319,102632,2,0,P|436:270|435:233,1,75,8|0,0:0|0:0,0:0:0:0:
352,279,103060,5,6,0:0:0:0:
360,369,103274,1,0,0:0:0:0:
435,319,103488,1,8,0:0:0:0:
352,279,103703,1,0,0:0:0:0:
278,330,103917,2,0,L|195:337,2,75,2|0|8,0:0|0:0|0:0,0:0:0:0:
240,248,104560,6,0,B|162:254|162:254|82:233,1,150,0|0,0:0|0:0,0:0:0:0:
76,146,105203,2,0,L|154:167,1,75,8|0,0:0|0:0,0:0:0:0:
216,105,105632,1,2,0:0:0:0:
172,92,105739,1,0,0:0:0:0:
129,79,105846,1,2,0:0:0:0:
189,12,106060,2,0,L|231:11,3,37.5,8|0|8|0,0:0|0:0|0:0|0:0,0:0:0:0:
270,23,106489,5,6,0:0:0:0:
305,106,106703,1,0,0:0:0:0:
257,184,106917,2,0,P|193:167|215:104,1,150,8|2,0:0|0:0,0:0:0:0:
305,106,107560,1,0,0:0:0:0:
348,184,107774,1,8,0:0:0:0:
348,184,107988,6,0,P|321:251|252:274,1,150,0|0,0:0|0:0,0:0:0:0:
182,175,108631,2,0,L|257:183,1,75,8|0,0:0|0:0,0:0:0:0:
187,84,109060,2,0,P|117:106|91:174,1,150,2|8,0:0|0:0,0:0:0:0:
182,175,109703,1,0,0:0:0:0:
187,84,109917,6,0,L|112:75,1,75,6|0,0:0|0:0,0:0:0:0:
16,182,110346,2,0,L|90:173,1,75,12|0,0:0|0:0,0:0:0:0:
196,262,110774,2,0,L|121:253,1,75,6|0,0:0|0:0,0:0:0:0:
31,355,111203,2,0,L|105:346,1,75,12|0,0:0|0:0,0:0:0:0:
195,345,111631,6,0,P|221:346|252:352,1,37.5,6|0,0:0|0:0,0:0:0:0:
276,359,111846,2,0,P|302:358|333:352,1,37.5,2|0,0:0|0:0,0:0:0:0:
346,326,112060,1,8,0:0:0:0:
299,249,112274,2,0,L|293:210,3,37.5,8|0|2|0,0:0|0:0|0:0|0:0,0:0:0:0:
319,174,112703,1,2,0:0:0:0:
362,95,112917,2,0,L|356:57,3,37.5,8|0|8|0,0:0|0:0|0:0|0:0,0:0:0:0:
317,33,113347,5,6,0:0:0:0:
227,32,113561,1,0,0:0:0:0:
176,105,113774,2,0,L|186:264,1,150,8|2,0:0|0:0,0:0:0:0:
95,263,114417,1,0,0:0:0:0:
29,201,114631,1,8,0:0:0:0:
25,290,114846,6,0,P|93:263|119:195,1,150,0|0,0:0|0:0,0:0:0:0:
105,106,115488,2,0,P|95:66|101:29,1,75,8|0,0:0|0:0,0:0:0:0:
258,69,115917,2,0,L|183:67,1,75,2|0,0:0|0:0,0:0:0:0:
337,24,116346,2,0,L|412:22,1,75,8|0,0:0|0:0,0:0:0:0:
487,71,116774,5,6,0:0:0:0:
413,20,116988,1,0,0:0:0:0:
366,97,117203,1,8,0:0:0:0:
438,147,117417,1,0,0:0:0:0:
380,215,117631,2,0,P|334:211|306:200,1,75,2|0,0:0|0:0,0:0:0:0:
255,126,118060,1,8,0:0:0:0:
255,126,118274,6,0,P|278:197|263:270,1,150
190,322,118917,2,0,L|97:315,1,75,8|0,0:0|0:0,0:0:0:0:
89,229,119346,1,2,0:0:0:0:
133,233,119453,1,0,0:0:0:0:
177,237,119560,1,2,0:0:0:0:
157,149,119774,2,0,L|107:145,3,37.5,8|0|8|0,0:0|0:0|0:0|0:0,0:0:0:0:
82,120,120203,5,6,0:0:0:0:
136,48,120417,1,0,0:0:0:0:
46,38,120632,2,0,L|30:193,1,150,8|2,0:0|0:0,0:0:0:0:
69,268,121274,1,0,0:0:0:0:
147,223,121488,1,8,0:0:0:0:
237,218,121703,6,0,P|214:287|147:313,1,150,0|0,0:0|0:0,0:0:0:0:
145,148,122346,2,0,L|147:223,1,75,8|0,3:0|3:0,0:0:0:0:
72,349,122774,2,0,L|64:199,1,150,2|8,0:0|0:0,0:0:0:0:
127,133,123417,1,0,0:0:0:0:
204,178,123631,6,0,L|199:252,1,75,6|0,0:0|0:0,0:0:0:0:
280,364,124060,2,0,L|275:289,1,75,12|0,0:0|0:0,0:0:0:0:
353,174,124489,2,0,L|348:248,1,75,6|0,0:0|0:0,0:0:0:0:
429,360,124918,2,0,L|424:285,1,75,12|0,0:0|0:0,0:0:0:0:
275,289,125346,6,0,L|270:363,2,75,6|0|8,0:0|0:0|0:0,0:0:0:0:
420,210,125989,2,0,L|424:284,2,75,6|2|0,0:0|0:0|0:0,0:0:0:0:
339,169,126631,2,0,P|337:143|340:120,1,37.5,8|0,0:0|0:0,0:0:0:0:
379,111,126846,2,0,P|380:85|378:62,1,37.5,8|0,0:0|0:0,0:0:0:0:
349,40,127060,5,4,0:2:0:0:
256,85,133917,5,6,0:0:0:0:
193,253,134346,1,8,0:0:0:0:
172,165,134560,1,0,0:0:0:0:
172,165,134774,1,2,0:0:0:0:
289,301,135203,1,8,0:0:0:0:
256,123,135632,5,6,0:0:0:0:
426,177,136060,1,8,0:0:0:0:
357,118,136274,1,0,0:0:0:0:
357,118,136489,1,2,0:0:0:0:
386,295,136917,1,8,0:0:0:0:
256,169,137346,5,6,0:0:0:0:
86,228,137774,1,8,0:0:0:0:
170,259,137989,1,0,0:0:0:0:
170,259,138203,1,2,0:0:0:0:
122,85,138632,1,8,0:0:0:0:
256,203,139060,5,6,0:0:0:0:
169,360,139489,1,8,0:0:0:0:
149,272,139703,1,0,0:0:0:0:
149,272,139917,1,2,0:0:0:0:
309,354,140346,2,0,L|347:357,1,37.5,8|0,0:0|0:0,0:0:0:0:
374,321,140560,2,0,L|412:324,1,37.5,8|0,0:0|0:0,0:0:0:0:
437,287,140774,6,0,P|444:246|436:203,1,75,6|0,0:0|0:0,0:0:0:0:
479,132,141203,2,0,P|438:124|395:133,1,75,2|0,0:0|0:0,0:0:0:0:
325,87,141632,2,0,P|317:127|326:171,1,75,2|0,0:0|0:0,0:0:0:0:
283,242,142061,2,0,P|323:249|367:241,1,75,2|0,0:0|0:0,0:0:0:0:
325,87,142489,5,12,0:0:0:0:
244,47,142917,1,8,0:0:0:0:
175,105,143346,1,8,0:0:0:0:
96,60,143774,1,8,0:0:0:0:
34,125,144203,6,0,P|26:160|30:204,1,75,6|0,0:0|0:0,0:0:0:0:
86,268,144632,2,0,P|121:276|165:272,1,75,2|0,0:0|0:0,0:0:0:0:
229,216,145060,2,0,P|237:181|233:137,1,75,2|0,0:0|0:0,0:0:0:0:
177,73,145489,2,0,P|142:65|98:69,1,75,2|0,0:0|0:0,0:0:0:0:
137,225,145917,6,0,L|133:150,1,75,6|0,0:0|0:0,0:0:0:0:
223,73,146346,2,0,L|297:69,1,75,2|0,0:0|0:0,0:0:0:0:
375,159,146774,2,0,L|378:233,1,75,2|0,0:0|0:0,0:0:0:0:
289,311,147203,2,0,L|214:314,1,75,2|0,0:0|0:0,0:0:0:0:
218,104,147632,5,12,0:0:0:0:
166,248,147846,1,0,0:0:0:0:
125,55,148060,1,8,0:0:0:0:
159,221,148274,1,0,0:0:0:0:
243,88,148489,1,8,0:0:0:0:
296,160,148703,1,0,0:0:0:0:
340,170,148810,1,0,0:0:0:0:
384,180,148917,2,0,L|435:173,3,37.5,8|0|8|0,0:0|0:0|0:0|0:0,0:0:0:0:
457,203,149346,5,0,0:0:0:0:
457,203,151917,5,2,0:0:0:0:
457,203,152346,1,0,0:0:0:0:
457,203,152774,5,6,0:0:0:0:
397,270,152989,1,0,0:0:0:0:
307,266,153203,2,0,P|290:200|356:189,1,150,8|2,0:0|0:0,0:0:0:0:
397,270,153846,1,0,0:0:0:0:
350,346,154060,1,8,0:0:0:0:
260,347,154274,6,0,B|212:341|212:341|185:355|185:355|105:353,1,150,0|0,0:0|0:0,0:0:0:0:
78,270,154917,2,0,L|158:272,1,75,8|0,0:0|0:0,0:0:0:0:
112,190,155346,2,0,P|76:184|37:184,1,75,2|0,0:0|0:0,0:0:0:0:
79,104,155774,2,0,P|116:104|153:98,1,75,8|0,0:0|0:0,0:0:0:0:
220,37,156203,5,6,0:0:0:0:
134,9,156417,1,0,0:0:0:0:
153,98,156631,1,8,0:0:0:0:
238,126,156846,1,0,0:0:0:0:
310,72,157060,2,0,P|323:106|325:143,2,75,2|0|8,0:0|0:0|0:0,0:0:0:0:
382,17,157703,6,0,P|395:83|406:181,1,150,0|0,0:0|0:0,0:0:0:0:
486,204,158346,2,0,P|484:166|486:129,1,75,8|0,0:0|0:0,0:0:0:0:
468,40,158775,1,2,0:0:0:0:
427,20,158882,1,0,0:0:0:0:
382,17,158989,1,2,0:0:0:0:
312,73,159203,2,0,L|306:110,3,37.5,8|0|8|0,0:0|0:0|0:0|0:0,0:0:0:0:
318,153,159632,5,6,0:0:0:0:
274,231,159846,1,0,0:0:0:0:
184,227,160060,2,0,P|160:289|225:307,1,150,8|2,0:0|0:0,0:0:0:0:
274,231,160703,1,0,0:0:0:0:
325,304,160917,1,8,0:0:0:0:
408,268,161132,6,0,B|404:220|404:220|420:173|420:173|423:114,1,150,0|0,0:0|0:0,0:0:0:0:
489,238,161774,2,0,L|495:325,1,75,8|0,0:0|0:0,0:0:0:0:
331,317,162203,2,0,B|326:207|326:207|341:160,1,150,2|8,0:0|0:0,0:0:0:0:
423,139,162846,1,0,0:0:0:0:
405,227,163060,6,0,L|411:314,1,75,6|0,0:0|0:0,0:0:0:0:
306,354,163489,2,0,L|311:279,1,75,12|0,0:0|0:0,0:0:0:0:
218,212,163917,2,0,L|224:299,1,75,6|0,0:0|0:0,0:0:0:0:
119,339,164346,2,0,L|124:264,1,75,12|0,0:0|0:0,0:0:0:0:
56,204,164774,6,0,L|51:166,1,37.5,6|0,0:0|0:0,0:0:0:0:
23,131,164989,2,0,L|27:93,1,37.5,2|0,0:0|0:0,0:0:0:0:
56,59,165203,1,8,0:0:0:0:
140,27,165417,1,0,0:0:0:0:
222,63,165632,1,2,0:0:0:0:
222,63,165846,1,2,0:0:0:0:
244,150,166060,2,0,L|203:153,3,37.5,8|0|8|0,0:0|0:0|0:0|0:0,0:0:0:0:
175,185,166490,5,6,0:0:0:0:
191,273,166704,1,6,0:0:0:0:
277,296,166917,1,6,0:0:0:0:
357,134,167346,1,2,0:0:0:0:
361,223,167560,1,0,0:0:0:0:
365,312,167774,1,8,0:0:0:0:
454,315,167989,6,0,P|429:247|361:223,1,150,0|0,0:0|0:0,0:0:0:0:
292,281,168632,2,0,P|252:292|213:286,1,75,8|0,0:0|0:0,0:0:0:0:
161,219,169060,2,0,L|169:131,1,75,2|0,0:0|0:0,0:0:0:0:
257,129,169489,2,0,L|250:203,1,75,8|0,0:0|0:0,0:0:0:0:
219,288,169917,5,6,0:0:0:0:
161,219,170131,1,0,0:0:0:0:
250,203,170346,1,8,0:0:0:0:
308,271,170560,1,0,0:0:0:0:
284,357,170774,2,0,L|184:361,1,75,2|0,0:0|0:0,0:0:0:0:
130,315,171203,1,8,0:0:0:0:
172,235,171417,6,0,B|162:175|162:175|170:147|170:147|172:74,1,150,0|0,0:0|0:0,0:0:0:0:
89,49,172060,2,0,L|90:124,1,75,8|0,0:0|0:0,0:0:0:0:
41,200,172489,1,2,0:0:0:0:
54,242,172596,1,0,0:0:0:0:
92,264,172703,1,2,0:0:0:0:
176,295,172917,2,0,L|171:337,3,37.5,8|0|8|0,0:0|0:0|0:0|0:0,0:0:0:0:
206,360,173346,5,2,0:0:0:0:
295,356,173560,1,2,0:0:0:0:
357,291,173774,2,0,L|347:141,1,150,12|2,0:0|0:0,0:0:0:0:
395,64,174417,1,0,0:0:0:0:
463,121,174631,1,8,0:0:0:0:
394,63,174846,6,0,P|322:54|266:100,1,150,0|0,0:0|0:0,0:0:0:0:
361,210,175489,2,0,P|362:173|346:140,1,75,8|0,0:0|0:0,0:0:0:0:
177,103,175917,2,0,P|206:169|276:189,1,150,2|8,0:0|0:0,0:0:0:0:
266,100,176560,1,0,0:0:0:0:
219,22,176774,6,0,L|115:30,1,75,6|0,0:0|0:0,0:0:0:0:
48,107,177203,2,0,L|122:112,1,75,12|0,0:0|0:0,0:0:0:0:
226,187,177632,2,0,L|122:195,1,75,6|0,0:0|0:0,0:0:0:0:
55,272,178061,2,0,L|129:277,1,75,12|0,0:0|0:0,0:0:0:0:
122,112,178489,6,0,L|18:120,2,75,6|0|8,0:0|0:0|0:0,0:0:0:0:
261,45,179132,2,0,L|186:39,2,75,6|2|0,0:0|0:0|0:0,0:0:0:0:
342,82,179774,2,0,P|345:106|348:137,1,37.5,8|0,0:0|0:0,0:0:0:0:
309,145,179989,2,0,P|305:169|303:200,1,37.5,8|0,0:0|0:0,0:0:0:0:
325,221,180203,6,0,L|410:221,1,75,6|0,0:0|0:0,0:0:0:0:
477,267,180632,1,8,0:0:0:0:
322,358,181060,2,0,L|247:358,1,75,2|0,0:0|0:0,0:0:0:0:
191,286,181489,1,8,0:0:0:0:
244,214,181703,1,0,0:0:0:0:
244,214,182132,5,0,0:0:0:0:
191,286,182346,1,8,0:0:0:0:
26,214,182774,1,2,0:0:0:0:
71,291,182989,2,0,L|67:370,2,75,0|8|0,0:0|0:0|0:0,0:0:0:0:
26,214,183632,6,0,P|20:161|31:124,1,75,6|0,0:0|0:0,0:0:0:0:
97,88,184060,1,8,0:0:0:0:
97,88,184274,1,0,0:0:0:0:
174,134,184489,2,0,L|254:134,1,75,2|0,0:0|0:0,0:0:0:0:
327,90,184917,1,8,0:0:0:0:
326,89,185132,6,0,P|335:162|285:215,1,150,0|0,0:0|0:0,0:0:0:0:
249,134,185774,1,8,0:0:0:0:
130,199,186096,1,0,0:0:0:0:
130,199,186203,2,0,L|128:279,1,75,2|0,0:0|0:0,0:0:0:0:
51,225,186632,2,0,L|52:182,3,37.5,8|0|8|0,0:0|0:0|0:0|0:0,0:0:0:0:
66,144,187060,6,0,P|102:119|151:118,1,75,6|0,0:0|0:0,0:0:0:0:
208,162,187489,1,8,0:0:0:0:
266,332,187917,2,0,P|302:357|351:358,1,75,2|0,0:0|0:0,0:0:0:0:
334,270,188346,1,8,0:0:0:0:
417,237,188560,1,0,0:0:0:0:
417,237,188989,5,0,0:0:0:0:
334,270,189203,1,8,0:0:0:0:
106,220,189632,1,2,0:0:0:0:
189,187,189846,1,0,0:0:0:0:
118,319,190060,1,8,0:0:0:0:
118,123,190274,1,4,0:0:0:0:
256,192,190489,12,0,193917,0:0:0:0:
