osu file format v14

[General]
AudioFilename: audio.mp3
AudioLeadIn: 0
PreviewTime: 90685
Countdown: 0
SampleSet: Soft
StackLeniency: 0.7
Mode: 0
LetterboxInBreaks: 0
WidescreenStoryboard: 1

[Editor]
Bookmarks: 12685,23979,35273,46567,57861,69155,80449,91743,103038,114332,125626,136920,148214,159508,170802,182096,193390,204685,215979,227273,238567,249861
DistanceSpacing: 1.56
BeatDivisor: 4
GridSize: 32
TimelineZoom: 1.4

[Metadata]
Title:Your Voice
TitleUnicode:Your Voice
Artist:Alkome
ArtistUnicode:Alkome
Creator:Hinsvar
Version:Normal
Source:
Tags:Electronic English Happy UK Hardcore UKHC Dive/Art:City 2019 rayshock.net Featured Artist FA Mappers' Guild MG MPG
BeatmapID:4515406
BeatmapSetID:2143876

[Difficulty]
HPDrainRate:3
CircleSize:2.7
OverallDifficulty:4.5
ApproachRate:5.4
SliderMultiplier:1.12
SliderTickRate:1

[Events]
//Background and Video events
0,0,"BG.jpg",0,0
//Break Periods
2,27002,34134
2,128649,135781
2,165355,169663
2,233120,237428
//Storyboard Layer 0 (Background)
//Storyboard Layer 1 (Fail)
//Storyboard Layer 2 (Pass)
//Storyboard Layer 3 (Foreground)
//Storyboard Layer 4 (Overlay)
//Storyboard Sound Samples

[TimingPoints]
1391,352.941176470588,4,2,1,70,1,0
18332,-100,4,2,1,60,0,0
19743,-100,4,2,1,65,0,0
21155,-100,4,2,1,70,0,0
35273,-125,4,2,1,50,0,0
46567,-125,4,2,1,55,0,0
57861,-111.111111111111,4,2,1,60,0,0
69155,-100,4,2,1,70,0,0
80449,-125,4,2,1,70,0,0
86096,-111.111111111111,4,2,1,70,0,0
88920,-100,4,2,1,70,0,0
91743,-90.9090909090909,4,2,1,75,0,1
103038,-90.9090909090909,4,2,2,80,0,1
114332,-100,4,2,2,80,0,0
136920,-125,4,2,1,50,0,0
148214,-125,4,2,1,55,0,0
159508,-111.111111111111,4,2,1,60,0,0
170802,-100,4,2,1,70,0,0
182096,-125,4,2,1,70,0,0
187743,-111.111111111111,4,2,1,70,0,0
190567,-100,4,2,1,70,0,0
193390,-90.9090909090909,4,2,1,80,0,1
204685,-90.9090909090909,4,2,2,80,0,1
215979,-100,4,2,2,70,0,0
238567,-100,4,2,1,70,0,0
244214,-100,4,2,1,60,0,0
245626,-100,4,2,1,65,0,0
247038,-100,4,2,1,70,0,0

[Colours]
Combo1 : 218,171,233
Combo2 : 107,239,226
Combo3 : 238,115,155
Combo4 : 87,153,234

[HitObjects]
313,378,12685,6,0,L|434:373,1,112,10|8,0:0|0:0,0:0:0:0:
511,301,13390,2,0,L|506:180,1,112,8|8,0:0|0:0,0:0:0:0:
434,103,14096,2,0,L|313:108,1,112,8|8,0:0|0:0,0:0:0:0:
236,180,14802,2,0,L|241:301,1,112,10|8,0:0|0:0,0:0:0:0:
154,363,15508,5,10,0:0:0:0:
49,325,15861,1,8,0:0:0:0:
29,215,16214,1,8,0:0:0:0:
114,142,16567,2,0,L|168:161,1,56,8|0,0:0|3:0,0:0:0:0:
219,179,16920,1,8,0:0:0:0:
257,284,17273,1,8,0:0:0:0:
367,304,17626,1,10,0:0:0:0:
440,219,17979,2,0,L|421:165,1,56,8|0,0:0|3:0,0:0:0:0:
403,114,18332,6,0,P|414:66|379:18,1,112,10|8,0:0|0:0,0:0:0:0:
267,32,19038,2,0,P|219:21|171:56,1,112,8|8,0:0|0:0,0:0:0:0:
185,168,19743,2,0,P|174:216|209:264,1,112,8|8,0:0|0:0,0:0:0:0:
321,250,20449,2,0,P|369:261|417:226,1,112,10|8,0:0|0:0,0:0:0:0:
494,306,21155,6,0,L|486:368,1,56,10|0,0:0|3:0,0:0:0:0:
430,364,21508,2,0,L|368:356,1,56,8|0,0:0|3:0,0:0:0:0:
318,353,21861,2,0,L|194:369,1,112,8|8,0:0|0:0,0:0:0:0:
209,310,22390,1,0,3:0:0:0:
209,310,22567,5,4,3:2:0:0:
303,74,23979,1,2,3:2:0:0:
256,192,24155,12,0,26802,0:0:0:0:
256,192,35273,5,0,3:0:0:0:
119,369,35979,2,0,P|74:365|33:331,1,89.6,2|0,0:0|0:0,0:0:0:0:
25,228,36685,2,0,P|32:138|101:56,1,179.2,2|2,0:0|0:0,0:0:0:0:
304,31,38096,6,0,B|349:12|365:36|365:43|382:67|443:36,2,134.4,2|2|0,0:0|0:0|0:0,0:0:0:0:
206,86,39508,2,0,B|231:145|199:167|190:167|158:189|199:270,1,179.2,2|2,0:0|0:0,0:0:0:0:
389,358,40920,6,0,P|467:325|485:233,1,179.2,2|0,0:0|0:0,0:0:0:0:
478,127,41979,1,2,0:0:0:0:
378,78,42332,2,0,P|300:111|282:203,1,179.2,2|2,0:0|0:0,0:0:0:0:
138,370,43743,5,2,0:0:0:0:
42,310,44096,2,0,P|31:222|33:129,1,179.2,2|0,0:0|0:0,0:0:0:0:
92,35,45155,2,0,P|180:24|273:26,1,179.2,2|2,0:0|0:0,0:0:0:0:
465,57,46567,5,8,0:3:0:0:
491,165,46920,2,0,L|480:214,1,44.8,2|8,0:0|0:3,0:0:0:0:
430,232,47273,2,0,L|342:212,1,89.6,2|8,0:0|0:3,0:0:0:0:
250,148,47979,2,0,L|238:98,2,44.8,2|8|8,0:0|0:3|0:3,0:0:0:0:
165,220,48685,1,2,0:0:0:0:
197,326,49038,1,8,0:3:0:0:
308,329,49390,5,2,0:0:0:0:
342,212,49743,2,0,P|367:209|392:219,1,44.8,8|2,0:3|0:0,0:0:0:0:
441,220,50096,2,0,P|444:245|434:270,2,44.8,2|8|8,0:0|0:3|0:3,0:0:0:0:
433,107,50802,2,0,P|426:85|430:63,2,44.8,2|8|8,0:0|0:3|0:3,0:0:0:0:
320,100,51508,1,2,0:0:0:0:
258,195,51861,1,8,0:3:0:0:
145,189,52214,6,0,P|103:198|58:168,1,89.6,2|8,0:0|0:3,0:0:0:0:
35,127,52743,2,0,P|54:65|127:29,1,134.4,8|8,0:3|0:3,0:0:0:0:
205,94,53626,1,2,0:0:0:0:
315,109,53979,2,0,L|321:62,2,44.8,8|8|2,0:3|0:3|0:0,0:0:0:0:
300,219,54685,1,8,0:3:0:0:
190,204,55038,6,0,B|142:203|132:229|136:228|123:264|64:261,2,134.4,2|8|8,0:0|0:3|0:3,0:0:0:0:
229,308,56449,1,0,3:0:0:0:
283,76,57861,5,2,3:2:0:0:
380,22,58214,2,0,P|425:12|489:36,1,100.799996923828,2|0,0:0|0:0,0:0:0:0:
484,81,58743,2,0,P|494:126|470:190,1,100.799996923828,2|0,0:0|0:0,0:0:0:0:
425,185,59273,1,2,0:0:0:0:
249,209,59802,1,2,0:0:0:0:
249,209,59979,2,0,P|233:276|270:372,1,151.199995385742,2|2,0:0|0:0,0:0:0:0:
371,383,60861,5,0,0:0:0:0:
371,383,61038,2,0,L|464:342,1,100.799996923828,2|0,0:0|0:0,0:0:0:0:
477,281,61567,2,0,L|436:187,1,100.799996923828,2|0,0:0|0:0,0:0:0:0:
381,166,62096,1,2,0:0:0:0:
224,223,62626,1,2,0:0:0:0:
224,223,62802,2,0,B|171:205|149:224|149:232|122:251|78:241,1,151.199995385742,2|0,0:0|0:0,0:0:0:0:
12,159,63685,5,0,0:0:0:0:
12,159,63861,2,0,P|0:107|14:49,1,100.799996923828,2|0,0:0|0:0,0:0:0:0:
54,29,64390,2,0,P|106:17|164:31,1,100.799996923828,2|0,0:0|0:0,0:0:0:0:
184,71,64920,1,2,0:0:0:0:
268,237,65449,1,2,0:0:0:0:
268,237,65626,2,0,P|296:277|400:262,1,151.199995385742,2|2,0:0|0:0,0:0:0:0:
507,271,66508,5,0,0:0:0:0:
507,271,66685,2,0,P|499:222|492:157,1,100.799996923828,2|0,0:0|0:0,0:0:0:0:
488,115,67214,2,0,P|447:86|396:44,1,100.799996923828,2|0,0:0|0:0,0:0:0:0:
364,18,67743,1,2,0:0:0:0:
186,30,68273,1,2,0:0:0:0:
186,30,68449,2,0,B|159:23|138:48|142:52|123:75|88:75,1,100.799996923828,2|2,0:0|0:0,0:0:0:0:
112,186,69155,5,14,0:0:0:0:
224,173,69508,2,0,P|282:161|338:157,1,112,10|8,0:0|0:0,0:0:0:0:
348,216,70038,1,2,0:0:0:0:
348,216,70214,2,0,P|360:274|364:330,1,112,8|8,0:0|0:0,0:0:0:0:
185,362,71096,1,2,0:0:0:0:
185,362,71273,2,0,P|156:359|138:330,2,56,8|2|8,0:0|0:0|0:0,0:0:0:0:
244,267,71979,5,8,0:0:0:0:
185,171,72332,2,0,P|201:112|253:99,1,112,10|8,0:0|0:0,0:0:0:0:
241,47,72861,1,2,0:0:0:0:
241,47,73038,2,0,P|181:62|144:24,1,112,8|8,0:0|0:0,0:0:0:0:
21,167,73920,1,2,0:0:0:0:
21,167,74096,2,0,L|28:232,1,56,8|2,0:0|0:0,0:0:0:0:
65,263,74449,2,0,L|38:322,1,56,8|0,0:0|3:0,0:0:0:0:
55,368,74802,5,10,0:0:0:0:
243,378,75332,1,2,0:0:0:0:
243,378,75508,2,0,L|288:275,1,112,8|8,0:0|0:0,0:0:0:0:
316,228,76038,1,2,0:0:0:0:
316,228,76214,1,8,0:0:0:0:
399,302,76567,1,8,0:0:0:0:
495,245,76920,1,10,0:0:0:0:
471,137,77273,1,10,0:0:0:0:
360,125,77626,6,0,P|359:98|348:62,2,56,8|2|8,0:0|0:0|0:0,0:0:0:0:
332,174,78155,2,0,P|278:188|222:190,1,112,2|0,0:0|3:0,0:0:0:0:
173,162,78685,1,10,0:0:0:0:
211,56,79038,2,0,P|155:58|101:72,1,112,10|8,0:0|0:0,0:0:0:0:
45,169,79743,1,10,0:0:0:0:
107,262,80096,2,0,P|131:275|158:283,1,56,10|0,0:0|0:0,0:0:0:0:
212,298,80449,5,4,3:2:0:0:
282,210,80802,2,0,B|298:166|275:148|269:150|243:128|262:70,2,134.4,10|2|8,0:0|3:2|0:0,0:0:0:0:
367,283,82214,2,0,L|386:380,1,89.6,10|8,0:0|0:0,0:0:0:0:
440,370,82743,2,0,L|514:305,1,89.6,2|2,3:2|3:2,0:0:0:0:
479,264,83273,1,8,0:0:0:0:
413,173,83626,6,0,P|412:127|417:81,1,89.6,10|8,0:0|0:0,0:0:0:0:
383,38,84155,2,0,P|337:39|291:34,1,89.6,2|2,3:2|3:2,0:0:0:0:
248,68,84685,1,8,0:0:0:0:
160,138,85038,2,0,P|114:137|68:142,1,89.6,10|8,0:0|0:0,0:0:0:0:
25,108,85567,1,2,3:2:0:0:
16,273,86096,6,0,L|33:328,1,50.3999984619141,8|0,0:0|3:0,0:0:0:0:
75,353,86449,2,0,L|185:319,1,100.799996923828,10|8,0:0|0:0,0:0:0:0:
202,278,86979,1,2,3:2:0:0:
300,245,87332,1,0,3:0:0:0:
300,245,87508,2,0,P|308:195|290:138,1,100.799996923828,10|8,0:0|0:0,0:0:0:0:
286,92,88038,2,0,P|336:100|393:82,1,100.799996923828,2|0,3:2|3:0,0:0:0:0:
439,78,88567,1,10,0:0:0:0:
503,169,88920,6,0,L|454:194,1,56,2|2,0:0|0:0,0:0:0:0:
423,241,89273,2,0,L|420:295,1,56,2|2,0:0|0:0,0:0:0:0:
389,342,89626,2,0,B|359:355|335:336|337:334|310:311|280:328,1,112,2|2,0:0|0:0,0:0:0:0:
252,373,90155,1,2,0:0:0:0:
252,373,90332,1,8,0:3:0:0:
260,11,91743,5,4,3:2:0:0:
275,129,92096,2,0,P|219:145|147:125,1,123.200003759766,2|0,3:2|3:0,0:0:0:0:
119,80,92626,2,0,P|59:65|0:81,1,123.200003759766,2|0,3:2|3:0,0:0:0:0:
16,141,93155,1,2,3:2:0:0:
121,315,93685,2,0,P|128:344|121:374,2,61.6000018798829,2|2|0,0:0|3:2|3:0,0:0:0:0:
123,247,94214,2,0,P|152:254|182:246,1,61.6000018798829,2|0,3:2|3:0,0:0:0:0:
250,248,94567,5,0,3:0:0:0:
331,348,94920,2,0,P|394:357|445:328,1,123.200003759766,2|0,3:2|3:0,0:0:0:0:
505,337,95449,2,0,P|514:274|485:223,1,123.200003759766,2|0,3:2|3:0,0:0:0:0:
494,163,95979,1,2,3:2:0:0:
296,113,96508,2,0,P|269:132|262:160,2,61.6000018798829,2|2|0,0:0|3:2|3:0,0:0:0:0:
279,53,97038,2,0,P|249:44|231:19,1,61.6000018798829,2|0,3:2|3:0,0:0:0:0:
172,36,97390,5,0,3:0:0:0:
142,155,97743,2,0,P|88:167|17:170,1,123.200003759766,2|0,3:2|3:0,0:0:0:0:
3,230,98273,2,0,P|40:270|78:330,1,123.200003759766,2|0,3:2|3:0,0:0:0:0:
138,313,98802,1,2,3:2:0:0:
341,322,99332,2,0,P|326:349|317:378,2,61.6000018798829,2|2|0,0:0|3:2|3:0,0:0:0:0:
323,262,99861,2,0,P|293:252|266:238,1,61.6000018798829,2|0,3:2|3:0,0:0:0:0:
248,178,100214,5,0,3:0:0:0:
187,70,100567,2,0,P|220:22|283:32,1,123.200003759766,2|0,3:2|3:0,0:0:0:0:
339,38,101096,2,0,P|396:27|433:79,1,123.200003759766,2|0,3:2|3:0,0:0:0:0:
469,122,101626,1,2,3:2:0:0:
487,324,102155,2,0,P|492:352|466:371,2,61.6000018798829,2|2|0,0:0|3:2|3:0,0:0:0:0:
435,289,102685,2,0,P|406:294|387:268,1,61.6000018798829,2|0,3:2|3:0,0:0:0:0:
373,210,103038,5,4,3:2:0:0:
254,178,103390,2,0,L|262:52,1,123.200003759766,10|0,0:0|3:0,0:0:0:0:
313,19,103920,1,2,3:2:0:0:
313,19,104096,2,0,L|376:23,2,61.6000018798829,8|0|2,0:0|3:0|3:2,0:0:0:0:
375,131,104802,1,8,0:0:0:0:
375,131,104979,2,0,L|438:135,2,61.6000018798829,2|2|0,0:0|3:2|3:0,0:0:0:0:
372,192,105508,2,0,L|368:255,1,61.6000018798829,10|0,0:0|3:0,0:0:0:0:
306,249,105861,5,0,3:0:0:0:
226,342,106214,2,0,P|174:297|188:231,1,123.200003759766,10|0,0:0|3:0,0:0:0:0:
129,219,106743,1,2,3:2:0:0:
129,219,106920,2,0,P|106:244|73:237,2,61.6000018798829,8|0|2,0:0|3:0|3:2,0:0:0:0:
80,111,107626,1,8,0:0:0:0:
80,111,107802,2,0,P|50:111|32:134,2,61.6000018798829,2|2|0,0:0|3:2|3:0,0:0:0:0:
114,59,108332,2,0,P|141:47|167:62,1,61.6000018798829,10|0,0:0|3:0,0:0:0:0:
222,33,108685,5,2,3:2:0:0:
294,139,109038,1,8,0:0:0:0:
294,139,109214,2,0,L|295:204,2,61.6000018798829,0|2|0,3:0|3:2|3:0,0:0:0:0:
335,93,109743,2,0,L|396:92,1,61.6000018798829,10|0,0:0|3:0,0:0:0:0:
442,133,110096,1,0,3:0:0:0:
509,235,110449,1,8,0:0:0:0:
432,330,110802,1,2,3:2:0:0:
317,286,111155,1,10,0:0:0:0:
324,164,111508,6,0,P|297:164|264:175,2,61.6000018798829,0|0|10,3:0|3:0|0:0,0:0:0:0:
367,120,112038,2,0,P|320:80|288:27,1,123.200003759766,0|0,3:0|3:0,0:0:0:0:
228,11,112567,1,10,0:0:0:0:
157,112,112920,1,0,3:0:0:0:
34,101,113273,2,0,L|43:164,1,61.6000018798829,8|2,0:0|3:2,0:0:0:0:
88,203,113626,2,0,L|79:266,1,61.6000018798829,0|0,3:0|3:0,0:0:0:0:
69,325,113979,1,10,0:0:0:0:
174,363,114332,6,0,P|228:365|271:327,1,112,6|8,3:2|0:0,0:0:0:0:
205,237,115038,1,2,3:2:0:0:
272,149,115390,1,10,0:0:0:0:
376,185,115743,1,2,3:2:0:0:
373,295,116096,2,0,L|432:296,1,56,8|0,0:0|3:0,0:0:0:0:
487,299,116449,2,0,L|489:181,1,112,2|8,3:2|0:0,0:0:0:0:
437,86,117155,6,0,P|377:87|304:11,1,168,2|0,3:2|3:0,0:0:0:0:
248,18,117861,2,0,P|248:57|198:106,1,112,2|8,3:2|0:0,0:0:0:0:
143,115,118390,1,2,0:0:0:0:
189,217,118743,2,0,P|175:230|140:230,1,56,0|8,3:0|0:0,0:0:0:0:
84,229,119096,2,0,P|125:270|124:375,1,168,2|8,0:0|0:0,0:0:0:0:
237,374,119979,6,0,L|337:322,1,112,2|8,3:2|0:0,0:0:0:0:
380,287,120508,1,0,3:0:0:0:
380,287,120685,2,0,L|284:225,1,112,2|8,3:2|0:0,0:0:0:0:
175,208,121390,2,0,L|157:261,1,56,0|0,3:0|3:0,0:0:0:0:
123,306,121743,2,0,L|42:216,1,112,10|2,0:0|3:2,0:0:0:0:
112,132,122449,2,0,L|114:71,1,56,10|0,0:0|3:0,0:0:0:0:
112,20,122802,6,0,B|146:11|166:31|162:33|185:51|226:42,1,112,2|8,3:2|0:0,0:0:0:0:
260,89,123332,1,0,3:0:0:0:
260,89,123508,2,0,B|294:98|314:78|310:76|333:58|374:67,1,112,2|8,3:2|0:0,0:0:0:0:
467,113,124214,5,6,3:2:0:0:
45,271,125626,1,2,3:2:0:0:
256,192,125802,12,0,128449,0:0:0:0:
256,192,136920,5,2,0:0:0:0:
396,17,137626,2,0,P|433:35|489:43,1,89.6,2|0,0:0|0:0,0:0:0:0:
510,151,138332,2,0,P|474:225|458:337,1,179.2,2|2,0:0|0:0,0:0:0:0:
233,316,139743,6,0,P|187:312|104:361,2,134.4,2|2|0,0:0|0:0|0:0,0:0:0:0:
213,205,141155,2,0,P|134:164|89:88,1,179.2,2|2,0:0|0:0,0:0:0:0:
308,38,142567,6,0,P|397:27|490:25,1,179.2,2|0,0:0|0:0,0:0:0:0:
509,134,143626,1,2,0:0:0:0:
399,157,143979,2,0,P|310:168|217:170,1,179.2,2|2,0:0|0:0,0:0:0:0:
37,41,145390,5,2,0:0:0:0:
43,152,145743,2,0,B|77:191|44:237|39:236|7:287|46:335,1,179.2,2|0,0:0|0:0,0:0:0:0:
148,315,146802,2,0,B|187:281|233:314|232:319|283:351|331:312,1,179.2,2|2,0:0|0:0,0:0:0:0:
509,205,148214,5,8,0:3:0:0:
507,92,148567,2,0,P|510:68|499:48,1,44.8,2|8,0:0|0:3,0:0:0:0:
451,23,148920,2,0,P|403:17|363:39,1,89.6,2|8,0:0|0:3,0:0:0:0:
257,56,149626,2,0,P|233:59|213:48,2,44.8,2|8|8,0:0|0:3|0:3,0:0:0:0:
331,139,150332,1,2,0:0:0:0:
405,222,150685,1,8,0:3:0:0:
295,244,151038,5,2,0:0:0:0:
186,216,151390,2,0,P|177:238|185:265,1,44.8,8|2,0:3|0:0,0:0:0:0:
183,314,151743,2,0,P|203:322|225:319,2,44.8,2|8|8,0:0|0:3|0:3,0:0:0:0:
75,345,152449,2,0,P|54:336|32:339,2,44.8,2|8|8,0:0|0:3|0:3,0:0:0:0:
92,233,153155,1,2,0:0:0:0:
12,153,153508,1,8,0:3:0:0:
55,49,153861,6,0,P|97:30|146:37,1,89.6,2|8,0:0|0:3,0:0:0:0:
192,16,154390,2,0,P|256:40|301:99,1,134.4,8|8,0:3|0:3,0:0:0:0:
409,80,155273,1,2,0:0:0:0:
418,192,155626,2,0,L|471:188,2,44.8,8|8|2,0:3|0:3|0:0,0:0:0:0:
306,201,156332,1,8,0:3:0:0:
315,313,156685,6,0,B|270:303|248:333|255:335|239:362|185:353,2,134.4,2|8|8,0:0|0:3|0:3,0:0:0:0:
427,304,158096,1,0,3:0:0:0:
427,304,159508,5,4,3:2:0:0:
256,192,159685,12,0,165155,0:0:0:0:
40,128,170802,5,14,0:0:0:0:
103,35,171155,2,0,P|157:30|210:62,1,112,10|8,0:0|0:0,0:0:0:0:
265,53,171685,1,2,0:0:0:0:
265,53,171861,2,0,P|270:107|238:160,1,112,8|8,0:0|0:0,0:0:0:0:
77,235,172743,1,2,0:0:0:0:
77,235,172920,2,0,L|20:244,2,56,8|2|8,0:0|0:0|0:0,0:0:0:0:
157,313,173626,5,10,0:0:0:0:
265,283,173979,2,0,P|266:226|258:161,1,112,10|8,0:0|0:0,0:0:0:0:
310,143,174508,1,2,0:0:0:0:
310,143,174685,2,0,P|358:172|419:197,1,112,8|8,0:0|0:0,0:0:0:0:
500,355,175567,1,2,0:0:0:0:
500,355,175743,2,0,L|440:350,1,56,8|2,0:0|0:0,0:0:0:0:
391,330,176096,2,0,L|336:355,1,56,8|0,0:0|3:0,0:0:0:0:
284,362,176449,5,10,0:0:0:0:
100,342,176979,1,2,0:0:0:0:
100,342,177155,2,0,P|56:307|38:253,1,112,8|8,0:0|0:0,0:0:0:0:
37,203,177685,1,2,0:0:0:0:
37,203,177861,1,8,0:0:0:0:
45,91,178214,1,8,0:0:0:0:
157,99,178567,2,0,L|154:160,1,56,10|0,0:0|3:0,0:0:0:0:
149,211,178920,1,10,0:0:0:0:
249,261,179273,6,0,P|256:282|261:317,2,56,8|2|8,0:0|0:0|0:0,0:0:0:0:
285,218,179802,2,0,P|340:210|393:194,1,112,2|0,0:0|0:0,0:0:0:0:
429,151,180332,1,10,0:0:0:0:
504,68,180685,2,0,P|450:51|395:44,1,112,10|8,0:0|0:0,0:0:0:0:
302,107,181390,1,10,0:0:0:0:
208,45,181743,2,0,L|167:87,1,56,10|0,0:0|3:0,0:0:0:0:
183,140,182096,5,4,3:2:0:0:
136,242,182449,2,0,B|101:259|72:231|76:228|50:196|0:205,2,134.4,10|2|8,0:0|3:2|0:0,0:0:0:0:
237,289,183861,2,0,L|332:269,1,89.6,10|8,0:0|0:0,0:0:0:0:
342,217,184390,2,0,L|247:197,1,89.6,2|2,3:2|3:2,0:0:0:0:
214,158,184920,1,8,0:0:0:0:
109,117,185273,6,0,P|113:68|144:36,1,89.6,10|8,0:0|0:0,0:0:0:0:
193,26,185802,2,0,P|242:30|274:61,1,89.6,2|2,3:2|3:2,0:0:0:0:
284,110,186332,1,8,0:0:0:0:
395,119,186685,2,0,P|391:168|360:200,1,89.6,10|8,0:0|0:0,0:0:0:0:
311,210,187214,1,2,3:2:0:0:
401,371,187743,6,0,L|458:374,1,50.3999984619141,8|0,0:0|3:0,0:0:0:0:
494,338,188096,2,0,L|500:224,1,100.799996923828,10|8,0:0|0:0,0:0:0:0:
499,181,188626,1,2,3:2:0:0:
404,135,188979,1,0,3:0:0:0:
404,135,189155,2,0,L|398:21,1,100.799996923828,10|8,0:0|0:0,0:0:0:0:
342,35,189685,2,0,L|228:41,1,100.799996923828,2|0,3:2|3:0,0:0:0:0:
242,96,190214,1,10,0:0:0:0:
276,202,190567,6,0,P|305:224|328:248,1,56,2|2,0:0|0:0,0:0:0:0:
345,287,190920,2,0,P|315:309|292:333,1,56,2|2,0:0|0:0,0:0:0:0:
252,348,191273,2,0,B|208:350|204:327|201:326|196:311|144:315,1,112,2|2,0:0|0:0,0:0:0:0:
99,340,191802,1,2,0:0:0:0:
99,340,191979,1,8,0:3:0:0:
413,44,193390,5,4,3:2:0:0:
291,23,193743,2,0,P|294:87|312:146,1,123.200003759766,2|0,3:2|3:0,0:0:0:0:
283,198,194273,2,0,P|347:195|406:177,1,123.200003759766,2|0,3:2|3:0,0:0:0:0:
458,206,194802,1,2,3:2:0:0:
316,352,195332,2,0,L|259:379,2,61.6000018798829,2|2|0,0:0|3:2|0:0,0:0:0:0:
323,290,195861,2,0,L|295:233,1,61.6000018798829,2|0,3:2|3:0,0:0:0:0:
269,178,196214,5,0,3:0:0:0:
258,55,196567,2,0,P|197:82|149:140,1,123.200003759766,2|0,3:2|3:0,0:0:0:0:
159,184,197096,2,0,P|105:144|30:132,1,123.200003759766,2|0,3:2|3:0,0:0:0:0:
0,162,197626,1,2,3:2:0:0:
147,301,198155,2,0,P|153:330|154:363,2,61.6000018798829,2|2|0,0:0|3:2|3:0,0:0:0:0:
190,257,198685,2,0,P|183:227|183:195,1,61.6000018798829,2|0,3:2|3:0,0:0:0:0:
225,152,199038,5,0,3:0:0:0:
288,46,199390,2,0,B|325:36|346:54|347:61|369:80|413:71,1,123.200003759766,2|0,3:2|3:0,0:0:0:0:
460,100,199920,2,0,B|450:137|423:146|417:143|390:153|375:195,1,123.200003759766,2|0,3:2|3:0,0:0:0:0:
327,221,200449,1,2,3:2:0:0:
142,307,200979,2,0,P|107:304|89:283,2,61.6000018798829,2|2|0,0:0|3:2|3:0,0:0:0:0:
178,257,201508,2,0,P|163:225|172:199,1,61.6000018798829,2|0,3:2|3:0,0:0:0:0:
195,144,201861,5,0,3:0:0:0:
264,42,202214,2,0,P|209:26|142:32,1,123.200003759766,2|0,3:2|3:0,0:0:0:0:
88,59,202743,2,0,P|46:98|18:159,1,123.200003759766,2|0,3:2|3:0,0:0:0:0:
14,219,203273,1,2,3:2:0:0:
194,312,203802,2,0,L|198:375,2,61.6000018798829,2|2|0,0:0|3:2|3:0,0:0:0:0:
248,282,204332,2,0,L|309:278,1,61.6000018798829,2|0,3:2|3:0,0:0:0:0:
363,248,204685,5,4,3:2:0:0:
444,340,205038,2,0,P|487:306|481:236,1,123.200003759766,10|0,0:0|3:0,0:0:0:0:
474,186,205567,1,2,3:2:0:0:
474,186,205743,2,0,P|471:156|494:137,2,61.6000018798829,8|0|2,0:0|3:0|3:2,0:0:0:0:
355,152,206449,1,8,0:0:0:0:
355,152,206626,2,0,L|349:85,2,61.6000018798829,2|2|0,0:0|3:2|3:0,0:0:0:0:
316,200,207155,2,0,L|254:205,1,61.6000018798829,10|0,0:0|3:0,0:0:0:0:
206,166,207508,5,0,3:0:0:0:
123,257,207861,2,0,B|89:246|74:222|74:220|61:200|19:187,1,123.200003759766,10|0,0:0|3:0,0:0:0:0:
17,126,208390,2,0,B|43:102|71:101|73:102|97:100|129:70,1,123.200003759766,2|0,3:2|3:0,0:0:0:0:
180,42,208920,1,2,3:2:0:0:
301,83,209273,1,8,0:0:0:0:
301,83,209449,2,0,P|312:47|308:21,2,61.6000018798829,2|2|0,0:0|3:2|3:0,0:0:0:0:
334,135,209979,2,0,P|357:154|370:182,1,61.6000018798829,10|0,0:0|3:0,0:0:0:0:
403,234,210332,5,2,3:2:0:0:
429,359,210685,1,8,0:0:0:0:
429,359,210861,2,0,L|492:350,2,61.6000018798829,2|2|0,0:0|3:2|3:0,0:0:0:0:
369,342,211390,2,0,L|308:333,1,61.6000018798829,10|0,0:0|3:0,0:0:0:0:
269,285,211743,1,0,3:0:0:0:
182,373,212096,1,8,0:0:0:0:
71,317,212449,1,2,3:2:0:0:
89,194,212802,1,10,0:0:0:0:
212,174,213155,6,0,P|243:166|272:149,2,61.6000018798829,0|0|10,3:0|3:0|0:0,0:0:0:0:
187,116,213685,2,0,P|142:70|83:37,1,123.200003759766,0|0,3:0|3:0,0:0:0:0:
50,86,214214,1,10,0:0:0:0:
7,201,214567,1,0,3:0:0:0:
85,295,214920,2,0,L|156:295,1,61.6000018798829,8|2,0:0|3:2,0:0:0:0:
172,350,215273,2,0,L|243:350,1,61.6000018798829,0|0,3:0|3:0,0:0:0:0:
289,323,215626,1,10,0:0:0:0:
398,346,215979,6,0,P|456:346|484:300,1,112,6|8,3:2|0:0,0:0:0:0:
400,228,216685,1,2,3:2:0:0:
486,156,217038,1,10,0:0:0:0:
466,45,217390,1,2,3:2:0:0:
360,6,217743,2,0,L|355:65,1,56,8|0,0:0|3:0,0:0:0:0:
323,107,218096,2,0,L|205:97,1,112,2|8,3:2|0:0,0:0:0:0:
174,200,218802,6,0,B|222:194|249:226|248:232|277:263|336:252,1,168,2|0,3:2|3:0,0:0:0:0:
330,309,219508,2,0,B|298:305|280:326|280:330|261:350|222:343,1,112,2|8,3:2|0:0,0:0:0:0:
171,338,220038,1,2,0:0:0:0:
63,367,220390,2,0,P|46:336|48:308,1,56,0|8,3:0|0:0,0:0:0:0:
40,260,220743,2,0,P|102:226|158:230,1,112,2|0,0:0|3:0,0:0:0:0:
197,219,221273,1,8,0:0:0:0:
253,122,221626,6,0,L|265:7,1,112,2|8,3:2|0:0,0:0:0:0:
324,19,222155,1,0,3:0:0:0:
324,19,222332,2,0,L|439:31,1,112,2|8,3:2|0:0,0:0:0:0:
401,137,223038,2,0,L|357:172,1,56,0|0,3:0|3:0,0:0:0:0:
349,227,223390,2,0,L|419:313,1,112,10|2,0:0|3:2,0:0:0:0:
319,365,224096,2,0,L|263:359,1,56,10|0,0:0|3:0,0:0:0:0:
207,355,224449,6,0,P|175:324|167:254,1,112,2|8,3:2|0:0,0:0:0:0:
206,220,224979,1,0,3:0:0:0:
206,220,225155,2,0,P|201:165|164:124,1,112,2|8,3:2|0:0,0:0:0:0:
59,84,225861,5,6,3:2:0:0:
453,300,227273,1,6,3:2:0:0:
256,192,227449,12,2,232920,3:2:0:0:
140,102,238567,6,0,P|143:151|181:204,1,112,10|8,0:0|0:0,0:0:0:0:
163,312,239273,2,0,P|212:309|265:271,1,112,8|8,0:0|0:0,0:0:0:0:
373,289,239979,2,0,P|370:240|332:187,1,112,8|8,0:0|0:0,0:0:0:0:
350,79,240685,2,0,P|301:82|248:120,1,112,10|8,0:0|0:0,0:0:0:0:
234,227,241390,5,10,0:0:0:0:
255,336,241743,1,8,0:0:0:0:
146,357,242096,1,8,0:0:0:0:
37,378,242449,2,0,P|22:353|29:322,1,56,8|0,0:0|3:0,0:0:0:0:
59,282,242802,1,8,0:0:0:0:
38,173,243155,1,8,0:0:0:0:
147,152,243508,1,10,0:0:0:0:
256,131,243861,2,0,P|271:156|264:187,1,56,8|0,0:0|3:0,0:0:0:0:
234,227,244214,6,0,P|254:279|271:338,1,112,10|8,0:0|0:0,0:0:0:0:
372,378,244920,2,0,P|407:334|449:290,1,112,8|8,0:0|0:0,0:0:0:0:
477,186,245626,2,0,P|457:134|440:75,1,112,8|8,0:0|0:0,0:0:0:0:
339,35,246332,2,0,P|303:78|261:122,1,112,10|8,0:0|0:0,0:0:0:0:
156,146,247038,6,0,L|98:151,1,56,10|0,0:0|3:0,0:0:0:0:
51,123,247390,2,0,L|46:65,1,56,8|0,0:0|3:0,0:0:0:0:
74,18,247743,2,0,B|112:6|129:20|128:26|145:38|187:19,1,112,8|8,0:0|0:0,0:0:0:0:
242,19,248273,1,0,3:0:0:0:
242,19,248449,5,4,3:2:0:0:
242,19,249861,1,2,0:0:0:0:
