osu file format v14

[General]
AudioFilename: audio.mp3
AudioLeadIn: 0
PreviewTime: 90685
Countdown: 0
SampleSet: Soft
StackLeniency: 0.7
Mode: 0
LetterboxInBreaks: 0
WidescreenStoryboard: 0

[Editor]
Bookmarks: 12685,23979,35273,46567,57861,69155,80449,91743,103038,114332,125626,136920,148214,159508,170802,182096,193390,204685,215979,227273,238567,249861
DistanceSpacing: 1.56
BeatDivisor: 4
GridSize: 32
TimelineZoom: 1.3

[Metadata]
Title:Your Voice
TitleUnicode:Your Voice
Artist:Alkome
ArtistUnicode:Alkome
Creator:Hinsvar
Version:Insane
Source:
Tags:Electronic English Happy UK Hardcore UKHC Dive/Art:City 2019 rayshock.net Featured Artist FA Mappers' Guild MG MPG
BeatmapID:4513773
BeatmapSetID:2143876

[Difficulty]
HPDrainRate:5
CircleSize:4
OverallDifficulty:8
ApproachRate:9
SliderMultiplier:1.6
SliderTickRate:1

[Events]
//Background and Video events
0,0,"BG.jpg",0,0
//Break Periods
2,27002,34673
2,128649,136320
2,165355,169320
2,233120,237967
//Storyboard Layer 0 (Background)
//Storyboard Layer 1 (Fail)
//Storyboard Layer 2 (Pass)
//Storyboard Layer 3 (Foreground)
//Storyboard Layer 4 (Overlay)
//Storyboard Sound Samples

[TimingPoints]
1391,352.941176470588,4,2,1,70,1,0
18332,-100,4,2,1,60,0,0
19743,-100,4,2,1,65,0,0
21155,-100,4,2,1,70,0,0
35273,-250,4,2,1,50,0,0
46567,-166.666666666667,4,2,1,55,0,0
57861,-125,4,2,1,60,0,0
69155,-100,4,2,1,70,0,0
80449,-166.666666666667,4,2,1,70,0,0
86096,-125,4,2,1,70,0,0
88920,-100,4,2,1,70,0,0
91743,-83.3333333333333,4,2,1,75,0,1
103038,-83.3333333333333,4,2,2,80,0,1
114332,-100,4,2,2,80,0,0
136920,-250,4,2,1,50,0,0
148214,-166.666666666667,4,2,1,55,0,0
159508,-125,4,2,1,60,0,0
170802,-100,4,2,1,70,0,0
182096,-166.666666666667,4,2,1,70,0,0
187743,-125,4,2,1,70,0,0
190567,-100,4,2,1,70,0,0
193390,-83.3333333333333,4,2,1,80,0,1
204685,-83.3333333333333,4,2,2,80,0,1
215979,-100,4,2,2,70,0,0
238567,-100,4,2,1,70,0,0
244214,-100,4,2,1,60,0,0
245626,-100,4,2,1,65,0,0
247038,-100,4,2,1,70,0,0

[Colours]
Combo1 : 218,171,233
Combo2 : 107,239,226
Combo3 : 238,115,155
Combo4 : 87,153,234

[HitObjects]
312,185,12685,6,0,L|304:102,1,80,10|0,0:0|3:0,0:0:0:0:
332,30,13038,2,0,L|415:22,1,80,8|0,0:0|3:0,0:0:0:0:
487,50,13390,2,0,L|495:133,1,80,8|0,0:0|3:0,0:0:0:0:
467,205,13743,2,0,L|384:213,1,80,8|0,0:0|3:0,0:0:0:0:
200,199,14096,6,0,L|208:282,1,80,8|0,0:0|3:0,0:0:0:0:
180,354,14449,2,0,L|97:362,1,80,8|0,0:0|3:0,0:0:0:0:
25,334,14802,2,0,L|17:251,1,80,10|0,0:0|3:0,0:0:0:0:
45,179,15155,2,0,L|128:171,1,80,8|0,0:0|3:0,0:0:0:0:
313,140,15508,5,10,0:0:0:0:
313,140,15685,1,0,3:0:0:0:
313,140,15861,2,0,P|338:104|332:60,1,80,8|0,0:0|3:0,0:0:0:0:
308,249,16214,1,8,0:0:0:0:
308,249,16390,1,0,3:0:0:0:
308,249,16567,2,0,P|343:274|387:268,1,80,8|0,0:0|3:0,0:0:0:0:
199,244,16920,5,8,0:0:0:0:
199,244,17096,1,0,3:0:0:0:
199,244,17273,2,0,P|173:279|179:323,1,80,8|0,0:0|3:0,0:0:0:0:
204,135,17626,1,10,0:0:0:0:
204,135,17802,1,0,3:0:0:0:
204,135,17979,2,0,P|168:109|124:115,1,80,8|0,0:0|3:0,0:0:0:0:
325,15,18332,6,0,L|315:60,3,40,10|0|0|0,0:0|3:0|3:0|3:0,0:0:0:0:
293,124,18685,2,0,L|306:167,3,40,8|0|0|0,0:0|3:0|3:0|3:0,0:0:0:0:
319,234,19038,2,0,L|352:265,3,40,8|0|0|0,0:0|3:0|3:0|3:0,0:0:0:0:
397,316,19390,2,0,L|442:326,3,40,8|0|0|0,0:0|3:0|3:0|3:0,0:0:0:0:
505,348,19743,6,0,P|511:327|506:303,3,40,8|0|0|0,0:0|3:0|3:0|3:0,0:0:0:0:
512,235,20096,2,0,P|506:213|490:195,3,40,8|0|0|0,0:0|3:0|3:0|3:0,0:0:0:0:
461,133,20449,2,0,P|445:117|422:109,3,40,10|0|0|0,0:0|3:0|3:0|3:0,0:0:0:0:
366,70,20802,2,0,P|345:63|320:68,3,40,8|0|0|0,0:0|3:0|3:0|3:0,0:0:0:0:
252,63,21155,5,10,0:0:0:0:
253,82,21243,1,0,3:0:0:0:
255,102,21332,1,0,3:0:0:0:
257,122,21420,1,0,3:0:0:0:
258,142,21508,2,0,L|261:182,3,40,8|0|0|0,0:0|3:0|3:0|3:0,0:0:0:0:
266,255,21861,5,8,0:0:0:0:
231,275,21949,1,0,3:0:0:0:
192,284,22038,1,0,3:0:0:0:
153,283,22126,1,0,3:0:0:0:
114,272,22214,1,8,0:0:0:0:
81,250,22302,1,0,3:0:0:0:
55,220,22390,1,0,3:0:0:0:
38,184,22479,1,0,3:0:0:0:
31,144,22567,5,4,3:2:0:0:
480,239,23979,1,2,3:2:0:0:
256,192,24155,12,0,26802,0:0:0:0:
256,192,35273,5,0,3:0:0:0:
256,192,35979,2,0,P|283:175|277:147,1,64,2|0,0:0|0:0,0:0:0:0:
447,27,36685,2,0,P|393:61|405:117,1,128,2|2,0:0|0:0,0:0:0:0:
65,357,38096,6,0,P|105:331|96:289,2,96,2|2|0,0:0|0:0|0:0,0:0:0:0:
33,200,39508,2,0,P|79:161|131:192,1,128,2|2,0:0|0:0,0:0:0:0:
401,366,40920,6,0,B|386:327|404:300|407:304|427:276|409:229,1,128,2|0,0:0|0:0,0:0:0:0:
400,18,41979,1,2,0:0:0:0:
401,18,42332,2,0,B|386:56|404:83|407:79|427:107|413:141,1,128,2|2,0:0|0:0,0:0:0:0:
99,242,43743,5,2,0:0:0:0:
99,242,44096,2,0,P|79:182|25:144,1,128,2|0,0:0|0:0,0:0:0:0:
227,251,45155,2,0,P|185:298|179:364,1,128,2|2,0:0|0:0,0:0:0:0:
171,136,46567,5,8,0:3:0:0:
171,136,46920,2,0,P|195:141|219:129,1,47.9999985351563,2|8,0:0|0:3,0:0:0:0:
42,24,47273,2,0,P|57:72|101:102,1,95.9999970703126,2|8,0:0|0:3,0:0:0:0:
380,80,47979,5,2,0:0:0:0:
278,43,48155,1,8,0:3:0:0:
216,132,48332,2,0,B|230:161|218:179|215:177|202:197|213:228,2,95.9999970703126,8|2|8,0:3|0:0|0:3,0:0:0:0:
472,369,49390,5,2,0:0:0:0:
472,369,49743,2,0,P|465:345|438:335,1,47.9999985351563,8|2,0:3|0:0,0:0:0:0:
262,244,50096,1,2,0:0:0:0:
289,337,50273,1,8,0:3:0:0:
380,373,50449,2,0,P|394:324|395:277,1,95.9999970703126,8|2,0:3|0:0,0:0:0:0:
369,203,50979,1,8,0:3:0:0:
501,146,51155,2,0,P|476:138|452:138,1,47.9999985351563,8|2,0:3|0:0,0:0:0:0:
303,117,51508,2,0,P|255:116|210:102,1,95.9999970703126,2|8,0:0|0:3,0:0:0:0:
6,26,52214,6,0,P|50:34|80:84,1,95.9999970703126,2|8,0:0|0:3,0:0:0:0:
168,230,52743,2,0,P|102:218|57:143,1,143.999995605469,8|8,0:3|0:3,0:0:0:0:
59,158,53979,5,8,0:3:0:0:
20,58,54155,1,8,0:3:0:0:
127,75,54332,2,0,B|152:85|172:67|170:64|194:45|223:57,1,95.9999970703126,2|8,0:0|0:3,0:0:0:0:
375,321,55038,6,0,B|412:306|441:333|438:338|474:367|518:349,2,143.999995605469,2|8|8,0:0|0:3|0:3,0:0:0:0:
137,321,56449,1,0,3:0:0:0:
137,321,56979,5,2,0:0:0:0:
137,321,57155,2,0,P|117:334|88:336,1,47.9999985351563,2|2,0:0|0:0,0:0:0:0:
70,259,57508,2,0,P|90:246|119:244,1,47.9999985351563,2|2,0:0|0:0,0:0:0:0:
153,38,57861,5,2,3:2:0:0:
77,128,58038,5,2,0:0:0:0:
77,128,58214,2,0,P|138:116|191:161,1,128,2|0,0:0|0:0,0:0:0:0:
326,18,58743,2,0,P|306:76|249:101,1,128,2|0,0:0|0:0,0:0:0:0:
296,288,59273,2,0,P|255:241|262:179,1,128,2|0,0:0|0:0,0:0:0:0:
397,212,59802,5,2,0:0:0:0:
397,212,59979,1,2,0:0:0:0:
397,212,60155,2,0,P|398:175|401:145,1,64,2|2,0:0|0:0,0:0:0:0:
503,11,60508,6,0,P|470:64|409:68,1,128,2|0,0:0|0:0,0:0:0:0:
250,77,61038,2,0,P|283:24|344:20,1,128,2|0,0:0|0:0,0:0:0:0:
479,145,61567,6,0,B|511:181|494:207|492:205|480:229|509:270,1,128,2|0,0:0|0:0,0:0:0:0:
320,214,62096,2,0,B|288:178|305:152|307:154|319:130|290:89,1,128,2|0,0:0|0:0,0:0:0:0:
154,112,62626,5,2,0:0:0:0:
154,112,62802,1,2,0:0:0:0:
154,111,62979,2,0,P|154:80|159:48,1,64,2|0,0:0|0:0,0:0:0:0:
108,179,63332,6,0,P|65:224|5:246,1,128,2|0,0:0|0:0,0:0:0:0:
188,184,63861,2,0,P|249:199|298:240,1,128,2|0,0:0|0:0,0:0:0:0:
245,382,64390,6,0,P|202:340|224:261,1,128,2|0,0:0|0:0,0:0:0:0:
351,98,64920,2,0,P|394:140|372:219,1,128,2|0,0:0|0:0,0:0:0:0:
357,331,65449,5,2,0:0:0:0:
357,331,65626,1,2,0:0:0:0:
357,331,65802,2,0,P|390:335|425:343,1,64,2|2,0:0|0:0,0:0:0:0:
228,333,66155,6,0,P|239:279|314:250,1,128,2|0,0:0|0:0,0:0:0:0:
59,269,66685,2,0,P|113:280|142:355,1,128,2|0,0:0|0:0,0:0:0:0:
176,199,67214,6,0,B|160:156|186:138|190:140|207:121|186:70,1,128,2|0,0:0|0:0,0:0:0:0:
0,20,67743,2,0,B|43:4|61:30|59:34|78:51|129:30,1,128,2|0,0:0|0:0,0:0:0:0:
241,17,68273,5,2,0:0:0:0:
241,17,68449,2,0,P|270:8|302:8,1,64,2|2,0:0|0:0,0:0:0:0:
346,77,68802,2,0,P|316:85|284:85,1,64,2|2,0:0|0:0,0:0:0:0:
70,131,69155,5,14,0:0:0:0:
70,131,69332,1,0,3:0:0:0:
135,17,69508,2,0,B|182:51|172:87|166:84|146:125|201:173,1,160,10|8,0:0|0:0,0:0:0:0:
374,186,70038,2,0,B|347:197|334:184|336:182|324:163|289:175,1,80,2|8,0:0|0:0,0:0:0:0:
107,232,70390,1,2,0:0:0:0:
135,380,70567,2,0,B|140:322|177:312|178:319|223:315|237:243,1,160,8|8,0:0|0:0,0:0:0:0:
371,343,71096,5,2,0:0:0:0:
443,376,71273,1,8,0:0:0:0:
507,330,71449,1,2,0:0:0:0:
435,297,71626,2,0,P|432:258|436:215,1,80,8|0,0:0|3:0,0:0:0:0:
448,34,71979,5,8,0:0:0:0:
448,34,72155,1,0,3:0:0:0:
510,136,72332,2,0,P|440:133|368:80,1,160,10|8,0:0|0:0,0:0:0:0:
178,27,72861,2,0,P|213:28|249:55,1,80,2|8,0:0|0:0,0:0:0:0:
319,151,73214,1,2,0:0:0:0:
149,205,73390,2,0,B|182:256|149:281|148:279|112:304|143:365,1,160,8|8,0:0|0:0,0:0:0:0:
336,269,73920,5,2,0:0:0:0:
425,153,74096,1,8,0:0:0:0:
481,288,74273,1,2,0:0:0:0:
404,337,74449,2,0,P|367:353|333:386,1,80,8|0,0:0|3:0,0:0:0:0:
90,269,74802,6,0,P|135:321|222:297,1,160,10|8,0:0|0:0,0:0:0:0:
332,137,75332,1,2,0:0:0:0:
259,59,75508,5,8,0:0:0:0:
254,210,75685,1,2,0:0:0:0:
405,215,75861,1,8,0:0:0:0:
410,64,76038,1,2,0:0:0:0:
203,135,76214,6,0,P|164:132|128:103,1,80,8|0,0:0|3:0,0:0:0:0:
110,226,76567,2,0,P|77:203|61:160,1,80,8|0,0:0|3:0,0:0:0:0:
35,376,76920,6,0,P|18:340|25:295,1,80,10|0,0:0|3:0,0:0:0:0:
192,289,77273,2,0,P|195:250|224:214,1,80,10|0,0:0|3:0,0:0:0:0:
371,292,77626,5,8,0:0:0:0:
473,145,77802,1,2,0:0:0:0:
495,269,77979,1,8,0:0:0:0:
348,167,78155,2,0,B|369:121|337:96|341:93|305:57|331:11,1,160,2|0,0:0|3:0,0:0:0:0:
490,19,78685,2,0,B|464:21|461:41|459:40|453:65|426:65,1,80,10|0,0:0|3:0,0:0:0:0:
257,148,79038,2,0,P|216:73|151:30,1,160,10|8,0:0|0:0,0:0:0:0:
70,216,79567,5,2,0:0:0:0:
3,314,79743,2,0,P|40:323|83:302,1,80,10|0,0:0|3:0,0:0:0:0:
137,118,80096,2,0,P|100:109|57:130,1,80,10|0,0:0|3:0,0:0:0:0:
181,347,80449,5,4,3:2:0:0:
181,347,80626,1,0,3:0:0:0:
273,374,80802,6,0,P|261:337|269:273,1,95.9999970703126,10|8,0:0|0:0,0:0:0:0:
173,217,81332,2,0,P|179:235|175:267,2,47.9999985351563,2|8|0,3:2|0:0|3:0,0:0:0:0:
327,214,81861,5,8,0:0:0:0:
327,214,82038,1,0,3:0:0:0:
374,113,82214,6,0,B|346:126|328:114|327:109|311:93|276:99,1,95.9999970703126,10|8,0:0|0:0,0:0:0:0:
425,208,82743,2,0,B|439:214|448:208|448:206|456:198|474:201,1,47.9999985351563,2|8,3:2|0:0,0:0:0:0:
296,308,83096,1,2,3:2:0:0:
373,374,83273,5,8,0:0:0:0:
373,374,83449,1,0,3:0:0:0:
219,242,83626,6,0,P|218:198|202:144,1,95.9999970703126,10|8,0:0|0:0,0:0:0:0:
378,186,84155,2,0,P|367:205|360:232,1,47.9999985351563,2|8,3:2|0:0,0:0:0:0:
301,111,84508,1,2,3:2:0:0:
136,208,84685,5,8,0:0:0:0:
136,208,84861,1,0,3:0:0:0:
72,134,85038,6,8,L|24:126,2,47.9999985351563,10|0|8,0:0|3:0|0:0,0:0:0:0:
62,272,85567,2,0,L|54:319,1,47.9999985351563,2|8,3:2|0:0,0:0:0:0:
200,282,85920,1,2,3:2:0:0:
210,144,86096,5,8,0:0:0:0:
210,144,86185,1,0,3:0:0:0:
210,144,86273,1,0,3:0:0:0:
313,163,86449,1,10,0:0:0:0:
313,163,86538,1,0,3:0:0:0:
313,163,86626,2,0,P|302:129|300:97,1,64,0|8,3:0|0:0,0:0:0:0:
107,125,86979,2,0,P|117:158|120:191,1,64,2|8,3:2|0:0,0:0:0:0:
120,187,87243,1,0,3:0:0:0:
120,187,87332,1,0,3:0:0:0:
247,302,87508,5,10,0:0:0:0:
247,302,87596,1,0,3:0:0:0:
247,302,87685,1,0,3:0:0:0:
370,267,87861,1,8,0:0:0:0:
461,356,88038,5,2,3:2:0:0:
461,356,88126,1,0,3:0:0:0:
461,356,88214,2,0,B|487:349|488:335|487:336|488:320|514:316,1,64,8|0,0:0|3:0,0:0:0:0:
291,210,88567,2,0,B|281:200|275:203|276:203|269:207|260:196,2,32,10|0|0,0:0|3:0|3:0,0:0:0:0:
507,53,88920,6,0,P|509:27|514:8,1,40,2|0,0:0|0:0,0:0:0:0:
412,18,89096,2,0,P|386:16|367:11,1,40,2|0,0:0|0:0,0:0:0:0:
377,113,89273,2,0,P|375:139|370:158,1,40,2|0,0:0|0:0,0:0:0:0:
472,148,89449,2,0,P|498:150|517:155,1,40,2|0,0:0|0:0,0:0:0:0:
401,322,89626,5,2,0:0:0:0:
367,343,89714,1,2,0:0:0:0:
328,349,89802,1,2,0:0:0:0:
290,339,89890,1,2,0:0:0:0:
255,318,89979,1,2,0:0:0:0:
221,298,90067,1,2,0:0:0:0:
182,288,90155,1,2,0:0:0:0:
143,293,90243,1,2,0:0:0:0:
108,313,90332,1,8,0:3:0:0:
108,313,90861,5,2,0:0:0:0:
108,313,91038,2,0,P|87:346|52:364,1,80,2|2,0:0|0:0,0:0:0:0:
111,217,91390,2,0,P|71:214|38:193,1,80,2|2,0:0|0:0,0:0:0:0:
195,170,91743,5,4,3:2:0:0:
105,27,91920,1,0,3:0:0:0:
321,15,92096,2,0,B|345:70|316:107|309:106|269:149|300:208,1,191.999994140625,2|0,3:2|3:0,0:0:0:0:
507,186,92626,1,2,3:2:0:0:
507,186,92714,1,0,3:0:0:0:
507,186,92802,2,0,B|476:182|467:160|469:158|461:130|428:128,1,95.9999970703126,0|0,3:0|3:0,0:0:0:0:
253,352,93155,2,0,B|288:303|335:309|338:315|394:329|430:272,1,191.999994140625,2|0,3:2|3:0,0:0:0:0:
421,39,93685,5,2,0:0:0:0:
257,108,93861,2,0,P|246:62|246:13,1,95.9999970703126,2|0,3:2|3:0,0:0:0:0:
353,227,94214,2,0,P|364:181|364:132,1,95.9999970703126,2|0,3:2|3:0,0:0:0:0:
147,131,94567,5,0,3:0:0:0:
159,227,94743,1,0,3:0:0:0:
220,370,94920,2,0,P|147:326|44:295,1,191.999994140625,2|0,3:2|3:0,0:0:0:0:
245,177,95449,1,2,3:2:0:0:
245,177,95538,1,0,3:0:0:0:
245,177,95626,2,0,P|281:199|333:214,1,95.9999970703126,0|0,3:0|3:0,0:0:0:0:
494,36,95979,2,0,P|430:23|368:127,1,191.999994140625,2|0,3:2|3:0,0:0:0:0:
384,300,96508,5,2,0:0:0:0:
139,362,96685,2,0,P|187:344|200:296,1,95.9999970703126,2|0,3:2|3:0,0:0:0:0:
184,133,97038,2,0,P|202:181|250:194,1,95.9999970703126,2|0,3:2|3:0,0:0:0:0:
296,276,97390,5,0,3:0:0:0:
112,224,97567,1,0,3:0:0:0:
65,38,97743,2,0,B|112:-3|158:33|154:36|201:71|249:30,1,191.999994140625,2|0,3:2|3:0,0:0:0:0:
443,16,98273,1,2,3:2:0:0:
443,16,98361,1,0,3:0:0:0:
443,16,98449,2,0,B|449:46|421:57|421:55|394:66|400:97,1,95.9999970703126,0|0,3:0|3:0,0:0:0:0:
364,353,98802,2,0,B|304:332|313:274|317:276|324:218|265:197,1,191.999994140625,2|0,3:2|3:0,0:0:0:0:
88,134,99332,5,2,0:0:0:0:
1,90,99508,2,0,P|-5:137|8:198,1,95.9999970703126,2|0,3:2|3:0,0:0:0:0:
187,342,99861,2,0,P|193:295|180:234,1,95.9999970703126,2|0,3:2|3:0,0:0:0:0:
271,199,100214,5,0,3:0:0:0:
121,173,100390,1,0,3:0:0:0:
225,24,100567,2,0,P|307:-7|395:48,1,191.999994140625,2|0,3:2|3:0,0:0:0:0:
381,238,101096,1,2,3:2:0:0:
381,238,101185,1,0,3:0:0:0:
381,238,101273,2,0,P|365:197|393:153,1,95.9999970703126,0|0,3:0|3:0,0:0:0:0:
176,126,101626,2,0,B|229:145|219:207|214:210|203:264|265:290,1,191.999994140625,2|0,3:2|3:0,0:0:0:0:
508,373,102155,5,2,0:0:0:0:
431,214,102332,2,0,P|385:226|341:245,1,95.9999970703126,2|0,3:2|3:0,0:0:0:0:
342,90,102685,2,0,P|385:101|434:123,1,95.9999970703126,2|0,3:2|3:0,0:0:0:0:
238,360,103038,6,0,P|246:320|230:267,1,95.9999970703126,4|0,3:2|3:0,0:0:0:0:
66,146,103390,1,10,0:0:0:0:
66,146,103479,1,0,3:0:0:0:
66,146,103567,2,0,P|58:186|74:239,1,95.9999970703126,0|0,3:0|3:0,0:0:0:0:
294,90,103920,1,2,3:2:0:0:
294,90,104008,1,0,3:0:0:0:
294,90,104096,1,8,0:0:0:0:
154,24,104273,1,0,3:0:0:0:
183,165,104449,2,0,B|245:140|272:185|268:188|297:224|363:194,1,191.999994140625,2|8,3:2|0:0,0:0:0:0:
494,24,104979,5,2,0:0:0:0:
327,120,105155,1,2,3:2:0:0:
493,120,105332,1,0,3:0:0:0:
327,23,105508,1,10,0:0:0:0:
492,216,105685,1,0,3:0:0:0:
353,380,105861,6,0,L|342:283,1,95.9999970703126,0|0,3:0|3:0,0:0:0:0:
120,187,106214,1,10,0:0:0:0:
120,187,106302,1,0,3:0:0:0:
120,187,106390,2,0,L|24:197,1,95.9999970703126,0|0,3:0|3:0,0:0:0:0:
258,179,106743,1,2,3:2:0:0:
258,179,106832,1,0,3:0:0:0:
258,179,106920,1,8,0:0:0:0:
85,271,107096,1,0,3:0:0:0:
59,113,107273,2,0,B|121:100|136:58|130:57|140:18|218:6,1,191.999994140625,2|8,3:2|0:0,0:0:0:0:
452,47,107802,5,2,0:0:0:0:
216,95,107979,1,2,3:2:0:0:
435,186,108155,1,0,3:0:0:0:
266,175,108332,1,10,0:0:0:0:
341,327,108508,1,0,3:0:0:0:
349,232,108685,6,0,P|350:138|332:36,1,191.999994140625,2|8,3:2|0:0,0:0:0:0:
216,95,109214,1,0,3:0:0:0:
102,36,109390,5,2,3:2:0:0:
5,217,109567,1,0,3:0:0:0:
186,314,109743,1,10,0:0:0:0:
273,199,109920,1,0,3:0:0:0:
341,327,110096,6,0,P|379:350|428:342,1,95.9999970703126,0|0,3:0|3:0,0:0:0:0:
420,186,110449,2,0,P|463:199|507:177,1,95.9999970703126,8|0,0:0|3:0,0:0:0:0:
216,67,110802,6,0,P|260:56|288:16,1,95.9999970703126,2|0,3:2|3:0,0:0:0:0:
268,244,111155,2,0,P|300:213|305:163,1,95.9999970703126,10|0,0:0|3:0,0:0:0:0:
87,95,111508,5,0,3:0:0:0:
113,333,111685,1,0,3:0:0:0:
20,222,111861,1,10,0:0:0:0:
179,205,112038,2,0,B|233:206|254:257|253:264|277:311|341:296,1,191.999994140625,0|0,3:0|3:0,0:0:0:0:
477,367,112567,2,0,B|464:343|481:321|484:320|499:298|479:277,1,95.9999970703126,10|0,0:0|3:0,0:0:0:0:
440,66,112920,2,0,P|379:96|389:163,1,143.999995605469,0|0,3:0|0:0,0:0:0:0:
388,162,113273,5,8,0:0:0:0:
207,123,113449,1,2,3:2:0:0:
257,379,113626,1,0,3:0:0:0:
257,379,113714,1,0,3:0:0:0:
257,379,113802,1,0,3:0:0:0:
280,286,113979,2,0,P|285:237|296:191,1,95.9999970703126,10|0,0:0|0:0,0:0:0:0:
265,14,114332,6,0,P|176:37|111:15,1,160,6|8,3:2|0:0,0:0:0:0:
14,219,114861,2,0,P|19:241|14:257,2,40,0|0|2,3:0|3:0|3:2,0:0:0:0:
184,144,115214,1,0,3:0:0:0:
133,207,115390,2,0,P|93:183|78:152,1,80,10|0,0:0|3:0,0:0:0:0:
285,112,115743,6,0,B|322:158|298:189|299:194|273:221|313:266,1,160,2|8,3:2|0:0,0:0:0:0:
336,382,116273,1,0,3:0:0:0:
427,298,116449,2,0,P|464:290|508:287,1,80,2|0,3:2|3:0,0:0:0:0:
505,97,116802,2,0,P|466:94|427:86,1,80,8|0,0:0|3:0,0:0:0:0:
310,224,117155,6,0,P|390:183|459:198,1,160,2|8,3:2|0:0,0:0:0:0:
400,280,117685,1,0,3:0:0:0:
241,383,117861,5,2,3:2:0:0:
134,327,118038,1,0,3:0:0:0:
213,237,118214,1,8,0:0:0:0:
271,1,118390,6,0,P|294:83|240:110,1,160,2|0,0:0|3:0,0:0:0:0:
140,90,118920,1,8,0:0:0:0:
9,179,119096,2,0,P|-14:97|40:70,1,160,2|0,0:0|3:0,0:0:0:0:
220,208,119626,1,8,0:0:0:0:
235,376,119802,5,0,3:0:0:0:
235,376,119890,1,0,3:0:0:0:
235,376,119979,2,0,P|224:334|225:288,1,80,2|0,3:2|3:0,0:0:0:0:
113,210,120332,2,0,P|124:168|148:128,1,80,8|0,0:0|3:0,0:0:0:0:
411,96,120685,2,0,P|390:173|351:243,1,160,2|8,3:2|0:0,0:0:0:0:
257,46,121214,1,0,3:0:0:0:
85,13,121390,6,0,P|118:35|158:35,1,80,0|0,3:0|3:0,0:0:0:0:
224,217,121743,2,0,P|246:184|246:145,1,80,10|0,0:0|3:0,0:0:0:0:
355,56,122096,5,2,3:2:0:0:
510,19,122273,1,0,3:0:0:0:
498,198,122449,5,10,0:0:0:0:
346,153,122626,1,0,3:0:0:0:
257,313,122802,5,2,3:2:0:0:
253,293,122890,1,0,3:0:0:0:
251,273,122979,1,0,3:0:0:0:
249,253,123067,1,0,3:0:0:0:
247,233,123155,2,0,L|218:193,3,40,8|0|0|0,0:0|3:0|3:0|3:0,0:0:0:0:
166,153,123508,5,2,3:2:0:0:
126,151,123596,1,0,3:0:0:0:
87,161,123685,1,0,3:0:0:0:
52,180,123773,1,0,3:0:0:0:
24,208,123861,1,8,0:0:0:0:
4,242,123949,1,0,3:0:0:0:
0,281,124038,1,0,3:0:0:0:
0,321,124126,1,0,3:0:0:0:
5,359,124214,5,6,3:2:0:0:
507,25,125626,1,2,3:2:0:0:
256,192,125802,12,0,128449,0:0:0:0:
256,192,136920,5,2,0:0:0:0:
256,192,137626,2,0,P|246:221|247:260,1,64,2|0,0:0|0:0,0:0:0:0:
87,276,138332,2,0,P|114:333|160:377,1,128,2|2,0:0|0:0,0:0:0:0:
425,108,139743,6,0,P|404:66|362:26,2,96,2|2|0,0:0|0:0|0:0,0:0:0:0:
233,127,141155,2,0,P|249:65|284:12,1,128,2|2,0:0|0:0,0:0:0:0:
396,279,142567,6,0,P|389:315|302:339,1,128,2|0,0:0|0:0,0:0:0:0:
116,279,143626,1,2,0:0:0:0:
116,279,143979,2,0,P|123:315|210:339,1,128,2|2,0:0|0:0,0:0:0:0:
391,169,145390,5,2,0:0:0:0:
391,169,145743,2,0,P|449:180|509:223,1,128,2|0,0:0|0:0,0:0:0:0:
370,0,146802,2,0,P|358:58|315:118,1,128,2|2,0:0|0:0,0:0:0:0:
142,384,148214,5,8,0:3:0:0:
142,384,148567,2,0,L|138:329,1,47.9999985351563,2|8,0:0|0:3,0:0:0:0:
44,218,148920,2,0,L|143:266,1,95.9999970703126,2|8,0:0|0:3,0:0:0:0:
324,50,149626,5,2,0:0:0:0:
427,18,149802,1,8,0:3:0:0:
459,121,149979,2,0,P|480:163|522:190,2,95.9999970703126,8|2|8,0:3|0:0|0:3,0:0:0:0:
256,144,151038,5,2,0:0:0:0:
256,144,151390,2,0,L|256:92,1,47.9999985351563,8|2,0:3|0:0,0:0:0:0:
387,225,151743,1,2,0:0:0:0:
281,250,151920,1,8,0:3:0:0:
175,275,152096,2,0,L|71:275,1,95.9999970703126,8|2,0:3|0:0,0:0:0:0:
128,365,152626,1,8,0:3:0:0:
66,196,152802,2,0,P|39:203|13:235,1,47.9999985351563,8|2,0:3|0:0,0:0:0:0:
178,190,153155,2,0,P|166:146|115:105,1,95.9999970703126,2|8,0:0|0:3,0:0:0:0:
407,28,153861,6,0,P|362:26|328:72,1,95.9999970703126,2|8,0:0|0:3,0:0:0:0:
472,136,154390,2,0,P|508:79|474:0,1,143.999995605469,8|8,0:3|0:3,0:0:0:0:
485,10,155626,5,8,0:3:0:0:
393,65,155802,1,8,0:3:0:0:
287,43,155979,2,0,B|257:46|241:29|245:28|228:12|196:15,1,95.9999970703126,2|8,0:0|0:3,0:0:0:0:
65,312,156685,6,0,B|110:308|136:332|130:334|154:359|199:355,2,143.999995605469,2|8|8,0:0|0:3|0:3,0:0:0:0:
256,192,158096,1,0,3:0:0:0:
256,192,158626,6,0,L|256:135,2,47.9999985351563,2|2|2,0:0|0:0|0:0,0:0:0:0:
176,240,159155,2,0,L|176:192,1,47.9999985351563,2|2,0:0|0:0,0:0:0:0:
336,97,159508,5,4,3:2:0:0:
256,192,159685,12,0,165155,0:0:0:0:
483,29,169920,5,2,0:0:0:0:
483,29,170096,2,0,P|497:56|491:93,1,64,2|2,0:0|0:0,0:0:0:0:
500,169,170449,2,0,P|473:183|436:177,1,64,2|2,0:0|0:0,0:0:0:0:
260,97,170802,5,14,0:0:0:0:
260,97,170979,1,0,3:0:0:0:
346,160,171155,2,0,P|352:122|367:82,2,80,10|0|8,0:0|3:0|0:0,0:0:0:0:
143,9,171685,2,0,P|157:46|163:85,1,80,2|8,0:0|0:0,0:0:0:0:
44,70,172038,1,2,0:0:0:0:
226,173,172214,2,0,P|158:207|88:152,1,160,8|8,0:0|0:0,0:0:0:0:
2,310,172743,5,2,0:0:0:0:
81,301,172920,1,8,0:0:0:0:
94,384,173096,1,2,0:0:0:0:
173,375,173273,2,0,P|177:340|208:303,1,80,8|0,0:0|3:0,0:0:0:0:
144,192,173626,5,10,0:0:0:0:
144,192,173802,1,0,3:0:0:0:
178,97,173979,2,0,P|155:66|116:68,2,80,10|0|8,0:0|3:0|0:0,0:0:0:0:
362,201,174508,2,0,P|404:195|448:178,1,80,2|8,0:0|0:0,0:0:0:0:
423,281,174861,1,2,0:0:0:0:
324,63,175038,2,0,B|375:90|407:68|406:65|444:43|494:85,1,160,8|8,0:0|0:0,0:0:0:0:
275,143,175567,5,2,0:0:0:0:
237,241,175743,1,8,0:0:0:0:
124,77,175920,1,2,0:0:0:0:
144,206,176096,2,0,P|99:192|85:158,1,80,8|0,0:0|3:0,0:0:0:0:
263,35,176449,6,0,P|353:63|381:131,1,160,10|8,0:0|0:0,0:0:0:0:
360,292,176979,1,2,0:0:0:0:
266,324,177155,5,8,0:0:0:0:
453,259,177332,1,2,0:0:0:0:
283,226,177508,1,8,0:0:0:0:
435,356,177685,1,2,0:0:0:0:
377,193,177861,6,0,P|372:153|371:110,1,80,8|0,0:0|3:0,0:0:0:0:
249,92,178214,2,0,P|254:51|264:9,1,80,8|0,0:0|3:0,0:0:0:0:
30,70,178567,6,0,P|65:43|115:55,1,80,10|0,0:0|3:0,0:0:0:0:
288,192,178920,2,0,P|253:219|203:207,1,80,10|0,0:0|3:0,0:0:0:0:
94,127,179273,5,8,0:0:0:0:
117,307,179449,1,2,0:0:0:0:
94,127,179626,1,8,0:0:0:0:
140,206,179802,2,0,B|125:224|103:215|104:211|82:201|65:215,2,80,2|8|0,0:0|0:0|0:0,0:0:0:0:
294,371,180332,2,0,B|280:354|290:331|294:332|303:310|283:295,1,80,10|0,0:0|3:0,0:0:0:0:
424,179,180685,2,0,P|422:104|349:87,1,160,10|8,0:0|0:0,0:0:0:0:
181,20,181214,5,2,0:0:0:0:
193,119,181390,2,0,P|231:106|262:72,1,80,10|0,0:0|3:0,0:0:0:0:
59,143,181743,2,0,P|77:107|75:60,1,80,10|0,0:0|3:0,0:0:0:0:
150,282,182096,5,4,3:2:0:0:
150,282,182273,1,0,3:0:0:0:
243,309,182449,6,0,P|238:261|221:209,1,95.9999970703126,10|8,0:0|0:0,0:0:0:0:
59,280,182979,1,2,3:2:0:0:
59,280,183067,1,0,3:0:0:0:
59,280,183155,2,0,P|61:304|70:330,1,47.9999985351563,8|0,0:0|3:0,0:0:0:0:
159,158,183508,5,8,0:0:0:0:
159,158,183685,1,0,3:0:0:0:
146,47,183861,6,0,P|179:73|234:73,1,95.9999970703126,10|8,0:0|0:0,0:0:0:0:
342,13,184390,2,0,P|343:23|352:33,2,23.9999992675781,2|0|8,3:2|3:0|0:0,0:0:0:0:
511,5,184743,1,2,3:2:0:0:
450,79,184920,5,8,0:0:0:0:
450,79,185008,1,0,3:0:0:0:
450,79,185096,1,0,3:0:0:0:
309,123,185273,6,0,P|298:173|255:213,1,95.9999970703126,10|8,0:0|0:0,0:0:0:0:
257,361,185802,2,0,P|239:345|231:322,1,47.9999985351563,2|8,3:2|0:0,0:0:0:0:
146,230,186155,5,2,3:2:0:0:
146,230,186243,1,0,3:0:0:0:
146,230,186332,1,8,0:0:0:0:
21,378,186508,1,0,3:0:0:0:
126,317,186685,6,0,B|103:324|78:303|80:302|59:284|37:288,1,95.9999970703126,10|8,0:0|0:0,0:0:0:0:
7,144,187214,1,2,3:2:0:0:
7,144,187302,1,0,3:0:0:0:
7,144,187390,1,8,0:0:0:0:
151,132,187567,1,0,3:0:0:0:
72,76,187743,6,0,P|67:41|69:8,1,64,8|0,0:0|3:0,0:0:0:0:
207,53,188096,2,0,P|241:48|275:50,1,64,10|0,0:0|3:0,0:0:0:0:
230,188,188449,2,0,P|234:222|233:256,1,64,8|2,0:0|3:2,0:0:0:0:
95,211,188802,2,0,P|60:215|27:214,1,64,8|0,0:0|3:0,0:0:0:0:
128,382,189155,6,0,P|126:349|153:315,1,64,10|0,0:0|3:0,0:0:0:0:
208,367,189508,1,8,0:0:0:0:
350,340,189685,2,0,P|320:325|304:284,1,64,2|8,3:2|0:0,0:0:0:0:
377,263,190038,1,0,3:0:0:0:
424,126,190214,1,10,0:0:0:0:
252,7,190390,1,0,3:0:0:0:
172,181,190567,6,0,L|133:179,1,40,2|0,0:0|0:0,0:0:0:0:
123,291,190743,2,0,L|126:252,1,40,2|0,0:0|0:0,0:0:0:0:
13,242,190920,2,0,L|53:245,1,40,2|0,0:0|0:0,0:0:0:0:
62,132,191096,2,0,L|60:172,1,40,2|0,0:0|0:0,0:0:0:0:
241,281,191273,5,2,0:0:0:0:
280,276,191361,1,2,0:0:0:0:
316,259,191449,1,2,0:0:0:0:
342,229,191538,1,2,0:0:0:0:
354,191,191626,1,2,0:0:0:0:
365,153,191714,1,2,0:0:0:0:
391,123,191802,1,2,0:0:0:0:
427,107,191890,1,2,0:0:0:0:
467,105,191979,1,8,0:3:0:0:
467,105,192508,5,2,0:0:0:0:
467,105,192685,2,0,P|469:69|479:19,1,80,2|2,0:0|0:0,0:0:0:0:
315,8,193038,2,0,P|313:44|303:94,1,80,2|2,0:0|0:0,0:0:0:0:
394,57,193390,5,4,3:2:0:0:
480,256,193567,1,0,3:0:0:0:
281,342,193743,2,0,B|263:286|301:249|306:259|342:214|317:163,1,191.999994140625,2|0,3:2|3:0,0:0:0:0:
103,256,194273,1,2,3:2:0:0:
103,256,194361,1,0,3:0:0:0:
103,256,194449,2,0,B|131:263|138:288|132:288|143:315|171:317,1,95.9999970703126,0|0,3:0|3:0,0:0:0:0:
285,55,194802,2,0,B|245:99|194:85|200:75|143:67|111:114,1,191.999994140625,2|0,3:2|3:0,0:0:0:0:
18,251,195332,5,2,0:0:0:0:
4,370,195508,1,2,3:2:0:0:
123,384,195685,1,0,0:0:0:0:
256,279,195861,1,2,3:2:0:0:
137,265,196038,1,0,0:0:0:0:
372,321,196214,5,0,3:0:0:0:
360,223,196390,1,0,3:0:0:0:
401,60,196567,2,0,P|456:63|490:179,1,191.999994140625,2|0,3:2|3:0,0:0:0:0:
256,157,197096,1,2,3:2:0:0:
256,157,197185,1,0,3:0:0:0:
256,157,197273,2,0,P|257:129|315:112,1,95.9999970703126,8|0,0:0|3:0,0:0:0:0:
142,241,197626,2,0,B|161:193|120:150|120:158|66:118|90:66,1,191.999994140625,2|0,3:2|3:0,0:0:0:0:
332,14,198155,5,2,0:0:0:0:
219,141,198332,1,2,3:2:0:0:
223,45,198508,1,0,3:0:0:0:
415,145,198685,1,2,3:2:0:0:
419,241,198861,1,0,3:0:0:0:
252,361,199038,5,0,3:0:0:0:
134,279,199214,1,0,3:0:0:0:
264,217,199390,2,0,P|254:144|236:26,1,191.999994140625,2|0,3:2|3:0,0:0:0:0:
151,143,199920,1,2,3:2:0:0:
151,143,200008,1,0,3:0:0:0:
151,143,200096,2,0,P|101:130|80:92,1,95.9999970703126,0|0,3:0|3:0,0:0:0:0:
349,101,200449,2,0,B|418:105|429:152|424:153|433:200|506:203,1,191.999994140625,2|0,3:2|3:0,0:0:0:0:
375,282,200979,5,2,0:0:0:0:
178,227,201155,1,2,3:2:0:0:
162,369,201332,1,0,3:0:0:0:
97,145,201508,1,2,3:2:0:0:
113,287,201685,1,0,3:0:0:0:
239,129,201861,5,0,3:0:0:0:
255,271,202038,1,0,3:0:0:0:
58,220,202214,2,0,P|10:210|12:87,1,191.999994140625,2|0,3:2|3:0,0:0:0:0:
217,29,202743,1,2,3:2:0:0:
217,29,202832,1,0,3:0:0:0:
217,29,202920,2,0,P|175:44|121:54,1,95.9999970703126,0|0,3:0|3:0,0:0:0:0:
175,257,203273,2,0,B|228:244|257:285|250:290|290:333|348:311,1,191.999994140625,2|0,3:2|3:0,0:0:0:0:
512,192,203802,5,2,0:0:0:0:
323,234,203979,1,2,3:2:0:0:
219,173,204155,1,0,3:0:0:0:
380,27,204332,1,2,3:2:0:0:
319,131,204508,1,0,3:0:0:0:
119,132,204685,6,0,P|107:90|57:50,1,95.9999970703126,4|0,3:2|3:0,0:0:0:0:
11,294,205038,1,10,0:0:0:0:
11,294,205126,1,0,3:0:0:0:
11,294,205214,2,0,P|53:281|93:231,1,95.9999970703126,0|0,3:0|3:0,0:0:0:0:
289,313,205567,1,2,3:2:0:0:
289,313,205655,1,0,3:0:0:0:
289,313,205743,1,8,0:0:0:0:
73,364,205920,1,0,3:0:0:0:
179,377,206096,2,0,B|142:318|179:285|185:286|220:240|190:199,1,191.999994140625,2|8,3:2|0:0,0:0:0:0:
164,35,206626,5,2,0:0:0:0:
34,140,206802,1,2,3:2:0:0:
132,125,206979,1,0,3:0:0:0:
301,212,207155,1,10,0:0:0:0:
399,197,207332,1,0,3:0:0:0:
512,130,207508,6,0,P|465:120|446:70,1,95.9999970703126,0|0,3:0|3:0,0:0:0:0:
324,25,207861,1,10,0:0:0:0:
324,25,207949,1,0,3:0:0:0:
324,25,208038,2,0,P|335:72|338:120,1,95.9999970703126,0|0,3:0|3:0,0:0:0:0:
437,320,208390,1,2,3:2:0:0:
437,320,208479,1,0,3:0:0:0:
437,320,208567,1,8,0:0:0:0:
246,295,208743,1,0,3:0:0:0:
401,230,208920,2,0,B|345:243|339:299|349:298|345:354|282:368,1,191.999994140625,2|8,3:2|0:0,0:0:0:0:
129,354,209449,5,2,0:0:0:0:
72,142,209626,1,2,3:2:0:0:
129,354,209802,1,0,3:0:0:0:
262,281,209979,1,10,0:0:0:0:
167,263,210155,1,0,3:0:0:0:
204,22,210332,6,0,B|165:71|222:104|224:98|272:128|230:189,1,191.999994140625,2|8,3:2|0:0,0:0:0:0:
40,232,210861,1,2,0:0:0:0:
37,86,211038,5,2,3:2:0:0:
127,115,211214,1,0,3:0:0:0:
324,207,211390,1,10,0:0:0:0:
280,342,211567,1,0,3:0:0:0:
145,298,211743,6,0,P|121:262|133:203,1,95.9999970703126,0|0,3:0|3:0,0:0:0:0:
253,113,212096,2,0,P|250:69|290:24,1,95.9999970703126,8|0,0:0|3:0,0:0:0:0:
56,145,212449,6,0,P|96:123|155:121,1,95.9999970703126,2|0,3:2|3:0,0:0:0:0:
372,89,212802,2,0,P|415:101|458:142,1,95.9999970703126,10|0,0:0|3:0,0:0:0:0:
387,332,213155,5,0,3:0:0:0:
197,364,213332,1,0,3:0:0:0:
275,242,213508,1,10,0:0:0:0:
176,40,213685,2,0,P|265:57|285:146,1,191.999994140625,0|0,3:0|3:0,0:0:0:0:
437,181,214214,2,0,P|407:215|363:201,1,95.9999970703126,10|0,0:0|3:0,0:0:0:0:
148,171,214567,2,0,B|107:148|86:182|89:186|61:220|9:203,1,143.999995605469,0|0,3:0|0:0,0:0:0:0:
18,205,214920,5,8,0:0:0:0:
229,226,215096,1,2,3:2:0:0:
203,89,215273,1,0,3:0:0:0:
203,89,215361,1,0,3:0:0:0:
203,89,215449,1,0,3:0:0:0:
360,32,215626,2,0,P|326:65|311:110,1,95.9999970703126,10|0,0:0|3:0,0:0:0:0:
293,323,215979,6,0,B|333:301|367:337|368:341|406:370|449:341,1,160,6|8,3:2|0:0,0:0:0:0:
372,234,216508,2,0,L|369:195,2,40,0|0|2,3:0|3:0|3:2,0:0:0:0:
470,212,216861,1,0,3:0:0:0:
270,216,217038,2,0,P|270:178|238:148,1,80,10|0,0:0|3:0,0:0:0:0:
420,98,217390,6,0,P|349:80|267:15,1,160,2|8,3:2|0:0,0:0:0:0:
127,80,217920,1,0,3:0:0:0:
30,107,218096,2,0,P|21:75|47:26,1,80,2|0,3:2|3:0,0:0:0:0:
186,216,218449,2,0,P|194:183|241:154,1,80,8|0,0:0|3:0,0:0:0:0:
5,238,218802,6,0,B|51:256|48:299|52:298|46:346|89:366,1,160,2|8,3:2|0:0,0:0:0:0:
171,308,219332,1,0,3:0:0:0:
345,357,219508,5,2,3:2:0:0:
413,258,219685,1,0,3:0:0:0:
464,366,219861,1,8,0:0:0:0:
294,249,220038,6,0,P|231:229|214:137,1,160,2|0,0:0|3:0,0:0:0:0:
225,45,220567,1,8,0:0:0:0:
361,191,220743,2,0,P|346:126|417:65,1,160,2|0,0:0|3:0,0:0:0:0:
502,28,221273,1,8,0:0:0:0:
452,227,221449,5,0,3:0:0:0:
452,227,221538,1,0,3:0:0:0:
452,227,221626,2,0,P|452:265|462:318,1,80,2|0,3:2|3:0,0:0:0:0:
291,354,221979,2,0,P|253:354|200:364,1,80,8|0,0:0|3:0,0:0:0:0:
363,192,222332,2,0,P|363:260|380:355,1,160,2|8,3:2|0:0,0:0:0:0:
249,248,222861,1,0,3:0:0:0:
82,238,223038,6,0,P|121:246|152:272,1,80,0|0,3:0|3:0,0:0:0:0:
258,81,223390,2,0,P|250:120|225:151,1,80,10|0,0:0|3:0,0:0:0:0:
273,346,223743,5,2,3:2:0:0:
348,224,223920,1,0,3:0:0:0:
134,380,224096,5,10,0:0:0:0:
12,305,224273,1,0,3:0:0:0:
116,205,224449,5,2,3:2:0:0:
113,185,224538,1,0,3:0:0:0:
111,165,224626,1,0,3:0:0:0:
109,145,224714,1,0,3:0:0:0:
107,125,224802,2,0,L|103:84,3,40,8|0|0|0,0:0|0:0|3:0|3:0,0:0:0:0:
166,46,225155,5,2,3:2:0:0:
200,27,225243,1,0,3:0:0:0:
239,19,225332,1,0,3:0:0:0:
279,23,225420,1,0,3:0:0:0:
314,43,225508,1,8,0:0:0:0:
349,62,225596,1,0,3:0:0:0:
387,69,225685,1,0,3:0:0:0:
427,61,225773,1,0,3:0:0:0:
461,41,225861,5,6,3:2:0:0:
51,343,227273,1,6,3:2:0:0:
256,192,227449,12,2,232920,3:2:0:0:
299,208,238567,6,0,P|334:189|351:147,1,80,10|0,0:0|3:0,0:0:0:0:
285,24,238920,2,0,P|303:58|339:75,1,80,8|0,0:0|3:0,0:0:0:0:
469,10,239273,2,0,P|434:28|417:64,1,80,8|0,0:0|3:0,0:0:0:0:
483,194,239626,2,0,P|464:159|428:142,1,80,8|0,0:0|3:0,0:0:0:0:
213,176,239979,6,0,P|178:195|161:237,1,80,8|0,0:0|3:0,0:0:0:0:
227,360,240332,2,0,P|208:325|172:308,1,80,8|0,0:0|3:0,0:0:0:0:
43,374,240685,2,0,P|77:355|94:319,1,80,10|0,0:0|3:0,0:0:0:0:
29,190,241038,2,0,P|47:224|83:241,1,80,8|0,0:0|3:0,0:0:0:0:
321,314,241390,5,10,0:0:0:0:
321,314,241567,1,0,3:0:0:0:
321,314,241743,2,0,P|358:310|398:293,1,80,8|0,0:0|3:0,0:0:0:0:
378,127,242096,1,8,0:0:0:0:
378,127,242273,1,0,3:0:0:0:
378,127,242449,2,0,P|374:90|357:50,1,80,8|0,0:0|3:0,0:0:0:0:
191,70,242802,5,8,0:0:0:0:
191,70,242979,1,0,3:0:0:0:
191,70,243155,2,0,P|154:74|114:91,1,80,8|0,0:0|3:0,0:0:0:0:
134,257,243508,1,10,0:0:0:0:
134,257,243685,1,0,3:0:0:0:
134,257,243861,2,0,P|138:294|155:334,1,80,8|0,0:0|3:0,0:0:0:0:
308,227,244214,6,0,P|314:203|328:191,3,40,10|0|0|0,0:0|3:0|3:0|3:0,0:0:0:0:
317,119,244567,2,0,P|340:112|358:118,3,40,8|0|0|0,0:0|3:0|3:0|3:0,0:0:0:0:
415,72,244920,2,0,P|432:89|436:107,3,40,8|0|0|0,0:0|3:0|3:0|3:0,0:0:0:0:
504,133,245273,2,0,P|498:157|483:169,3,40,8|0|0|0,0:0|3:0|3:0|3:0,0:0:0:0:
495,242,245626,6,0,L|453:242,3,40,8|0|0|0,0:0|3:0|3:0|3:0,0:0:0:0:
402,294,245979,2,0,L|362:293,3,40,8|0|0|0,0:0|3:0|3:0|3:0,0:0:0:0:
309,242,246332,2,0,L|267:242,3,40,10|0|0|0,0:0|3:0|3:0|3:0,0:0:0:0:
216,294,246685,2,0,L|176:293,3,40,8|0|0|0,0:0|3:0|3:0|3:0,0:0:0:0:
123,242,247038,5,10,0:0:0:0:
110,226,247126,1,0,3:0:0:0:
94,214,247214,1,0,3:0:0:0:
76,207,247302,1,0,3:0:0:0:
56,206,247390,2,0,P|44:216|40:246,3,40,8|0|0|0,0:0|3:0|3:0|3:0,0:0:0:0:
76,303,247743,5,8,0:0:0:0:
103,274,247832,1,0,3:0:0:0:
125,241,247920,1,0,3:0:0:0:
140,204,248008,1,0,3:0:0:0:
148,164,248096,1,8,0:0:0:0:
148,124,248185,1,0,3:0:0:0:
140,85,248273,1,0,3:0:0:0:
125,48,248361,1,0,3:0:0:0:
103,15,248449,5,4,3:2:0:0:
103,15,249861,1,2,0:0:0:0:
