osu file format v14

[General]
AudioFilename: audio.mp3
AudioLeadIn: 0
PreviewTime: 90685
Countdown: 0
SampleSet: Soft
StackLeniency: 0.7
Mode: 0
LetterboxInBreaks: 0
WidescreenStoryboard: 1

[Editor]
Bookmarks: 12685,23979,35273,46567,57861,69155,80449,91743,103038,114332,125626,136920,148214,159508,170802,182096,193390,204685,215979,227273,238567,249861
DistanceSpacing: 1.56
BeatDivisor: 4
GridSize: 4
TimelineZoom: 1.3

[Metadata]
Title:Your Voice
TitleUnicode:Your Voice
Artist:Alkome
ArtistUnicode:Alkome
Creator:Hinsvar
Version:Hard
Source:
Tags:Electronic English Happy UK Hardcore UKHC Dive/Art:City 2019 rayshock.net Featured Artist FA Mappers' Guild MG MPG
BeatmapID:4514655
BeatmapSetID:2143876

[Difficulty]
HPDrainRate:4
CircleSize:3.5
OverallDifficulty:6
ApproachRate:8
SliderMultiplier:1.36
SliderTickRate:1

[Events]
//Background and Video events
0,0,"BG.jpg",0,0
//Break Periods
2,27002,34523
2,128649,136170
2,165355,169170
2,233120,237817
//Storyboard Layer 0 (Background)
//Storyboard Layer 1 (Fail)
//Storyboard Layer 2 (Pass)
//Storyboard Layer 3 (Foreground)
//Storyboard Layer 4 (Overlay)
//Storyboard Sound Samples

[TimingPoints]
1391,352.941176470588,4,2,1,70,1,0
18332,-100,4,2,1,60,0,0
19743,-100,4,2,1,65,0,0
21155,-100,4,2,1,70,0,0
35273,-142.857142857143,4,2,1,50,0,0
46567,-125,4,2,1,55,0,0
57861,-111.111111111111,4,2,1,60,0,0
69155,-100,4,2,1,70,0,0
80449,-125,4,2,1,70,0,0
86096,-111.111111111111,4,2,1,70,0,0
88920,-100,4,2,1,70,0,0
91743,-90.9090909090909,4,2,1,75,0,1
103038,-90.9090909090909,4,2,2,80,0,1
114332,-100,4,2,2,80,0,0
136920,-142.857142857143,4,2,1,50,0,0
148214,-125,4,2,1,55,0,0
159508,-111.111111111111,4,2,1,60,0,0
170802,-100,4,2,1,70,0,0
182096,-125,4,2,1,70,0,0
187743,-111.111111111111,4,2,1,70,0,0
190567,-100,4,2,1,70,0,0
193390,-90.9090909090909,4,2,1,80,0,1
204685,-90.9090909090909,4,2,2,80,0,1
215979,-100,4,2,2,70,0,0
238567,-100,4,2,1,70,0,0
244214,-100,4,2,1,60,0,0
245626,-100,4,2,1,65,0,0
247038,-100,4,2,1,70,0,0

[Colours]
Combo1 : 218,171,233
Combo2 : 107,239,226
Combo3 : 238,115,155
Combo4 : 87,153,234

[HitObjects]
325,366,12685,6,0,P|358:367|389:349,1,68,10|0,0:0|3:0,0:0:0:0:
470,330,13038,2,0,P|471:297|453:266,1,68,8|0,0:0|3:0,0:0:0:0:
434,185,13390,2,0,P|401:184|370:202,1,68,8|0,0:0|3:0,0:0:0:0:
289,221,13743,2,0,P|288:254|306:285,1,68,8|0,0:0|3:0,0:0:0:0:
242,341,14096,2,0,P|213:323|178:323,1,68,8|0,0:0|3:0,0:0:0:0:
161,240,14449,2,0,P|190:224|207:193,1,68,8|0,0:0|3:0,0:0:0:0:
146,135,14802,2,0,P|116:150|99:181,2,68,10|0|8,0:0|3:0|0:0,0:0:0:0:
281,32,15508,5,10,0:0:0:0:
366,26,15685,1,0,3:0:0:0:
450,21,15861,2,0,B|468:68|450:92|445:89|429:107|445:152,1,136,8|8,0:0|0:0,0:0:0:0:
495,220,16390,1,0,3:0:0:0:
500,304,16567,2,0,B|452:322|428:304|431:299|413:283|368:299,1,136,8|8,0:0|0:0,0:0:0:0:
284,305,17096,1,0,3:0:0:0:
200,310,17273,2,0,B|181:262|199:238|204:241|220:223|204:178,1,136,8|10,0:0|0:0,0:0:0:0:
155,111,17802,1,0,3:0:0:0:
150,27,17979,1,8,0:0:0:0:
2,112,18332,6,0,P|0:151|29:182,1,68,10|0,0:0|3:0,0:0:0:0:
18,258,18685,2,0,P|44:286|86:288,1,68,8|0,0:0|3:0,0:0:0:0:
132,349,19038,2,0,P|171:351|202:322,1,68,8|0,0:0|3:0,0:0:0:0:
278,333,19390,2,0,P|306:306|308:264,1,68,8|0,0:0|3:0,0:0:0:0:
369,219,19743,6,0,L|366:181,3,34,8|0|0|0,0:0|3:0|3:0|3:0,0:0:0:0:
342,161,20096,2,0,L|267:166,1,68,8|0,0:0|3:0,0:0:0:0:
238,88,20449,2,0,L|200:90,3,34,10|0|0|0,0:0|3:0|3:0|3:0,0:0:0:0:
180,115,20802,2,0,L|185:190,1,68,8|0,0:0|3:0,0:0:0:0:
107,219,21155,6,0,L|109:256,3,34,10|0|0|0,0:0|3:0|3:0|3:0,0:0:0:0:
134,277,21508,2,0,L|171:274,3,34,8|0|0|0,0:0|3:0|3:0|3:0,0:0:0:0:
191,298,21861,2,0,L|224:295,3,34,8|0|0|0,0:0|3:0|3:0|3:0,0:0:0:0:
249,320,22214,2,0,L|251:353,3,34,8|0|0|0,0:0|3:0|3:0|3:0,0:0:0:0:
276,378,22567,5,4,3:2:0:0:
236,6,23979,1,2,3:2:0:0:
256,192,24155,12,0,26802,0:0:0:0:
256,192,35273,5,0,3:0:0:0:
256,192,35979,2,0,P|266:153|244:94,1,95.1999970947267,2|0,0:0|0:0,0:0:0:0:
102,16,36685,2,0,P|45:73|24:197,1,190.399994189453,2|2,0:0|0:0,0:0:0:0:
309,355,38096,6,0,B|350:329|343:295|343:297|335:255|385:229,2,142.79999564209,2|2|0,0:0|0:0|0:0,0:0:0:0:
139,359,39508,2,0,B|142:299|88:280|91:281|47:267|44:202,1,190.399994189453,2|2,0:0|0:0,0:0:0:0:
336,31,40920,6,0,P|406:21|509:88,1,190.399994189453,2|0,0:0|0:0,0:0:0:0:
504,254,41979,1,2,0:0:0:0:
504,254,42332,2,0,P|434:264|331:197,1,190.399994189453,2|2,0:0|0:0,0:0:0:0:
42,33,43743,5,2,0:0:0:0:
42,33,44096,2,0,P|3:107|46:202,1,190.399994189453,2|0,0:0|0:0,0:0:0:0:
212,199,45155,2,0,P|250:124|207:29,1,190.399994189453,2|2,0:0|0:0,0:0:0:0:
133,363,46567,5,8,0:3:0:0:
133,363,46920,2,0,P|148:340|180:331,1,54.4,2|8,0:0|0:3,0:0:0:0:
243,284,47273,2,0,P|297:286|345:333,1,108.8,2|8,0:0|0:3,0:0:0:0:
504,356,47979,1,2,0:0:0:0:
511,271,48155,1,8,0:3:0:0:
455,205,48332,2,0,B|451:167|437:152|434:155|418:134|419:99,2,108.8,8|2|8,0:3|0:0|0:3,0:0:0:0:
290,247,49390,5,2,0:0:0:0:
290,247,49743,2,0,L|231:231,1,54.4,8|2,0:3|0:0,0:0:0:0:
165,186,50096,1,2,0:0:0:0:
109,250,50273,1,8,0:3:0:0:
53,314,50449,2,0,P|19:287|14:210,1,108.8,8|2,0:3|0:0,0:0:0:0:
6,139,50979,2,0,P|5:109|1:81,2,54.4,8|8|2,0:3|0:3|0:0,0:0:0:0:
91,135,51508,2,0,P|83:81|82:26,1,108.8,2|8,0:0|0:3,0:0:0:0:
252,26,52214,6,0,P|318:37|347:79,1,108.8,2|8,0:0|0:3,0:0:0:0:
357,151,52743,2,0,P|279:171|235:238,1,163.2,8|8,0:3|0:3,0:0:0:0:
235,236,53979,1,8,0:3:0:0:
289,300,54155,1,8,0:3:0:0:
374,302,54332,2,0,P|378:255|362:187,1,108.8,2|8,0:0|0:3,0:0:0:0:
312,36,55038,6,0,P|383:42|485:18,2,163.2,2|8|8,0:0|0:3|0:3,0:0:0:0:
159,109,56449,1,0,3:0:0:0:
159,109,56979,6,0,L|157:50,2,54.4,2|2|2,0:0|0:0|0:0,0:0:0:0:
74,116,57508,2,0,L|75:170,1,54.4,2|2,0:0|0:0,0:0:0:0:
79,256,57861,5,2,3:2:0:0:
162,274,58038,1,2,0:0:0:0:
207,345,58214,2,0,P|272:332|323:285,1,122.399996264649,2|0,0:0|0:0,0:0:0:0:
294,213,58743,2,0,P|243:169|223:103,1,122.399996264649,2|0,0:0|0:0,0:0:0:0:
266,42,59273,1,2,0:0:0:0:
462,234,59802,6,0,P|496:220|518:190,2,61.1999981323243,2|2|2,0:0|0:0|0:0,0:0:0:0:
449,319,60332,1,2,0:0:0:0:
385,376,60508,6,0,P|329:366|309:301,1,122.399996264649,2|0,0:0|0:0,0:0:0:0:
274,229,61038,2,0,P|220:248|170:202,1,122.399996264649,2|0,0:0|0:0,0:0:0:0:
104,157,61567,2,0,P|67:200|1:185,1,122.399996264649,2|0,0:0|0:0,0:0:0:0:
31,108,62096,1,2,0:0:0:0:
31,108,62626,6,0,P|26:76|10:45,2,61.1999981323243,2|2|2,0:0|0:0|0:0,0:0:0:0:
110,75,63155,1,0,0:0:0:0:
179,24,63332,6,0,B|210:14|238:36|235:41|264:62|311:49,1,122.399996264649,2|0,0:0|0:0,0:0:0:0:
370,91,63861,2,0,B|400:100|429:79|426:74|454:52|485:62,1,122.399996264649,2|0,0:0|0:0,0:0:0:0:
504,146,64390,2,0,B|474:136|446:158|449:163|420:184|389:174,1,122.399996264649,2|0,0:0|0:0,0:0:0:0:
306,149,64920,1,2,0:0:0:0:
306,149,65449,6,0,P|277:144|241:162,2,61.1999981323243,2|2|2,0:0|0:0|0:0,0:0:0:0:
287,233,65979,1,2,0:0:0:0:
211,273,66155,6,0,P|214:337|262:361,1,122.399996264649,2|0,0:0|0:0,0:0:0:0:
347,362,66685,2,0,P|411:359|435:311,1,122.399996264649,2|0,0:0|0:0,0:0:0:0:
436,226,67214,2,0,P|433:162|385:138,1,122.399996264649,2|0,0:0|0:0,0:0:0:0:
300,137,67743,1,2,0:0:0:0:
300,137,68273,6,0,P|267:135|241:115,2,61.1999981323243,2|2|2,0:0|0:0|0:0,0:0:0:0:
325,55,68802,2,0,P|299:38|269:37,1,61.1999981323243,2|2,0:0|0:0,0:0:0:0:
186,54,69155,5,14,0:0:0:0:
112,97,69332,1,0,3:0:0:0:
31,71,69508,2,0,P|5:144|42:191,1,136,10|8,0:0|0:0,0:0:0:0:
92,251,70038,2,0,L|170:256,1,68,2|8,0:0|0:0,0:0:0:0:
222,198,70390,1,2,0:0:0:0:
306,185,70567,2,0,P|338:241|310:301,1,136,8|8,0:0|0:0,0:0:0:0:
233,338,71096,6,0,P|202:353|181:391,2,68,2|8|2,0:0|0:0|0:0,0:0:0:0:
178,271,71626,2,0,P|147:255|126:218,1,68,8|0,0:0|3:0,0:0:0:0:
96,149,71979,5,8,0:0:0:0:
91,64,72155,1,0,3:0:0:0:
176,59,72332,2,0,B|218:66|231:97|229:102|237:128|282:136,1,136,10|8,0:0|0:0,0:0:0:0:
357,96,72861,2,0,P|351:68|358:27,1,68,2|8,0:0|0:0,0:0:0:0:
442,29,73214,1,2,0:0:0:0:
508,81,73390,2,0,B|501:123|470:136|465:134|439:142|431:187,1,136,8|8,0:0|0:0,0:0:0:0:
362,237,73920,6,0,L|290:234,2,68,2|8|2,0:0|0:0|0:0,0:0:0:0:
359,322,74449,2,0,L|287:319,1,68,8|0,0:0|3:0,0:0:0:0:
210,348,74802,6,0,P|149:370|86:338,1,136,10|8,0:0|0:0,0:0:0:0:
29,278,75332,1,2,0:0:0:0:
91,219,75508,2,0,P|96:185|91:150,1,68,8|2,0:0|0:0,0:0:0:0:
90,66,75861,1,8,0:0:0:0:
175,65,76038,1,2,0:0:0:0:
260,64,76214,6,0,L|318:26,1,68,8|0,0:0|3:0,0:0:0:0:
402,27,76567,2,0,L|463:58,1,68,8|0,0:0|3:0,0:0:0:0:
458,142,76920,2,0,L|400:180,1,68,10|0,0:0|3:0,0:0:0:0:
316,179,77273,2,0,L|254:147,1,68,10|0,0:0|3:0,0:0:0:0:
179,108,77626,6,0,P|146:104|107:115,1,68,8|2,0:0|0:0,0:0:0:0:
31,125,77979,1,8,0:0:0:0:
44,206,78155,2,0,B|88:195|106:223|106:226|124:255|181:244,1,136,2|0,0:0|3:0,0:0:0:0:
248,215,78685,2,0,P|251:181|256:137,1,68,10|0,0:0|3:0,0:0:0:0:
334,116,79038,2,0,B|378:107|396:136|396:139|414:167|458:156,1,136,10|8,0:0|0:0,0:0:0:0:
504,222,79567,6,0,P|516:259|510:285,2,68,2|10|0,0:0|0:0|3:0,0:0:0:0:
423,236,80096,2,0,P|416:268|429:300,1,68,10|0,0:0|3:0,0:0:0:0:
483,366,80449,5,4,3:2:0:0:
311,357,80802,2,0,P|258:349|205:327,1,108.8,10|8,0:0|0:0,0:0:0:0:
235,247,81332,2,0,P|261:243|288:232,2,54.4,2|8|0,3:2|0:0|3:0,0:0:0:0:
150,257,81861,1,8,0:0:0:0:
85,312,82038,1,0,3:0:0:0:
30,247,82214,2,0,P|32:196|24:130,1,108.8,10|8,0:0|0:0,0:0:0:0:
104,107,82743,2,0,P|103:81|107:48,1,54.4,2|8,3:2|0:0,0:0:0:0:
181,14,83096,1,2,3:2:0:0:
266,10,83273,5,8,0:0:0:0:
357,151,83626,2,0,P|402:168|480:177,1,108.8,10|8,0:0|0:0,0:0:0:0:
477,260,84155,2,0,P|458:275|434:306,1,54.4,2|8,3:2|0:0,0:0:0:0:
394,370,84508,1,2,3:2:0:0:
312,350,84685,5,8,0:0:0:0:
305,265,84861,1,0,3:0:0:0:
383,232,85038,2,0,P|395:181|353:142,1,108.8,10|8,0:0|0:0,0:0:0:0:
281,107,85567,2,0,P|262:88|268:62,1,54.4,2|8,3:2|0:0,0:0:0:0:
335,9,85920,1,2,3:2:0:0:
420,16,86096,6,0,L|465:14,2,30.5999990661621,8|0|0,0:0|3:0|3:0,0:0:0:0:
448,117,86449,1,10,0:0:0:0:
448,117,86538,1,0,3:0:0:0:
448,117,86626,2,0,L|538:113,1,61.1999981323243,0|0,3:0|3:0,0:0:0:0:
486,202,86979,1,2,3:2:0:0:
489,287,87155,2,0,L|491:332,2,30.5999990661621,8|0|0,0:0|3:0|3:0,0:0:0:0:
410,252,87508,5,10,0:0:0:0:
410,252,87596,1,0,3:0:0:0:
410,252,87685,2,0,P|380:239|347:229,1,61.1999981323243,0|8,3:0|0:0,0:0:0:0:
281,193,88038,1,2,3:2:0:0:
281,193,88126,1,0,3:0:0:0:
281,193,88214,2,0,P|251:205|218:216,1,61.1999981323243,8|0,0:0|3:0,0:0:0:0:
138,222,88567,2,0,P|126:211|114:202,2,30.5999990661621,10|0|0,0:0|3:0|3:0,0:0:0:0:
186,291,88920,6,0,P|198:323|183:356,1,68,2|2,0:0|0:0,0:0:0:0:
101,366,89273,1,2,0:0:0:0:
15,373,89449,1,2,0:0:0:0:
8,287,89626,6,0,P|17:269|38:263,3,34,2|2|2|2,0:0|0:0|0:0|0:0,0:0:0:0:
27,228,89979,2,0,P|9:219|3:198,3,34,2|2|2|2,0:0|0:0|0:0|0:0,0:0:0:0:
16,175,90332,1,8,0:3:0:0:
16,175,90861,6,0,P|18:142|13:105,2,68,2|2|2,0:0|0:0|0:0,0:0:0:0:
100,185,91390,2,0,P|133:180|167:182,1,68,2|2,0:0|0:0,0:0:0:0:
177,98,91743,5,4,3:2:0:0:
243,32,91920,1,0,3:0:0:0:
326,74,92096,2,0,P|390:63|458:118,1,149.60000456543,2|0,3:2|3:0,0:0:0:0:
400,190,92626,1,2,3:2:0:0:
400,190,92714,1,0,3:0:0:0:
400,190,92802,2,0,P|368:195|334:168,1,74.8000022827149,0|0,3:0|3:0,0:0:0:0:
251,211,93155,2,0,B|279:257|259:285|253:286|228:317|265:365,1,149.60000456543,2|0,3:2|3:0,0:0:0:0:
346,322,93685,5,2,0:0:0:0:
428,364,93861,2,0,P|468:364|494:323,1,74.8000022827149,2|0,3:2|3:0,0:0:0:0:
504,247,94214,2,0,P|504:207|463:181,1,74.8000022827149,2|0,3:2|3:0,0:0:0:0:
387,171,94567,5,0,3:0:0:0:
315,230,94743,1,0,3:0:0:0:
227,197,94920,2,0,B|183:221|154:193|156:189|129:156|78:184,1,149.60000456543,2|0,3:2|3:0,0:0:0:0:
32,109,95449,1,2,3:2:0:0:
32,109,95538,1,0,3:0:0:0:
32,109,95626,2,0,B|20:87|34:72|36:73|52:60|38:34,1,74.8000022827149,0|0,3:0|3:0,0:0:0:0:
132,16,95979,2,0,P|193:19|255:83,1,149.60000456543,2|0,3:2|3:0,0:0:0:0:
315,149,96508,5,2,0:0:0:0:
408,157,96685,2,0,P|399:193|374:220,1,74.8000022827149,2|0,3:2|3:0,0:0:0:0:
290,261,97038,2,0,P|315:288|323:324,1,74.8000022827149,2|0,3:2|3:0,0:0:0:0:
247,378,97390,5,0,3:0:0:0:
153,366,97567,1,0,3:0:0:0:
60,355,97743,2,0,B|86:312|61:287|58:287|27:256|63:215,1,149.60000456543,2|0,3:2|3:0,0:0:0:0:
159,255,98273,1,2,3:2:0:0:
159,255,98361,1,0,3:0:0:0:
159,255,98449,2,0,B|146:233|158:221|160:221|175:205|157:185,1,74.8000022827149,0|0,3:0|3:0,0:0:0:0:
247,158,98802,2,0,P|290:119|295:22,1,149.60000456543,2|0,3:2|3:0,0:0:0:0:
205,42,99332,5,2,0:0:0:0:
114,18,99508,2,0,P|81:19|38:24,1,74.8000022827149,2|0,3:2|3:0,0:0:0:0:
44,117,99861,2,0,P|45:150|50:193,1,74.8000022827149,2|0,3:2|3:0,0:0:0:0:
143,187,100214,5,0,3:0:0:0:
213,251,100390,1,0,3:0:0:0:
217,345,100567,2,0,B|263:323|286:349|287:357|311:383|364:360,1,149.60000456543,2|0,3:2|3:0,0:0:0:0:
341,270,101096,1,2,3:2:0:0:
341,270,101185,1,0,3:0:0:0:
341,270,101273,2,0,P|334:240|337:195,1,74.8000022827149,0|0,3:0|3:0,0:0:0:0:
361,105,101626,2,0,B|314:84|291:110|290:117|266:144|220:122,1,149.60000456543,2|0,3:2|3:0,0:0:0:0:
133,91,102155,5,2,0:0:0:0:
205,32,102332,2,0,P|239:21|283:12,1,74.8000022827149,2|0,3:2|3:0,0:0:0:0:
370,10,102685,2,0,P|404:17|447:31,1,74.8000022827149,2|0,3:2|3:0,0:0:0:0:
461,121,103038,6,0,P|470:159|515:172,1,74.8000022827149,4|0,3:2|3:0,0:0:0:0:
512,274,103390,1,10,0:0:0:0:
512,274,103479,1,0,3:0:0:0:
512,274,103567,2,0,P|479:277|434:286,1,74.8000022827149,0|0,3:0|3:0,0:0:0:0:
380,359,103920,1,2,3:2:0:0:
380,359,104008,1,0,3:0:0:0:
380,359,104096,1,8,0:0:0:0:
346,271,104273,1,0,3:0:0:0:
404,198,104449,2,0,P|386:122|296:96,1,149.60000456543,2|8,3:2|0:0,0:0:0:0:
251,150,104979,5,2,0:0:0:0:
172,99,105155,2,0,P|172:60|166:21,1,74.8000022827149,2|0,3:2|3:0,0:0:0:0:
73,30,105508,1,10,0:0:0:0:
34,115,105685,1,0,3:0:0:0:
88,191,105861,6,0,P|122:190|168:207,1,74.8000022827149,0|0,3:0|3:0,0:0:0:0:
224,285,106214,1,10,0:0:0:0:
224,285,106302,1,0,3:0:0:0:
224,285,106390,2,0,L|260:216,1,74.8000022827149,0|0,3:0|3:0,0:0:0:0:
275,126,106743,1,2,3:2:0:0:
275,126,106832,1,0,3:0:0:0:
275,126,106920,1,8,0:0:0:0:
346,187,107096,1,0,3:0:0:0:
397,107,107273,2,0,P|469:98|486:164,1,149.60000456543,2|8,3:2|0:0,0:0:0:0:
432,236,107802,5,2,0:0:0:0:
454,326,107979,2,0,P|412:334|380:350,1,74.8000022827149,2|0,3:2|3:0,0:0:0:0:
292,325,108332,1,10,0:0:0:0:
210,279,108508,1,0,3:0:0:0:
290,230,108685,6,0,B|264:185|299:161|303:166|337:136|308:78,1,149.60000456543,2|8,3:2|0:0,0:0:0:0:
221,105,109214,1,0,3:0:0:0:
143,156,109390,2,0,P|109:169|77:153,1,74.8000022827149,2|0,3:2|3:0,0:0:0:0:
2,94,109743,1,10,0:0:0:0:
60,20,109920,1,0,3:0:0:0:
153,8,110096,6,0,L|235:13,1,74.8000022827149,0|0,3:0|3:0,0:0:0:0:
308,60,110449,2,0,L|390:65,1,74.8000022827149,8|0,0:0|3:0,0:0:0:0:
375,158,110802,2,0,L|293:153,1,74.8000022827149,2|0,3:2|3:0,0:0:0:0:
220,106,111155,2,0,L|138:101,1,74.8000022827149,10|0,0:0|3:0,0:0:0:0:
156,194,111508,5,0,3:0:0:0:
214,267,111685,1,0,3:0:0:0:
179,353,111861,1,10,0:0:0:0:
121,280,112038,2,0,P|60:295|17:231,1,149.60000456543,0|0,3:0|3:0,0:0:0:0:
20,136,112567,2,0,P|28:105|67:103,1,74.8000022827149,10|0,0:0|3:0,0:0:0:0:
161,106,112920,2,0,P|213:106|232:57,1,112.200003424072,0|0,3:0|0:0,0:0:0:0:
231,55,113273,5,8,0:0:0:0:
314,13,113449,1,2,3:2:0:0:
401,70,113626,1,0,3:0:0:0:
401,70,113714,1,0,3:0:0:0:
401,70,113802,1,0,3:0:0:0:
311,106,113979,2,0,L|309:196,1,74.8000022827149,10|0,0:0|0:0,0:0:0:0:
273,258,114332,6,0,B|279:305|302:317|307:314|325:325|341:376,1,136,6|8,3:2|0:0,0:0:0:0:
425,372,114861,2,0,P|450:376|468:385,2,34,0|0|2,3:0|3:0|3:2,0:0:0:0:
394,292,115214,1,0,3:0:0:0:
414,209,115390,2,0,P|464:201|500:183,1,68,10|0,0:0|3:0,0:0:0:0:
508,114,115743,6,0,P|480:45|422:29,1,136,2|8,3:2|0:0,0:0:0:0:
374,97,116273,1,0,3:0:0:0:
296,62,116449,2,0,P|262:47|231:23,1,68,2|0,3:2|3:0,0:0:0:0:
152,16,116802,2,0,P|118:30|87:54,1,68,8|0,0:0|3:0,0:0:0:0:
110,131,117155,6,0,B|68:125|55:159|57:163|41:196|-14:198,1,136,2|8,3:2|0:0,0:0:0:0:
5,282,117685,1,0,3:0:0:0:
46,355,117861,2,0,P|80:335|128:331,1,68,2|0,3:2|3:0,0:0:0:0:
192,335,118214,1,8,0:0:0:0:
261,383,118390,2,0,P|284:333|323:262,1,136,2|0,0:0|3:0,0:0:0:0:
402,294,118920,1,8,0:0:0:0:
463,235,119096,2,0,P|440:185|401:114,1,136,2|0,0:0|3:0,0:0:0:0:
322,146,119626,1,8,0:0:0:0:
262,205,119802,5,0,3:0:0:0:
262,205,119890,1,0,3:0:0:0:
262,205,119979,2,0,P|225:205|184:215,1,68,2|0,3:2|3:0,0:0:0:0:
127,263,120332,2,0,P|108:230|79:200,1,68,8|0,0:0|3:0,0:0:0:0:
9,175,120685,2,0,P|46:110|69:29,1,136,2|8,3:2|0:0,0:0:0:0:
139,10,121214,1,0,3:0:0:0:
221,30,121390,6,0,L|228:111,1,68,0|0,3:0|3:0,0:0:0:0:
291,153,121743,2,0,L|284:234,1,68,10|0,0:0|3:0,0:0:0:0:
220,277,122096,1,2,3:2:0:0:
277,342,122273,1,0,3:0:0:0:
342,285,122449,2,0,L|423:292,1,68,10|0,0:0|3:0,0:0:0:0:
474,345,122802,6,0,P|493:342|504:326,3,34,2|0|0|0,3:2|3:0|3:0|3:0,0:0:0:0:
504,296,123155,2,0,P|498:258|465:236,1,68,8|0,0:0|3:0,0:0:0:0:
397,208,123508,1,2,3:2:0:0:
395,190,123596,1,0,3:0:0:0:
393,174,123685,1,0,3:0:0:0:
391,156,123773,1,0,3:0:0:0:
391,140,123861,2,0,L|388:106,3,34,8|0|0|0,0:0|3:0|3:0|3:0,0:0:0:0:
386,71,124214,5,6,3:2:0:0:
126,313,125626,1,2,3:2:0:0:
256,192,125802,12,0,128449,0:0:0:0:
256,192,136920,5,2,0:0:0:0:
256,192,137626,2,0,P|276:202|319:269,1,95.1999970947267,2|0,0:0|0:0,0:0:0:0:
447,369,138332,2,0,P|444:324|517:182,1,190.399994189453,2|2,0:0|0:0,0:0:0:0:
199,45,139743,6,0,B|154:69|131:45|132:41|104:14|53:30,2,142.79999564209,2|2|0,0:0|0:0|0:0,0:0:0:0:
109,189,141155,2,0,B|77:248|109:279|114:278|150:315|128:383,1,190.399994189453,2|2,0:0|0:0,0:0:0:0:
471,354,142567,6,0,P|426:351|353:239,1,190.399994189453,2|0,0:0|0:0,0:0:0:0:
496,147,143626,1,2,0:0:0:0:
496,147,143979,2,0,P|465:60|377:32,1,190.399994189453,2|2,0:0|0:0,0:0:0:0:
56,129,145390,5,2,0:0:0:0:
56,129,145743,2,0,P|35:218|0:314,1,190.399994189453,2|0,0:0|0:0,0:0:0:0:
156,383,146802,2,0,P|175:292|210:196,1,190.399994189453,2|2,0:0|0:0,0:0:0:0:
499,21,148214,5,8,0:3:0:0:
499,21,148567,2,0,P|478:36|448:37,1,54.4,2|8,0:0|0:3,0:0:0:0:
365,27,148920,2,0,P|311:29|267:60,1,108.8,2|8,0:0|0:3,0:0:0:0:
101,22,149626,1,2,0:0:0:0:
43,83,149802,1,8,0:3:0:0:
104,141,149979,2,0,B|111:178|95:194|93:192|76:205|86:259,2,108.8,8|2|8,0:3|0:0|0:3,0:0:0:0:
256,216,151038,5,2,0:0:0:0:
408,141,151390,2,0,P|435:148|463:164,1,54.4,8|2,0:3|0:0,0:0:0:0:
481,242,151743,1,2,0:0:0:0:
399,265,151920,1,8,0:3:0:0:
317,288,152096,2,0,P|310:315|230:348,1,108.8,8|2,0:3|0:0,0:0:0:0:
158,335,152626,2,0,P|132:342|121:366,2,54.4,8|8|2,0:3|0:3|0:0,0:0:0:0:
215,271,153155,2,0,P|212:219|207:150,1,108.8,2|8,0:0|0:3,0:0:0:0:
309,26,153861,6,0,P|254:5|202:11,1,108.8,2|8,0:0|0:3,0:0:0:0:
122,27,154390,2,0,P|53:82|22:154,1,163.2,8|8,0:3|0:3,0:0:0:0:
23,148,155273,1,2,0:0:0:0:
80,307,155626,1,8,0:3:0:0:
147,358,155802,1,8,0:3:0:0:
198,291,155979,2,0,B|228:285|250:304|244:307|268:325|309:319,1,108.8,2|8,0:0|0:3,0:0:0:0:
392,176,156685,6,0,B|361:141|369:98|378:104|383:59|345:10,2,163.2,2|8|8,0:0|0:3|0:3,0:0:0:0:
468,327,158096,1,0,3:0:0:0:
468,327,158626,6,0,P|494:315|504:280,2,54.4,2|2|2,0:0|0:0|0:0,0:0:0:0:
426,252,159155,2,0,P|401:262|389:286,1,54.4,2|2,0:0|0:0,0:0:0:0:
392,372,159508,5,4,3:2:0:0:
256,192,159685,12,0,165155,0:0:0:0:
120,11,169920,6,0,L|57:17,2,61.1999981323243,2|2|2,0:0|0:0|0:0,0:0:0:0:
189,61,170449,2,0,L|194:123,1,61.1999981323243,2|2,0:0|0:0,0:0:0:0:
145,190,170802,5,14,0:0:0:0:
70,148,170979,1,0,3:0:0:0:
28,223,171155,2,0,P|15:268|2:291,2,68,10|0|8,0:0|3:0|0:0,0:0:0:0:
103,265,171685,2,0,P|148:278|171:291,1,68,2|8,0:0|0:0,0:0:0:0:
220,353,172038,1,2,0:0:0:0:
303,339,172214,2,0,B|285:295|305:272|309:278|327:256|314:207,1,136,8|8,0:0|0:0,0:0:0:0:
275,132,172743,6,0,L|205:119,2,68,2|8|2,0:0|0:0|0:0,0:0:0:0:
322,60,173273,2,0,L|388:47,1,68,8|0,0:0|3:0,0:0:0:0:
466,12,173626,5,10,0:0:0:0:
500,90,173802,1,0,3:0:0:0:
422,124,173979,2,0,P|397:147|388:180,2,68,10|0|8,0:0|3:0|0:0,0:0:0:0:
472,193,174508,2,0,P|462:225|437:247,1,68,2|8,0:0|0:0,0:0:0:0:
360,281,174861,1,2,0:0:0:0:
279,251,175038,2,0,B|282:296|258:314|254:311|229:330|238:380,1,136,8|8,0:0|0:0,0:0:0:0:
152,362,175567,6,0,P|119:363|81:372,2,68,2|8|2,0:0|0:0|0:0,0:0:0:0:
148,276,176096,2,0,P|114:283|80:284,1,68,8|0,0:0|3:0,0:0:0:0:
106,202,176449,6,0,P|55:185|26:107,1,136,10|8,0:0|0:0,0:0:0:0:
73,42,176979,1,2,0:0:0:0:
150,76,177155,2,0,P|155:42|164:6,1,68,8|2,0:0|0:0,0:0:0:0:
248,6,177508,1,8,0:0:0:0:
323,45,177685,1,2,0:0:0:0:
259,101,177861,6,0,P|288:122|327:125,1,68,8|0,0:0|3:0,0:0:0:0:
404,122,178214,2,0,P|400:158|417:194,1,68,8|0,0:0|3:0,0:0:0:0:
457,258,178567,2,0,P|423:272|401:305,1,68,10|0,0:0|3:0,0:0:0:0:
366,373,178920,2,0,P|336:351|297:348,1,68,10|0,0:0|3:0,0:0:0:0:
222,351,179273,6,0,L|208:278,1,68,8|2,0:0|0:0,0:0:0:0:
256,212,179626,1,8,0:0:0:0:
328,167,179802,2,0,B|305:120|331:97|333:99|360:70|329:19,1,136,2|0,0:0|0:0,0:0:0:0:
253,43,180332,2,0,P|219:44|186:55,1,68,10|0,0:0|3:0,0:0:0:0:
106,27,180685,2,0,B|83:73|109:96|111:94|138:123|107:174,1,136,10|8,0:0|0:0,0:0:0:0:
94,238,181214,6,0,P|62:233|26:247,2,68,2|10|0,0:0|0:0|3:0,0:0:0:0:
132,314,181743,2,0,P|164:319|200:305,1,68,10|0,0:0|3:0,0:0:0:0:
256,246,182096,5,4,3:2:0:0:
220,79,182449,2,0,P|243:26|299:26,1,108.8,10|8,0:0|0:0,0:0:0:0:
380,42,182979,1,2,3:2:0:0:
380,42,183067,1,0,3:0:0:0:
380,42,183155,2,0,P|406:53|406:81,1,54.4,8|0,0:0|3:0,0:0:0:0:
355,143,183508,5,8,0:0:0:0:
439,152,183685,1,0,3:0:0:0:
390,221,183861,2,0,B|407:251|399:274|395:274|386:298|417:339,1,108.8,10|8,0:0|0:0,0:0:0:0:
324,344,184390,2,0,L|317:386,2,27.2,2|0|8,3:2|3:0|0:0,0:0:0:0:
256,292,184743,1,2,3:2:0:0:
185,340,184920,5,8,0:0:0:0:
46,242,185273,2,0,P|43:185|33:124,1,108.8,10|8,0:0|0:0,0:0:0:0:
98,77,185802,2,0,P|96:48|91:18,1,54.4,2|8,3:2|0:0,0:0:0:0:
185,31,186155,5,2,3:2:0:0:
185,31,186243,1,0,3:0:0:0:
185,31,186332,2,0,L|250:40,1,54.4,8|0,0:0|3:0,0:0:0:0:
230,123,186685,2,0,L|360:105,1,108.8,10|8,0:0|0:0,0:0:0:0:
327,192,187214,2,0,P|312:200|302:224,2,27.2,2|0|8,3:2|3:0|0:0,0:0:0:0:
398,237,187567,1,0,3:0:0:0:
465,184,187743,6,0,P|473:154|470:116,1,61.1999981323243,8|0,0:0|3:0,0:0:0:0:
419,55,188096,2,0,P|397:33|362:16,1,61.1999981323243,10|0,0:0|3:0,0:0:0:0:
284,30,188449,2,0,P|254:38|222:59,1,61.1999981323243,8|2,0:0|3:2,0:0:0:0:
195,134,188802,2,0,P|187:164|190:201,1,61.1999981323243,8|0,0:0|3:0,0:0:0:0:
241,263,189155,6,0,L|314:253,2,61.1999981323243,10|0|8,0:0|3:0|0:0,0:0:0:0:
155,276,189685,2,0,L|82:286,2,61.1999981323243,2|8|0,3:2|0:0|3:0,0:0:0:0:
182,357,190214,2,0,L|242:348,1,61.1999981323243,10|0,0:0|3:0,0:0:0:0:
327,355,190567,6,0,P|355:356|394:340,1,68,2|2,0:0|0:0,0:0:0:0:
472,308,190920,1,2,0:0:0:0:
503,230,191096,1,2,0:0:0:0:
490,147,191273,6,0,L|475:109,3,34,2|2|2|2,0:0|0:0|0:0|0:0,0:0:0:0:
480,81,191626,2,0,L|448:55,3,34,2|2|2|2,0:0|0:0|0:0|0:0,0:0:0:0:
438,28,191979,1,8,0:3:0:0:
438,28,192508,6,0,P|411:18|370:20,2,68,2|2|2,0:0|0:0|0:0,0:0:0:0:
400,104,193038,2,0,P|366:105|334:95,1,68,2|2,0:0|0:0,0:0:0:0:
271,26,193390,5,4,3:2:0:0:
184,61,193567,1,0,3:0:0:0:
96,27,193743,2,0,P|33:43|33:130,1,149.60000456543,2|0,3:2|3:0,0:0:0:0:
106,183,194273,1,2,3:2:0:0:
106,183,194361,1,0,3:0:0:0:
106,183,194449,2,0,P|143:185|188:191,1,74.8000022827149,0|0,3:0|3:0,0:0:0:0:
254,246,194802,2,0,P|249:316|181:337,1,149.60000456543,2|0,3:2|3:0,0:0:0:0:
98,381,195332,5,2,0:0:0:0:
39,308,195508,2,0,L|118:274,1,74.8000022827149,2|0,3:2|0:0,0:0:0:0:
137,189,195861,2,0,L|58:155,1,74.8000022827149,2|0,3:2|3:0,0:0:0:0:
25,76,196214,5,0,3:0:0:0:
93,12,196390,1,0,3:0:0:0:
184,31,196567,2,0,B|226:19|255:47|252:51|281:77|327:52,1,149.60000456543,2|0,3:2|3:0,0:0:0:0:
299,148,197096,1,2,3:2:0:0:
299,148,197185,1,0,3:0:0:0:
299,148,197273,2,0,P|263:143|220:151,1,74.8000022827149,8|0,0:0|3:0,0:0:0:0:
267,233,197626,2,0,B|279:275|251:304|247:301|221:330|246:376,1,149.60000456543,2|0,3:2|3:0,0:0:0:0:
334,345,198155,5,2,0:0:0:0:
425,366,198332,2,0,P|469:359|485:317,1,74.8000022827149,2|0,3:2|3:0,0:0:0:0:
498,243,198685,2,0,P|491:199|449:183,1,74.8000022827149,2|0,3:2|3:0,0:0:0:0:
400,118,199038,5,0,3:0:0:0:
334,185,199214,1,0,3:0:0:0:
242,169,199390,2,0,P|200:116|211:28,1,149.60000456543,2|0,3:2|3:0,0:0:0:0:
303,15,199920,1,2,3:2:0:0:
303,15,200008,1,0,3:0:0:0:
303,15,200096,2,0,P|340:17|388:24,1,74.8000022827149,0|0,3:0|3:0,0:0:0:0:
470,28,200449,2,0,P|511:80|500:168,1,149.60000456543,2|0,3:2|3:0,0:0:0:0:
422,114,200979,5,2,0:0:0:0:
361,185,201155,2,0,P|362:224|372:265,1,74.8000022827149,2|0,3:2|3:0,0:0:0:0:
276,266,201508,2,0,P|275:227|265:186,1,74.8000022827149,2|0,3:2|3:0,0:0:0:0:
184,236,201861,5,0,3:0:0:0:
90,232,202038,1,0,3:0:0:0:
10,181,202214,2,0,P|51:120|117:140,1,149.60000456543,2|0,3:2|3:0,0:0:0:0:
183,74,202743,1,2,3:2:0:0:
183,74,202832,1,0,3:0:0:0:
183,74,202920,2,0,P|217:60|238:87,1,74.8000022827149,0|0,3:0|3:0,0:0:0:0:
314,32,203273,2,0,P|375:73|355:139,1,149.60000456543,2|0,3:2|3:0,0:0:0:0:
272,176,203802,5,2,0:0:0:0:
204,241,203979,2,0,L|135:268,1,74.8000022827149,2|0,3:2|3:0,0:0:0:0:
70,199,204332,2,0,L|1:226,1,74.8000022827149,2|0,3:2|3:0,0:0:0:0:
10,319,204685,6,0,P|32:353|73:357,1,74.8000022827149,4|0,3:2|3:0,0:0:0:0:
163,383,205038,1,10,0:0:0:0:
163,383,205126,1,0,3:0:0:0:
163,383,205214,2,0,P|197:360|201:320,1,74.8000022827149,0|0,3:0|3:0,0:0:0:0:
189,235,205567,2,0,L|183:198,2,37.4000011413575,2|0|8,3:2|3:0|0:0,0:0:0:0:
282,221,205920,1,0,3:0:0:0:
296,314,206096,2,0,B|344:303|361:340|358:343|377:378|434:362,1,149.60000456543,2|8,3:2|0:0,0:0:0:0:
504,311,206626,5,2,0:0:0:0:
425,260,206802,2,0,P|418:226|422:186,1,74.8000022827149,2|0,3:2|3:0,0:0:0:0:
339,143,207155,1,10,0:0:0:0:
418,94,207332,1,0,3:0:0:0:
502,136,207508,6,0,P|517:101|505:61,1,74.8000022827149,0|0,3:0|3:0,0:0:0:0:
437,11,207861,1,10,0:0:0:0:
437,11,207949,1,0,3:0:0:0:
437,11,208038,2,0,P|402:-4|362:7,1,74.8000022827149,0|0,3:0|3:0,0:0:0:0:
311,78,208390,2,0,L|320:118,2,37.4000011413575,2|0|8,3:2|3:0|0:0,0:0:0:0:
217,85,208743,1,0,3:0:0:0:
148,21,208920,2,0,L|2:53,1,149.60000456543,2|8,3:2|0:0,0:0:0:0:
17,146,209449,5,2,0:0:0:0:
110,131,209626,2,0,P|146:138|180:165,1,74.8000022827149,2|0,3:2|3:0,0:0:0:0:
258,115,209979,2,0,P|269:149|263:192,1,74.8000022827149,10|0,0:0|3:0,0:0:0:0:
196,252,210332,6,0,B|242:264|248:307|243:304|243:344|315:360,1,149.60000456543,2|8,3:2|0:0,0:0:0:0:
361,288,210861,1,2,0:0:0:0:
440,337,211038,2,0,P|476:328|486:281,1,74.8000022827149,2|0,3:2|3:0,0:0:0:0:
494,202,211390,1,10,0:0:0:0:
401,197,211567,1,0,3:0:0:0:
450,118,211743,6,0,P|450:79|443:40,1,74.8000022827149,0|0,3:0|3:0,0:0:0:0:
354,16,212096,2,0,P|315:15|276:23,1,74.8000022827149,8|0,0:0|3:0,0:0:0:0:
252,112,212449,2,0,P|251:150|259:190,1,74.8000022827149,2|0,3:2|3:0,0:0:0:0:
348,213,212802,2,0,P|386:213|426:206,1,74.8000022827149,10|0,0:0|3:0,0:0:0:0:
482,279,213155,5,0,3:0:0:0:
451,367,213332,1,0,3:0:0:0:
359,384,213508,1,10,0:0:0:0:
298,312,213685,2,0,P|263:256|252:162,1,149.60000456543,0|0,3:0|3:0,0:0:0:0:
297,93,214214,2,0,P|292:56|273:24,1,74.8000022827149,10|0,0:0|3:0,0:0:0:0:
182,48,214567,2,0,L|70:36,1,112.200003424072,0|0,3:0|0:0,0:0:0:0:
70,36,214920,5,8,0:0:0:0:
19,114,215096,1,2,3:2:0:0:
98,182,215273,1,0,3:0:0:0:
98,182,215361,1,0,3:0:0:0:
98,182,215449,1,0,3:0:0:0:
184,145,215626,2,0,L|196:227,1,74.8000022827149,10|0,0:0|3:0,0:0:0:0:
277,245,215979,6,0,B|287:295|268:313|265:312|243:327|255:378,1,136,6|8,3:2|0:0,0:0:0:0:
170,355,216508,2,0,L|168:316,2,34,0|0|2,3:0|3:0|3:2,0:0:0:0:
87,375,216861,1,0,0:0:0:0:
42,302,217038,2,0,P|58:268|56:232,1,68,10|0,0:0|3:0,0:0:0:0:
20,161,217390,6,0,P|-4:101|37:50,1,136,2|8,3:2|0:0,0:0:0:0:
120,70,217920,1,0,3:0:0:0:
192,26,218096,2,0,P|225:18|267:21,1,68,2|0,3:2|3:0,0:0:0:0:
301,92,218449,2,0,P|333:101|368:125,1,68,8|0,0:0|3:0,0:0:0:0:
431,69,218802,6,0,P|476:90|501:170,1,136,2|8,3:2|0:0,0:0:0:0:
486,252,219332,1,0,3:0:0:0:
434,319,219508,2,0,P|404:301|363:290,1,68,2|0,3:2|3:0,0:0:0:0:
287,281,219861,1,8,0:0:0:0:
211,321,220038,2,0,B|161:309|148:337|151:338|130:372|73:354,1,136,2|0,0:0|3:0,0:0:0:0:
56,277,220567,1,8,0:0:0:0:
56,192,220743,2,0,B|106:204|119:176|116:175|137:141|194:159,1,136,2|0,0:0|3:0,0:0:0:0:
211,236,221273,1,8,0:0:0:0:
270,176,221449,5,0,3:0:0:0:
270,176,221538,1,0,3:0:0:0:
270,176,221626,2,0,P|267:137|275:102,1,68,2|0,3:2|3:0,0:0:0:0:
329,44,221979,2,0,P|367:41|403:49,1,68,8|0,0:0|3:0,0:0:0:0:
461,103,222332,2,0,P|465:180|451:251,1,136,2|8,3:2|0:0,0:0:0:0:
399,302,222861,1,0,3:0:0:0:
337,243,223038,6,0,L|278:281,1,68,0|0,3:0|3:0,0:0:0:0:
204,318,223390,2,0,L|135:303,1,68,10|0,0:0|3:0,0:0:0:0:
56,276,223743,1,2,3:2:0:0:
40,193,223920,1,0,3:0:0:0:
103,137,224096,1,10,0:0:0:0:
182,163,224273,1,0,3:0:0:0:
245,107,224449,6,0,P|261:99|278:103,3,34,2|0|0|0,3:2|3:0|3:0|3:0,0:0:0:0:
305,120,224802,2,0,P|321:152|313:186,1,68,8|0,0:0|3:0,0:0:0:0:
256,244,225155,1,2,3:2:0:0:
242,254,225243,1,0,3:0:0:0:
226,259,225332,1,0,3:0:0:0:
209,259,225420,1,0,3:0:0:0:
193,253,225508,2,0,P|201:269|197:286,3,34,8|0|0|0,0:0|3:0|3:0|3:0,0:0:0:0:
190,317,225861,5,6,3:2:0:0:
322,67,227273,1,6,3:2:0:0:
256,192,227449,12,2,232920,3:2:0:0:
223,29,238567,6,0,L|293:38,1,68,10|0,0:0|3:0,0:0:0:0:
289,122,238920,2,0,L|219:131,1,68,8|0,0:0|3:0,0:0:0:0:
223,215,239273,2,0,L|293:224,1,68,8|0,0:0|3:0,0:0:0:0:
289,308,239626,2,0,L|219:317,1,68,8|0,0:0|3:0,0:0:0:0:
151,365,239979,2,0,L|108:308,1,68,8|0,0:0|3:0,0:0:0:0:
32,273,240332,2,0,L|59:207,1,68,8|0,0:0|3:0,0:0:0:0:
52,123,240685,2,0,L|121:114,2,68,10|0|8,0:0|3:0|0:0,0:0:0:0:
184,16,241390,5,10,0:0:0:0:
256,60,241567,1,0,3:0:0:0:
328,16,241743,2,0,P|387:8|456:43,1,136,8|8,0:0|0:0,0:0:0:0:
501,112,242273,1,0,3:0:0:0:
429,156,242449,2,0,P|370:164|301:129,1,136,8|8,0:0|0:0,0:0:0:0:
217,135,242979,1,0,3:0:0:0:
261,207,243155,2,0,P|269:266|234:335,1,136,8|10,0:0|0:0,0:0:0:0:
164,379,243685,1,0,3:0:0:0:
120,307,243861,1,8,0:0:0:0:
21,168,244214,6,0,P|19:139|27:98,1,68,10|0,0:0|3:0,0:0:0:0:
78,33,244567,2,0,P|107:31|148:39,1,68,8|0,0:0|3:0,0:0:0:0:
213,90,244920,2,0,P|215:119|207:160,1,68,8|0,0:0|3:0,0:0:0:0:
156,225,245273,2,0,P|127:227|86:219,1,68,8|0,0:0|3:0,0:0:0:0:
21,271,245626,6,0,L|28:310,3,34,8|0|0|0,0:0|3:0|3:0|3:0,0:0:0:0:
54,324,245979,2,0,L|133:309,1,68,8|0,0:0|3:0,0:0:0:0:
202,335,246332,2,0,L|209:295,3,34,10|0|0|0,0:0|3:0|3:0|3:0,0:0:0:0:
235,282,246685,2,0,L|314:296,1,68,8|0,0:0|3:0,0:0:0:0:
386,282,247038,6,0,P|396:268|423:263,3,34,10|0|0|0,0:0|3:0|3:0|3:0,0:0:0:0:
439,242,247390,2,0,P|455:244|473:264,3,34,8|0|0|0,0:0|3:0|3:0|3:0,0:0:0:0:
501,269,247743,2,0,P|506:284|498:310,3,34,8|0|0|0,0:0|3:0|3:0|3:0,0:0:0:0:
507,334,248096,2,0,P|495:346|468:352,3,34,8|0|0|0,0:0|3:0|3:0|3:0,0:0:0:0:
455,375,248449,5,4,3:2:0:0:
455,375,249861,1,2,0:0:0:0:
