osu file format v14

[General]
AudioFilename: audio.mp3
AudioLeadIn: 0
PreviewTime: 90685
Countdown: 0
SampleSet: Soft
StackLeniency: 0.7
Mode: 0
LetterboxInBreaks: 0
WidescreenStoryboard: 1

[Editor]
Bookmarks: 12685,23979,35273,46567,57861,69155,80449,91743,103038,114332,125626,136920,148214,159508,170802,182096,193390,204685,215979,227273,238567,249861
DistanceSpacing: 1
BeatDivisor: 4
GridSize: 32
TimelineZoom: 1.1

[Metadata]
Title:Your Voice
TitleUnicode:Your Voice
Artist:Alkome
ArtistUnicode:Alkome
Creator:Hinsvar
Version:Easy
Source:
Tags:Electronic English Happy UK Hardcore UKHC Dive/Art:City 2019 rayshock.net Featured Artist FA Mappers' Guild MG MPG
BeatmapID:4516961
BeatmapSetID:2143876

[Difficulty]
HPDrainRate:2
CircleSize:2
OverallDifficulty:2
ApproachRate:4
SliderMultiplier:0.96
SliderTickRate:1

[Events]
//Background and Video events
0,0,"BG.jpg",0,0
//Break Periods
2,27002,33953
2,128649,135600
2,165355,169482
2,233120,237247
//Storyboard Layer 0 (Background)
//Storyboard Layer 1 (Fail)
//Storyboard Layer 2 (Pass)
//Storyboard Layer 3 (Foreground)
//Storyboard Layer 4 (Overlay)
//Storyboard Sound Samples

[TimingPoints]
1391,352.941176470588,4,2,1,70,1,0
18332,-100,4,2,1,60,0,0
19743,-100,4,2,1,65,0,0
21155,-100,4,2,1,70,0,0
35273,-111.111111111111,4,2,1,50,0,0
46567,-111.111111111111,4,2,1,55,0,0
57861,-100,4,2,1,60,0,0
69155,-100,4,2,1,70,0,0
80449,-111.111111111111,4,2,1,70,0,0
86096,-100,4,2,1,70,0,0
88920,-100,4,2,1,70,0,0
91743,-95.2380952380952,4,2,1,75,0,1
103038,-95.2380952380952,4,2,2,80,0,1
114332,-100,4,2,2,80,0,0
136920,-111.111111111111,4,2,1,50,0,0
148214,-111.111111111111,4,2,1,55,0,0
159508,-100,4,2,1,60,0,0
170802,-100,4,2,1,70,0,0
182096,-111.111111111111,4,2,1,70,0,0
187743,-100,4,2,1,70,0,0
190567,-100,4,2,1,70,0,0
193390,-95.2380952380952,4,2,1,80,0,1
204685,-95.2380952380952,4,2,2,80,0,1
215979,-100,4,2,2,70,0,0
238567,-100,4,2,1,70,0,0
244214,-100,4,2,1,60,0,0
245626,-100,4,2,1,65,0,0
247038,-100,4,2,1,70,0,0

[Colours]
Combo1 : 218,171,233
Combo2 : 107,239,226
Combo3 : 238,115,155
Combo4 : 87,153,234

[HitObjects]
427,40,12685,6,0,P|481:111|498:224,1,192,10|8,0:0|0:0,0:0:0:0:
495,306,13743,1,8,0:0:0:0:
406,342,14096,2,0,P|352:271|335:158,1,192,8|10,0:0|0:0,0:0:0:0:
338,76,15155,1,8,0:0:0:0:
252,30,15508,6,0,B|204:4|157:41|165:52|119:82|50:56,1,192,10|8,0:0|0:0,0:0:0:0:
9,136,16567,1,8,0:0:0:0:
71,208,16920,2,0,B|118:188|164:218|157:228|203:266|250:241,1,192,8|10,0:0|0:0,0:0:0:0:
351,78,18332,5,10,0:0:0:0:
438,39,18685,1,8,0:0:0:0:
477,126,19038,2,0,B|507:182|485:221|480:220|447:265|487:321,1,192,8|8,0:0|0:0,0:0:0:0:
393,349,20096,1,8,0:0:0:0:
298,339,20449,6,0,B|234:336|211:298|214:295|192:243|124:250,1,192,10|10,0:0|0:0,0:0:0:0:
41,262,21508,1,8,0:0:0:0:
0,176,21861,1,8,0:0:0:0:
69,110,22214,1,8,0:0:0:0:
153,155,22567,1,4,3:2:0:0:
256,192,23979,12,0,26802,0:0:0:0:
256,192,35273,5,0,3:0:0:0:
71,145,35979,2,0,P|60:106|72:45,1,86.3999973632813,2|0,0:0|0:0,0:0:0:0:
160,55,36685,2,0,P|238:33|360:57,1,172.799994726563,2|2,0:0|0:0,0:0:0:0:
418,210,38096,6,0,P|468:199|490:130,2,129.599996044922,2|2|0,0:0|0:0|0:0,0:0:0:0:
329,175,39508,2,0,P|262:189|233:281,1,172.799994726563,2|2,0:0|0:0,0:0:0:0:
69,378,40920,6,0,B|85:327|53:293|45:297|11:264|25:197,1,172.799994726563,2|0,0:0|0:0,0:0:0:0:
99,162,41979,1,2,0:0:0:0:
192,179,42332,2,0,B|180:133|214:100|222:104|254:70|239:20,1,172.799994726563,2|2,0:0|0:0,0:0:0:0:
429,29,43743,5,2,0:0:0:0:
495,97,44096,2,0,P|512:178|499:269,1,172.799994726563,2|0,0:0|0:0,0:0:0:0:
431,332,45155,2,0,P|350:349|259:336,1,172.799994726563,2|2,0:0|0:0,0:0:0:0:
91,304,46567,5,8,0:3:0:0:
73,210,46920,2,0,P|61:168|64:117,2,86.3999973632813,2|2|8,0:0|0:0|0:3,0:0:0:0:
167,192,47979,2,0,P|249:168|351:175,1,172.799994726563,2|2,0:0|0:0,0:0:0:0:
469,307,49390,5,2,0:0:0:0:
510,221,49743,2,0,P|520:178|497:131,1,86.3999973632813,8|2,0:3|0:0,0:0:0:0:
422,91,50449,1,8,0:3:0:0:
352,25,50802,2,0,P|266:5|172:51,1,172.799994726563,2|2,0:0|0:0,0:0:0:0:
147,120,51861,1,8,0:3:0:0:
52,131,52214,6,0,B|58:98|31:70|23:69|0:47|5:10,2,129.599996044922,2|8|8,0:0|0:3|0:3,0:0:0:0:
106,209,53626,2,0,B|111:253|80:282|71:283|35:320|43:364,1,172.799994726563,2|2,0:0|0:0,0:0:0:0:
138,360,54685,1,8,0:3:0:0:
233,357,55038,6,0,P|297:356|381:376,2,129.599996044922,2|8|8,0:0|0:3|0:3,0:0:0:0:
230,262,56449,1,0,3:0:0:0:
230,262,57861,5,2,3:2:0:0:
224,166,58214,2,0,P|209:97|180:18,2,144,2|2|2,0:0|0:0|0:0,0:0:0:0:
249,322,59802,2,0,B|308:292|342:329|334:334|368:373|437:343,1,192,2|2,0:0|0:0,0:0:0:0:
460,191,61038,6,0,P|475:122|504:43,2,144,2|2|2,0:0|0:0|0:0,0:0:0:0:
302,212,62626,2,0,B|272:153|309:119|314:127|353:93|323:24,1,192,2|2,0:0|0:0,0:0:0:0:
172,69,63861,6,0,P|107:76|64:14,2,144,2|2|2,0:0|0:0|0:0,0:0:0:0:
292,172,65449,2,0,B|302:235|259:256|254:253|204:282|216:335,1,192,2|2,0:0|0:0,0:0:0:0:
374,328,66685,6,0,P|439:321|482:383,2,144,2|2|2,0:0|0:0|0:0,0:0:0:0:
233,254,68273,1,2,0:0:0:0:
383,39,69155,5,14,0:0:0:0:
476,58,69508,2,0,P|507:151|502:199,2,144,10|2|8,0:0|0:0|0:0,0:0:0:0:
291,112,71273,2,0,L|282:210,1,96,8|8,0:0|0:0,0:0:0:0:
211,273,71979,5,8,0:0:0:0:
127,225,72332,2,0,B|102:264|115:291|120:292|130:324|106:366,2,144,10|2|8,0:0|0:0|0:0,0:0:0:0:
99,35,74096,2,0,P|54:36|18:80,1,96,8|8,0:0|0:0,0:0:0:0:
27,167,74802,5,10,0:0:0:0:
158,306,75508,2,0,P|203:305|239:261,1,96,8|8,0:0|0:0,0:0:0:0:
230,174,76214,1,8,0:0:0:0:
283,93,76567,1,8,0:0:0:0:
376,118,76920,2,0,P|420:136|467:143,1,96,10|10,0:0|0:0,0:0:0:0:
466,239,77626,6,0,P|395:250|328:277,2,144,8|2|10,0:0|0:0|0:0,0:0:0:0:
453,334,79038,1,10,0:0:0:0:
266,377,79743,2,0,P|218:369|174:351,1,96,10|10,0:0|0:0,0:0:0:0:
235,279,80449,5,4,3:2:0:0:
329,284,80802,2,0,P|421:265|492:117,1,259.199992089844,10|8,0:0|0:0,0:0:0:0:
398,115,82214,2,0,B|389:74|359:66|358:70|327:60|322:13,2,129.599996044922,10|2|8,0:0|3:2|0:0,0:0:0:0:
334,185,83626,2,0,B|245:195|225:257|234:259|218:319|137:336,1,259.199992089844,10|8,0:0|0:0,0:0:0:0:
45,315,85038,2,0,P|5:266|18:204,1,129.599996044922,10|2,0:0|3:2,0:0:0:0:
8,46,86096,5,8,0:0:0:0:
98,13,86449,2,0,P|164:39|228:73,1,144,10|2,0:0|3:2,0:0:0:0:
240,230,87508,2,0,P|242:301|253:373,2,144,10|2|10,0:0|3:2|0:0,0:0:0:0:
316,158,88920,5,2,0:0:0:0:
360,72,89273,1,2,0:0:0:0:
455,87,89626,2,0,P|475:130|465:181,1,96,2|2,0:0|0:0,0:0:0:0:
384,226,90332,1,8,0:3:0:0:
384,226,91743,5,4,3:2:0:0:
283,231,92096,2,0,B|258:276|282:300|278:304|301:332|276:390,2,151.199995385742,2|2|2,3:2|3:2|3:2,0:0:0:0:
96,308,93861,2,0,P|52:297|30:248,1,100.799996923828,2|2,3:2|3:2,0:0:0:0:
102,178,94567,5,0,3:0:0:0:
203,173,94920,2,0,B|228:128|204:104|208:100|185:72|210:14,2,151.199995385742,2|2|2,3:2|3:2|3:2,0:0:0:0:
390,96,96685,2,0,P|434:107|456:156,1,100.799996923828,2|2,3:2|3:2,0:0:0:0:
464,254,97390,5,0,3:0:0:0:
396,328,97743,2,0,B|348:311|322:343|330:349|305:384|246:368,2,151.199995385742,2|2|2,3:2|3:2|3:2,0:0:0:0:
499,154,99508,2,0,P|455:134|419:91,1,100.799996923828,2|2,3:2|3:2,0:0:0:0:
330,140,100214,5,0,3:0:0:0:
262,66,100567,2,0,B|214:83|188:51|196:45|171:10|112:26,2,151.199995385742,2|2|2,3:2|3:2|3:2,0:0:0:0:
365,240,102332,2,0,P|321:259|285:302,1,100.799996923828,2|2,3:2|3:2,0:0:0:0:
205,358,103038,5,4,3:2:0:0:
113,316,103390,2,0,P|69:265|6:208,2,151.199995385742,10|2|2,0:0|3:2|3:2,0:0:0:0:
196,258,104802,1,8,0:0:0:0:
196,157,105155,2,0,B|204:121|192:101|185:104|171:81|177:44,1,100.799996923828,2|10,3:2|0:0,0:0:0:0:
273,31,105861,5,0,3:0:0:0:
365,73,106214,2,0,P|409:124|472:181,2,151.199995385742,10|2|2,0:0|3:2|3:2,0:0:0:0:
282,131,107626,1,8,0:0:0:0:
282,232,107979,2,0,B|273:267|285:287|292:284|306:307|300:344,1,100.799996923828,2|10,3:2|0:0,0:0:0:0:
211,374,108685,5,2,3:2:0:0:
16,323,109390,2,0,P|11:275|39:223,1,100.799996923828,2|10,3:2|0:0,0:0:0:0:
4,131,110096,1,0,3:0:0:0:
69,54,110449,1,8,0:0:0:0:
168,71,110802,2,0,P|212:90|243:140,1,100.799996923828,2|10,3:2|0:0,0:0:0:0:
252,233,111508,6,0,B|271:283|250:308|245:304|215:327|234:384,2,151.199995385742,0|0|10,3:0|3:0|0:0,0:0:0:0:
333,173,112920,1,0,3:0:0:0:
433,176,113273,2,0,B|446:142|432:125|428:128|408:113|421:75,1,100.799996923828,8|0,0:0|3:0,0:0:0:0:
332,28,113979,1,10,0:0:0:0:
267,98,114332,6,0,P|167:91|103:25,1,192,6|2,3:2|3:2,0:0:0:0:
21,76,115390,1,10,0:0:0:0:
62,162,115743,1,2,3:2:0:0:
54,256,116096,2,0,P|45:302|4:350,2,96,8|2|8,0:0|3:2|0:0,0:0:0:0:
144,222,117155,6,0,B|196:196|232:235|230:240|260:276|324:242,1,192,2|2,3:2|3:2,0:0:0:0:
330,146,118214,2,0,P|441:160|509:318,1,288,8|0,0:0|3:0,0:0:0:0:
330,372,119979,6,0,L|225:346,1,96,2|8,3:2|0:0,0:0:0:0:
182,269,120685,2,0,L|207:164,2,96,2|8|0,3:2|0:0|3:0,0:0:0:0:
101,323,121743,1,10,0:0:0:0:
14,280,122096,1,2,3:2:0:0:
7,183,122449,1,10,0:0:0:0:
87,128,122802,6,0,B|150:144|183:115|174:106|210:76|269:94,1,192,2|2,3:2|3:2,0:0:0:0:
351,142,123861,1,8,0:0:0:0:
399,59,124214,1,6,3:2:0:0:
256,192,125626,12,0,128449,0:0:0:0:
256,192,136920,5,2,0:0:0:0:
355,29,137626,2,0,P|392:18|455:35,1,86.3999973632813,2|0,0:0|0:0,0:0:0:0:
444,120,138332,2,0,P|463:186|433:299,1,172.799994726563,2|2,0:0|0:0,0:0:0:0:
264,355,139743,6,0,B|213:367|201:343|202:339|194:316|134:328,2,129.599996044922,2|2|0,0:0|0:0|0:0,0:0:0:0:
279,260,141155,2,0,B|219:223|231:189|235:186|249:157|182:112,1,172.799994726563,2|2,0:0|0:0,0:0:0:0:
29,22,142567,6,0,P|13:101|27:199,1,172.799994726563,2|0,0:0|0:0,0:0:0:0:
27,287,143626,1,2,0:0:0:0:
122,285,143979,2,0,P|201:300|299:286,1,172.799994726563,2|2,0:0|0:0,0:0:0:0:
479,256,145390,5,2,0:0:0:0:
506,165,145743,2,0,P|506:104|430:20,1,172.799994726563,2|0,0:0|0:0,0:0:0:0:
353,70,146802,2,0,P|337:128|388:229,1,172.799994726563,2|2,0:0|0:0,0:0:0:0:
256,367,148214,5,8,0:3:0:0:
163,345,148567,2,0,P|118:344|63:367,2,86.3999973632813,2|2|8,0:0|0:0|0:3,0:0:0:0:
185,252,149626,2,0,P|187:162|141:52,1,172.799994726563,2|2,0:0|0:0,0:0:0:0:
6,195,151038,5,2,0:0:0:0:
7,289,151390,2,0,P|35:318|88:320,1,86.3999973632813,8|2,0:3|0:0,0:0:0:0:
159,271,152096,1,8,0:3:0:0:
239,220,152449,2,0,P|323:228|383:287,1,172.799994726563,2|2,0:0|0:0,0:0:0:0:
458,346,153508,1,8,0:3:0:0:
504,263,153861,6,0,P|503:207|510:127,2,129.599996044922,2|8|8,0:0|0:3|0:3,0:0:0:0:
408,267,155273,2,0,P|408:180|401:95,1,172.799994726563,2|2,0:0|0:0,0:0:0:0:
331,29,156332,1,8,0:3:0:0:
240,58,156685,6,0,B|193:66|163:20|108:29,2,129.599996044922,2|8|8,0:0|0:3|0:3,0:0:0:0:
310,121,158096,1,0,3:0:0:0:
256,192,159508,12,0,165155,0:0:0:0:
210,301,170802,5,14,0:0:0:0:
118,330,171155,2,0,P|54:311|35:242,2,144,10|2|8,0:0|0:0|0:0,0:0:0:0:
145,139,172920,2,0,P|177:108|223:120,1,96,8|8,0:0|0:0,0:0:0:0:
282,195,173626,5,10,0:0:0:0:
375,218,173979,2,0,B|393:264|368:285|364:286|341:305|364:362,2,144,10|2|8,0:0|0:0|0:0,0:0:0:0:
344,32,175743,2,0,P|297:22|243:39,1,96,8|8,0:0|0:0,0:0:0:0:
156,49,176449,5,10,0:0:0:0:
112,235,177155,2,0,P|159:245|213:228,1,96,8|8,0:0|0:0,0:0:0:0:
300,217,177861,1,8,0:0:0:0:
345,132,178214,1,8,0:0:0:0:
439,148,178567,2,0,P|467:188|465:246,1,96,10|10,0:0|0:0,0:0:0:0:
382,277,179273,6,0,P|309:283|235:237,2,144,8|2|10,0:0|0:0|0:0,0:0:0:0:
462,329,180685,1,10,0:0:0:0:
510,143,181390,1,10,0:0:0:0:
462,59,181743,1,10,0:0:0:0:
365,58,182096,5,4,3:2:0:0:
315,141,182449,2,0,B|246:170|191:117|197:117|144:58|64:85,1,259.199992089844,10|8,0:0|0:0,0:0:0:0:
65,177,183861,2,0,P|42:243|0:286,2,129.599996044922,10|2|8,0:0|3:2|0:0,0:0:0:0:
154,210,185273,2,0,P|278:240|404:211,1,259.199992089844,10|8,0:0|0:0,0:0:0:0:
482,156,186685,2,0,B|494:121|464:94|464:97|438:70|452:35,1,129.599996044922,10|2,0:0|3:2,0:0:0:0:
305,98,187743,5,8,0:0:0:0:
227,41,188096,2,0,P|168:38|115:97,1,144,10|2,0:0|3:2,0:0:0:0:
140,254,189155,2,0,P|97:309|27:310,2,144,10|2|10,0:0|3:2|0:0,0:0:0:0:
183,168,190567,5,2,0:0:0:0:
279,163,190920,1,2,0:0:0:0:
331,243,191273,2,0,P|317:299|277:324,1,96,2|2,0:0|0:0,0:0:0:0:
192,333,191979,1,8,0:3:0:0:
192,333,193390,5,4,3:2:0:0:
101,287,193743,2,0,P|33:291|29:371,2,151.199995385742,2|2|2,3:2|3:2|3:2,0:0:0:0:
196,319,195155,1,0,3:0:0:0:
296,336,195508,2,0,P|319:291|332:240,1,100.799996923828,2|2,3:2|3:2,0:0:0:0:
343,142,196214,5,0,3:0:0:0:
434,188,196567,2,0,P|502:184|506:104,2,151.199995385742,2|2|2,3:2|3:2|3:2,0:0:0:0:
239,139,198332,2,0,P|215:183|202:234,1,100.799996923828,2|2,3:2|3:2,0:0:0:0:
102,215,199038,5,0,3:0:0:0:
94,114,199390,2,0,P|77:57|-3:18,2,151.199995385742,2|2|2,3:2|3:2|3:2,0:0:0:0:
128,208,200802,1,0,3:0:0:0:
178,297,201155,2,0,P|221:310|275:315,1,100.799996923828,2|2,3:2|3:2,0:0:0:0:
357,254,201861,5,0,3:0:0:0:
365,153,202214,2,0,P|382:96|462:57,2,151.199995385742,2|2|2,3:2|3:2|3:2,0:0:0:0:
281,336,203979,2,0,P|237:349|183:354,1,100.799996923828,2|2,3:2|3:2,0:0:0:0:
106,287,204685,5,4,3:2:0:0:
88,185,205038,2,0,B|71:137|95:110|98:112|119:83|99:30,2,151.199995385742,10|2|2,0:0|3:2|3:2,0:0:0:0:
188,169,206449,1,8,0:0:0:0:
205,268,206802,2,0,B|241:261|253:276|251:280|265:296|301:285,1,100.799996923828,2|10,3:2|0:0,0:0:0:0:
327,187,207508,5,0,3:0:0:0:
386,103,207861,2,0,B|408:56|444:54|445:58|480:53|503:1,2,151.199995385742,10|2|2,0:0|3:2|3:2,0:0:0:0:
469,162,209273,1,8,0:0:0:0:
411,244,209626,2,0,B|441:264|439:283|435:285|433:306|466:323,1,100.799996923828,2|10,3:2|0:0,0:0:0:0:
376,370,210332,5,2,3:2:0:0:
174,355,211038,2,0,P|124:348|69:329,1,100.799996923828,2|10,3:2|0:0,0:0:0:0:
43,237,211743,1,0,3:0:0:0:
141,216,212096,1,8,0:0:0:0:
216,148,212449,2,0,P|243:105|262:59,1,100.799996923828,2|10,3:2|0:0,0:0:0:0:
363,49,213155,6,0,P|440:54|497:6,2,151.199995385742,0|0|10,3:0|3:0|0:0,0:0:0:0:
322,141,214567,1,0,3:0:0:0:
231,96,214920,2,0,L|128:83,1,100.799996923828,8|0,0:0|3:0,0:0:0:0:
39,38,215626,1,10,0:0:0:0:
17,131,215979,6,0,P|20:226|35:326,1,192,6|2,3:2|3:2,0:0:0:0:
127,347,217038,1,10,0:0:0:0:
141,252,217390,1,2,3:2:0:0:
144,156,217743,2,0,P|136:108|135:60,2,96,8|2|8,0:0|3:2|0:0,0:0:0:0:
239,159,218802,6,0,B|265:118|323:131|330:157|389:169|415:135,1,192,2|2,3:2|3:2,0:0:0:0:
449,45,219861,2,0,P|307:4|190:68,1,288,8|0,0:0|3:0,0:0:0:0:
58,207,221626,6,0,L|65:310,1,96,2|8,3:2|0:0,0:0:0:0:
160,295,222332,2,0,L|153:199,2,96,2|8|0,3:2|0:0|3:0,0:0:0:0:
229,360,223390,1,10,0:0:0:0:
320,333,223743,1,2,3:2:0:0:
342,240,224096,1,10,0:0:0:0:
433,213,224449,6,0,B|395:157|437:120|440:127|481:93|443:13,1,192,2|2,3:2|3:2,0:0:0:0:
357,11,225508,1,8,0:0:0:0:
291,80,225861,1,6,3:2:0:0:
256,192,227273,12,2,232920,3:2:0:0:
492,246,238567,6,0,P|520:165|472:64,1,192,10|8,0:0|0:0,0:0:0:0:
396,24,239626,1,8,0:0:0:0:
299,27,239979,2,0,P|270:107|318:208,1,192,8|10,0:0|0:0,0:0:0:0:
395,249,241038,1,8,0:0:0:0:
397,347,241390,6,0,B|343:380|303:350|311:347|271:310|210:344,1,192,10|8,0:0|0:0,0:0:0:0:
120,356,242449,1,8,0:0:0:0:
105,261,242802,2,0,B|72:207|102:167|105:175|142:135|108:74,1,192,8|10,0:0|0:0,0:0:0:0:
295,26,244214,5,10,0:0:0:0:
390,37,244567,1,8,0:0:0:0:
486,37,244920,2,0,P|511:123|496:230,1,192,8|8,0:0|0:0,0:0:0:0:
404,203,245979,1,8,0:0:0:0:
307,212,246332,6,0,P|221:237|114:222,1,192,10|10,0:0|0:0,0:0:0:0:
168,141,247390,1,8,0:0:0:0:
104,70,247743,1,8,0:0:0:0:
16,108,248096,1,8,0:0:0:0:
24,203,248449,5,4,3:2:0:0:
24,203,249861,1,2,0:0:0:0:
