osu file format v14

[General]
AudioFilename: audio.mp3
AudioLeadIn: 0
PreviewTime: 77939
Countdown: 0
SampleSet: Normal
StackLeniency: 0.7
Mode: 1
LetterboxInBreaks: 0
WidescreenStoryboard: 0

[Editor]
DistanceSpacing: 1.65
BeatDivisor: 2
GridSize: 32
TimelineZoom: 2.099999

[Metadata]
Title:Run to You
TitleUnicode:Run to You
Artist:Alkome
ArtistUnicode:Alkome
Creator:Ph0eNiiXZ
Version:Sweet Memories
Source:
Tags:phoenix phoeniixz randelman4ik k_a_t_a_g_i_r_i katagiri Arach Vized electronic instrumental Techcore UK Hardcore fa featured artist I'll Be EP NNER-02 mappers' guild mpg
BeatmapID:3228031
BeatmapSetID:1580916

[Difficulty]
HPDrainRate:6
CircleSize:2
OverallDifficulty:7
ApproachRate:10
SliderMultiplier:1.4
SliderTickRate:1

[Events]
//Background and Video events
0,0,"49367970_p0.jpg",0,0
//Break Periods
//Storyboard Layer 0 (Background)
//Storyboard Layer 1 (Fail)
//Storyboard Layer 2 (Pass)
//Storyboard Layer 3 (Foreground)
//Storyboard Layer 4 (Overlay)
//Storyboard Sound Samples

[TimingPoints]
1311,342.857142857143,4,1,0,50,1,0
1311,-133.333333333333,4,1,0,50,0,0
2682,-200,4,1,0,50,0,0
4053,-190.47619047619,4,1,0,50,0,0
5425,-181.818181818182,4,1,0,50,0,0
6111,-177.777777777778,4,1,0,50,0,0
6796,-173.913043478261,4,1,0,50,0,0
8168,-152.405569509132,4,1,0,50,0,0
8853,-143.530299963974,4,1,0,50,0,0
9539,-135.632024891189,4,1,0,50,0,0
10911,-122.184711515787,4,1,0,50,0,0
11596,-116.413757777894,4,1,0,50,0,0
11682,-76.9230769230769,4,1,0,80,0,0
11768,-115.055203486633,4,1,0,80,0,0
11939,-113.727992211907,4,1,0,80,0,0
12025,-113.075739260914,4,1,0,80,0,0
12111,-112.431051657571,4,1,0,80,0,0
12196,-112.431051657571,4,1,0,100,0,0
12282,-111.111111111111,4,1,0,100,0,0
12453,-110.727134016372,4,1,0,100,0,0
12625,-110.345801673284,4,1,0,100,0,0
12796,-109.967086850906,4,1,0,100,0,0
12882,-109.77876285921,4,1,0,100,0,0
13053,-109.403923662318,4,1,0,100,0,0
13139,-109.217402700946,4,1,0,100,0,0
13311,-108.846380748994,4,1,0,100,0,0
13482,-108.477871056694,4,1,0,100,0,0
13568,-108.29460898607,4,1,0,100,0,0
13653,-108.111965075511,4,1,0,100,0,0
13825,-107.748403168665,4,1,0,100,0,0
13996,-107.387278258694,4,1,0,100,0,0
14168,-107.028565924245,4,1,0,100,0,0
14253,-106.850049845548,4,1,0,100,0,0
14339,-106.672242069185,4,1,0,100,0,0
14425,-106.49491167312,4,1,0,100,0,0
14511,-106.318282917204,4,1,0,100,0,0
14682,-105.966665006522,4,1,0,100,0,0
14768,-105.791670810174,4,1,0,100,0,0
14853,-105.617365184714,4,1,0,100,0,0
15025,-105.27036060362,4,1,0,100,0,0
15196,-104.925628714367,4,1,0,100,0,0
15368,-104.583147262484,4,1,0,100,0,0
15539,-104.242894283111,4,1,0,100,0,0
15625,-104.073650841227,4,1,0,100,0,0
15711,-103.904848096307,4,1,0,100,0,0
15796,-103.736699658395,4,1,0,100,0,0
15882,-103.568987302442,4,1,0,100,0,0
16053,-103.235290777682,4,1,0,100,0,0
16225,-102.90373766956,4,1,0,100,0,0
16311,-102.738811229763,4,1,0,100,0,0
16396,-102.574412607626,4,1,0,100,0,0
16568,-102.247084168777,4,1,0,100,0,0
16739,-101.921838180736,4,1,0,100,0,0
16825,-101.759938129958,4,1,0,100,0,0
16911,-101.59865483381,4,1,0,100,0,0
16996,-101.43777908069,4,1,0,100,0,0
17082,-101.27751456877,4,1,0,100,0,0
17168,-101.117653423288,4,1,0,100,0,0
17253,-100.958398072906,4,1,0,100,0,0
17425,-100.641286276152,4,1,0,100,0,0
17596,-100.326160347289,4,1,0,100,0,0
17682,-100.169386432457,4,1,0,100,0,0
17768,-100,4,1,0,100,0,0
17939,-98.7654320987654,4,1,0,100,0,0
18111,-97.5609756097561,4,1,0,100,0,0
18282,-96.3855421686747,4,1,0,100,0,0
18368,-95.8083832335329,4,1,0,100,0,0
18453,-95.2380952380952,4,1,0,100,0,0
18539,-94.6745562130178,4,1,0,100,0,0
18625,-94.1176470588235,4,1,0,100,0,0
18796,-93.0232558139535,4,1,0,100,0,0
18968,-91.9540229885058,4,1,0,100,0,0
19053,-91.4285714285714,4,1,0,100,0,0
19139,-90.9090909090909,4,1,0,100,0,0
19311,-89.8876404494382,4,1,0,100,0,0
19482,-88.8888888888889,4,1,0,100,0,0
19653,-87.9120879120879,4,1,0,100,0,0
19739,-87.431693989071,4,1,0,100,0,0
19825,-86.9565217391304,4,1,0,100,0,0
19911,-86.4864864864865,4,1,0,100,0,0
19996,-86.0215053763441,4,1,0,100,0,0
20082,-85.5614973262032,4,1,0,100,0,0
20168,-85.1063829787234,4,1,0,100,0,0
20339,-84.2105263157895,4,1,0,100,0,0
20511,-83.3333333333333,4,1,0,100,0,0
20596,-82.9015544041451,4,1,0,100,0,0
20682,-82.4742268041237,4,1,0,100,0,0
20768,-82.0512820512821,4,1,0,100,0,0
20853,-81.6326530612245,4,1,0,100,0,0
20939,-81.2182741116751,4,1,0,100,0,0
21025,-80.8080808080808,4,1,0,100,0,0
21111,-80.4020100502513,4,1,0,100,0,0
21196,-80,4,1,0,100,0,0
21282,-79.6019900497512,4,1,0,100,0,0
21368,-79.2079207920792,4,1,0,100,0,0
21453,-78.8177339901478,4,1,0,100,0,0
21539,-78.4313725490196,4,1,0,100,0,0
21625,-78.0487804878049,4,1,0,100,0,0
21711,-77.6699029126214,4,1,0,100,0,0
21796,-77.2946859903382,4,1,0,100,0,0
21882,-76.9230769230769,4,1,0,100,0,0
22225,-81.0608596828413,4,1,0,100,0,0
22396,-83.3013317383905,4,1,0,100,0,0
22568,-85.6691747745402,4,1,0,100,0,0
22653,-86.904303588018,4,1,0,100,0,0
22739,-88.1755681372294,4,1,0,100,0,0
22825,-89.4844977056175,4,1,0,100,0,0
22911,-90.8329563765644,4,1,0,100,0,0
23082,-93.6555834649194,4,1,0,100,0,0
23139,-94.6358507100528,4,1,0,100,0,0
23196,-95.6368553836855,4,1,0,100,0,0
23253,-96.659262567154,4,1,0,100,0,0
23425,-99.8619907288128,4,1,0,100,0,0
28225,-83.3333333333333,4,1,0,100,0,0
28396,-86.9175977714328,4,1,0,100,0,0
28568,-90.8239640845716,4,1,0,100,0,0
28739,-95.0980746443807,4,1,0,100,0,0
28911,-100,4,1,0,100,0,0
29082,-98.7124929543958,4,1,0,100,0,0
29253,-97.4576229890838,4,1,0,100,0,0
29425,-96.2343498888493,4,1,0,100,0,0
29596,-95.0413144593955,4,1,0,100,0,0
29768,-93.8775855060518,4,1,0,100,0,0
29939,-92.7419242650898,4,1,0,100,0,0
30025,-91.6334953413531,4,1,0,98,0,0
30196,-90.5511668423359,4,1,0,96,0,0
30367,-89.4941877999733,4,1,0,94,0,0
30539,-88.4615214497074,4,1,0,92,0,0
30710,-87.4524914340285,4,1,0,90,0,0
30882,-86.4661459098919,4,1,0,88,0,0
31053,-85.5018746286012,4,1,0,86,0,0
31225,-84.5588017679554,4,1,0,84,0,0
31396,-83.6363758016547,4,1,0,82,0,0
31525,-83.1826341278384,4,1,0,80,0,0
31610,-82.7337891413556,4,1,0,78,0,0
31696,-82.2898297176554,4,1,0,76,0,0
31782,-81.8505425463213,4,1,0,74,0,0
31868,-81.4159205576014,4,1,0,72,0,0
31953,-80.9858898284152,4,1,0,70,0,0
32039,-80.5604428890908,4,1,0,68,0,0
32125,-80.1393784069253,4,1,0,66,0,0
32210,-79.7226925861085,4,1,0,64,0,0
32296,-79.3103174792009,4,1,0,62,0,0
32382,-78.9022487929929,4,1,0,60,0,0
32468,-78.4982961944811,4,1,0,58,0,0
32553,-78.098458726917,4,1,0,56,0,0
32639,-77.7026738267091,4,1,0,54,0,0
32725,-77.3109399618702,4,1,0,52,0,0
32810,-76.9230769230769,4,1,0,100,0,0
33025,-76.9230769230769,4,1,0,80,0,0
33196,-78.80767145397,4,1,0,80,0,0
33368,-79.7850272226513,4,1,0,80,0,0
33539,-80.7869293211313,4,1,0,80,0,0
33625,-81.2973760458907,4,1,0,80,0,0
33711,-81.8143142324181,4,1,0,80,0,0
33796,-76.9230769230769,4,1,0,100,0,0
33882,-82.8681666909747,4,1,0,100,0,0
34225,-85.0594735839299,4,1,0,100,0,0
39368,-76.9230769230769,4,1,0,100,0,0
39539,-79.4702197272105,4,1,0,100,0,0
39711,-82.1917583036279,4,1,0,100,0,0
39882,-85.1063829787234,4,1,0,100,0,0
44568,-85.5920358322499,4,1,0,100,0,0
44625,-86.0831890722556,4,1,0,100,0,0
44682,-86.5800865800866,4,1,0,100,0,0
44768,-87.3362445414847,4,1,0,100,0,0
44853,-88.1057268722467,4,1,0,100,0,0
44911,-88.6263186488386,4,1,0,100,0,0
44968,-89.1530195681963,4,1,0,100,0,0
45025,-89.6860986547085,4,1,0,100,0,0
45111,-90.4977375565611,4,1,0,100,0,0
45196,-91.324200913242,4,1,0,100,0,0
45368,-93.0232558139535,4,1,0,100,0,0
45539,-81.6326530612245,4,1,0,100,0,0
45711,-85.1063829787234,4,1,0,100,0,0
50853,-84.6566579921811,4,1,0,100,0,0
50939,-84.4335731528256,4,1,0,100,0,0
51025,-84.2116609571161,4,1,0,100,0,0
51111,-83.9909121833018,4,1,0,100,0,0
51196,-83.7713177060732,4,1,0,100,0,0
51368,-83.3356250630226,4,1,0,100,0,0
51453,-83.1194393095102,4,1,0,100,0,0
51539,-82.9043722936904,4,1,0,100,0,0
51625,-82.6904153539563,4,1,0,100,0,0
51711,-82.4775599178853,4,1,0,100,0,0
51796,-82.2657975010941,4,1,0,100,0,0
51882,-82.0551197061114,4,1,0,100,0,0
52053,-81.6369848196027,4,1,0,100,0,0
52225,-81.2230897750689,4,1,0,100,0,0
52311,-81.0177120922176,4,1,0,100,0,0
52396,-80.8133704105077,4,1,0,100,0,0
52482,-80.6100569107002,4,1,0,100,0,0
52568,-80.4077638520465,4,1,0,100,0,0
52739,-80.0062724917634,4,1,0,100,0,0
52825,-79.8069947638631,4,1,0,100,0,0
52911,-79.6087072819677,4,1,0,100,0,0
52996,-79.4114026833113,4,1,0,100,0,0
53082,-79.21507367794,4,1,0,100,0,0
53168,-79.019713047814,4,1,0,100,0,0
53253,-78.825313645923,4,1,0,100,0,0
53339,-78.6318683954145,4,1,0,100,0,0
53425,-78.4393702887353,4,1,0,100,0,0
53596,-78.057187818083,4,1,0,100,0,0
53682,-77.8674897779453,4,1,0,100,0,0
53768,-77.6787115276761,4,1,0,100,0,0
53939,-77.3038877671236,4,1,0,100,0,0
54111,-76.9327231029737,4,1,0,100,0,0
54196,-76.7484446927683,4,1,0,100,0,0
54282,-76.5650469841411,4,1,0,100,0,0
54368,-76.3825236785823,4,1,0,100,0,0
54453,-76.2008685374996,4,1,0,100,0,0
54539,-76.0200753815067,4,1,0,100,0,0
54625,-75.8401380897234,4,1,0,100,0,0
54796,-75.4828069036575,4,1,0,100,0,0
54882,-75.3054010539744,4,1,0,100,0,0
54968,-75.1288271563664,4,1,0,100,0,0
55053,-74.9530793723129,4,1,0,100,0,0
55139,-74.7781519177979,4,1,0,100,0,0
55225,-74.6040390626748,4,1,0,100,0,0
55311,-74.4307351300417,4,1,0,100,0,0
55396,-74.2582896385181,4,1,0,100,0,0
55482,-74.0865864753455,4,1,0,100,0,0
55539,-73.9725399137332,4,1,0,100,0,0
55596,-73.8588439318312,4,1,0,100,0,0
55653,-73.7455512996178,4,1,0,100,0,0
55739,-73.5762083972527,4,1,0,100,0,0
55825,-73.4076414418435,4,1,0,100,0,0
55882,-73.2956740160239,4,1,0,100,0,0
55939,-73.1841011931204,4,1,0,100,0,0
55996,-73.0728141363743,4,1,0,100,0,0
56082,-72.9065432893537,4,1,0,100,0,0
56168,-72.7410273942709,4,1,0,100,0,0
56382,-100,4,1,0,60,0,0
62168,-99.0723852568402,4,1,0,60,0,0
62339,-98.7669928611218,4,1,0,60,0,0
62853,-97.8620086960181,4,1,0,60,0,0
63025,-97.5641166983913,4,1,0,60,0,0
63539,-96.6809432192821,4,1,0,60,0,0
63711,-96.3900945683218,4,1,0,60,0,0
64225,-95.5279543452801,4,1,0,60,0,0
64396,-95.2439912946992,4,1,0,60,0,0
64739,-94.6810998535284,4,1,0,60,0,0
65082,-94.1248226923653,4,1,0,60,0,0
65425,-93.5750439100893,4,1,0,60,0,0
65768,-93.0317368467079,4,1,0,60,0,0
66282,-92.2283759044145,4,1,0,60,0,0
66453,-91.9636633173501,4,1,0,60,0,0
66625,-91.7004659300674,4,1,0,60,0,0
66796,-91.4387707703168,4,1,0,60,0,0
66968,-91.1785650135081,4,1,0,60,0,0
67053,-86.9565217391304,4,1,0,100,0,0
67311,-86.8387231234152,4,1,0,100,0,0
67396,-86.7798681119564,4,1,0,100,0,0
67482,-86.721168030068,4,1,0,100,0,0
67568,-86.662547306918,4,1,0,100,0,0
67653,-86.6040057816834,4,1,0,100,0,0
67825,-86.4870848836143,4,1,0,100,0,0
67996,-86.3705538598137,4,1,0,100,0,0
68082,-86.3123315291179,4,1,0,100,0,0
68168,-86.254262038723,4,1,0,100,0,0
68253,-86.1962706321548,4,1,0,100,0,0
68339,-86.1383571520247,4,1,0,100,0,0
68511,-86.0226893445415,4,1,0,100,0,0
68682,-85.9074055619891,4,1,0,100,0,0
68768,-85.8498794667692,4,1,0,100,0,0
68853,-85.7923567589364,4,1,0,100,0,0
68939,-85.7349845891365,4,1,0,100,0,0
69025,-85.6776891013696,4,1,0,100,0,0
69196,-85.5632543470411,4,1,0,100,0,0
69368,-85.4491978883794,4,1,0,100,0,0
69453,-85.3922836116837,4,1,0,100,0,0
69539,-85.3353722798283,4,1,0,100,0,0
69625,-85.2786094811052,4,1,0,100,0,0
69711,-85.2219221463652,4,1,0,100,0,0
69882,-85.1087732676747,4,1,0,100,0,0
70053,-84.9958522024125,4,1,0,100,0,0
70139,-84.9395400354028,4,1,0,100,0,0
70225,-84.8833024358112,4,1,0,100,0,0
70396,-84.7709784859734,4,1,0,100,0,0
70568,-84.659023085669,4,1,0,100,0,0
70653,-84.6030846284656,4,1,0,100,0,0
70739,-84.5472915275159,4,1,0,100,0,0
70825,-84.4915719656964,4,1,0,100,0,0
70911,-84.4359257977084,4,1,0,100,0,0
70996,-84.3802816782563,4,1,0,100,0,0
71082,-84.3247819571951,4,1,0,100,0,0
71168,-84.2693551961748,4,1,0,100,0,0
71253,-84.2140012514201,4,1,0,100,0,0
71425,-84.1034405035441,4,1,0,100,0,0
71511,-84.0483042414136,4,1,0,100,0,0
71596,-83.9932402240268,4,1,0,100,0,0
71768,-83.8832579921871,4,1,0,100,0,0
71939,-83.7736335892059,4,1,0,100,0,0
72025,-83.7189287660751,4,1,0,100,0,0
72111,-83.6642253445711,4,1,0,100,0,0
72196,-83.6096632704421,4,1,0,100,0,0
72282,-83.5551723158319,4,1,0,100,0,0
72368,-83.5007523417786,4,1,0,100,0,0
72453,-83.4463335767185,4,1,0,100,0,0
72539,-83.3920552388974,4,1,0,100,0,0
72625,-83.3333333333333,4,1,0,100,0,0
72796,-82.7586435196258,4,1,0,100,0,0
72882,-82.4742268041237,4,1,0,100,0,0
72968,-82.1917583036279,4,1,0,100,0,0
73139,-81.6326530612245,4,1,0,100,0,0
73225,-81.3559101407701,4,1,0,100,0,0
73311,-81.0811029948927,4,1,0,100,0,0
73396,-80.8080808080808,4,1,0,100,0,0
73482,-80.5368911310359,4,1,0,100,0,0
73568,-80.2675800047037,4,1,0,100,0,0
73653,-80,4,1,0,100,0,0
73825,-79.4702197272105,4,1,0,100,0,0
73996,-78.9473476454348,4,1,0,100,0,0
74082,-78.6885452297823,4,1,0,100,0,0
74168,-78.4313725490196,4,1,0,100,0,0
74253,-78.1758753939087,4,1,0,100,0,0
74339,-77.9220981615839,4,1,0,100,0,0
74511,-77.4193348595265,4,1,0,100,0,0
74596,-77.1704378573474,4,1,0,100,0,0
74682,-76.9230769230769,4,1,0,100,0,0
74768,-76.6772966958986,4,1,0,100,0,0
74853,-76.4331404925199,4,1,0,100,0,0
74939,-76.1904761904762,4,1,0,100,0,0
75025,-75.9493478609246,4,1,0,100,0,0
75196,-75.4716981132076,4,1,0,100,0,0
75368,-75.0000187500047,4,1,0,100,0,0
75453,-74.7663551401869,4,1,0,100,0,0
75539,-74.5341429728837,4,1,0,100,0,0
75625,-74.3034239760802,4,1,0,100,0,0
75711,-74.0740740740741,4,1,0,100,0,0
75796,-73.8461356686435,4,1,0,100,0,0
75882,-73.6196499680123,4,1,0,100,0,0
75968,-73.394495412844,4,1,0,100,0,0
76053,-73.1707138608015,4,1,0,100,0,0
76139,-72.9483460056768,4,1,0,100,0,0
76225,-72.7272727272727,4,1,0,100,0,0
76311,-72.5075353456108,4,1,0,100,0,0
76396,-72.2891740455841,4,1,0,100,0,0
76482,-72.0720720720721,4,1,0,100,0,0
76568,-71.856270214067,4,1,0,100,0,0
76653,-71.6418081532676,4,1,0,100,0,0
76739,-71.4285714285714,4,1,0,100,0,0
76911,-71.4285714285714,4,1,0,80,0,0
77082,-74.0598655517201,4,1,0,80,0,0
77168,-74.7482479010692,4,1,0,80,0,0
77253,-75.4495472649916,4,1,0,80,0,0
77339,-76.1641886647885,4,1,0,80,0,0
77425,-76.8924382438382,4,1,0,80,0,0
77511,-77.6347486924367,4,1,0,80,0,0
77596,-78.3915312061008,4,1,0,80,0,0
77682,-79.1632758396849,4,1,0,80,0,0
77725,-71.4285714285714,4,1,0,100,0,0
77768,-79.9503028917225,4,1,0,100,0,0
77939,-83.3333333333333,4,1,0,100,0,0
78111,-83.3333333333333,4,1,0,100,0,1
88739,-76.9230769230769,4,1,0,100,0,1
88911,-78.9473476454348,4,1,0,100,0,1
89082,-81.0811029948927,4,1,0,100,0,1
89253,-83.3333333333333,4,1,0,100,0,1
94739,-83.1168831168831,4,1,0,100,0,1
94825,-83.0090446655068,4,1,0,100,0,1
94911,-82.9015544041451,4,1,0,100,0,1
94996,-82.7943421658338,4,1,0,100,0,1
95082,-82.687338501292,4,1,0,100,0,1
95253,-82.4742268041237,4,1,0,100,0,1
95339,-82.3681162906013,4,1,0,100,0,1
95425,-82.2622107969152,4,1,0,100,0,1
95511,-82.1566447883522,4,1,0,100,0,1
95596,-82.0512820512821,4,1,0,100,0,1
95682,-81.9462563672241,4,1,0,100,0,1
95768,-81.8414322250639,4,1,0,100,0,1
95939,-81.6326530612245,4,1,0,100,0,1
96111,-81.4249363867685,4,1,0,100,0,1
96196,-81.3214408858182,4,1,0,100,0,1
96282,-81.2182741116751,4,1,0,100,0,1
96368,-81.1153687666895,4,1,0,100,0,1
96453,-81.0126582278481,4,1,0,100,0,1
96625,-80.8080808080808,4,1,0,100,0,1
96711,-80.7062116342846,4,1,0,100,0,1
96796,-80.6045340050378,4,1,0,100,0,1
96882,-80.5031122503196,4,1,0,100,0,1
96968,-80.4020100502513,4,1,0,100,0,1
97053,-80.3011614759996,4,1,0,100,0,1
97139,-80.2005012531328,4,1,0,100,0,1
97311,-80,4,1,0,100,0,1
97482,-79.8004987531172,4,1,0,100,0,1
97568,-79.7010890356806,4,1,0,100,0,1
97653,-79.6019900497512,4,1,0,100,0,1
97825,-79.4044665012407,4,1,0,100,0,1
97911,-79.3060404238749,4,1,0,100,0,1
97996,-79.2079207920792,4,1,0,100,0,1
98082,-79.1100436529221,4,1,0,100,0,1
98168,-79.0123456790123,4,1,0,100,0,1
98253,-78.9148887142239,4,1,0,100,0,1
98339,-78.8177339901478,4,1,0,100,0,1
98511,-78.6240786240786,4,1,0,100,0,1
98682,-78.4313725490196,4,1,0,100,0,1
98739,-78.3673264673106,4,1,0,100,0,1
98796,-78.3034462129713,4,1,0,100,0,1
98853,-78.239608801956,4,1,0,100,0,1
98939,-78.1440476116053,4,1,0,100,0,1
99025,-78.0487804878049,4,1,0,100,0,1
99111,-77.9537453656498,4,1,0,100,0,1
99196,-77.8588807785888,4,1,0,100,0,1
99368,-77.6699029126214,4,1,0,100,0,1
99425,-77.60709390924,4,1,0,100,0,1
99482,-77.5444465381445,4,1,0,100,0,1
99539,-77.4818401937046,4,1,0,100,0,1
99625,-77.3881199949233,4,1,0,100,0,1
99711,-77.2946859903382,4,1,0,100,0,0
100053,-76.9230769230769,4,1,0,100,0,1
110682,-71.4285714285714,4,1,0,100,0,1
110853,-73.1707138608015,4,1,0,100,0,1
111025,-75.0000187500047,4,1,0,100,0,1
111196,-76.9230769230769,4,1,0,100,0,1
120711,-77.6699029126214,4,1,0,100,0,1
120796,-78.4313725490196,4,1,0,100,0,1
120882,-79.2079207920792,4,1,0,100,0,1
120968,-80,4,1,0,100,0,1
121053,-80.8080808080808,4,1,0,100,0,1
121139,-81.6326530612245,4,1,0,100,0,1
121225,-82.4742268041237,4,1,0,100,0,1
121311,-83.3333333333333,4,1,0,100,0,1
121368,-83.91606044306,4,1,0,100,0,1
121425,-84.5070660583285,4,1,0,100,0,1
121482,-85.1063829787234,4,1,0,100,0,1
121568,-86.0215053763441,4,1,0,100,0,1
121653,-86.9565217391304,4,1,0,100,0,0
121825,-100,4,1,0,60,0,0
122168,-100.470806197843,4,1,0,60,0,0
122339,-100.946066535571,4,1,0,60,0,0
122511,-101.425844522294,4,1,0,60,0,0
122682,-101.910204880276,4,1,0,60,0,0
122853,-102.39921357404,4,1,0,60,0,0
123025,-102.892937840318,4,1,0,60,0,0
123196,-103.391446218871,4,1,0,60,0,0
123368,-103.894808584205,4,1,0,60,0,0
123539,-104.40309617822,4,1,0,60,0,0
123711,-104.91638164383,4,1,0,60,0,0
123882,-105.434739059564,4,1,0,60,0,0
124053,-105.958243975214,4,1,0,60,0,0
124225,-106.486973448538,4,1,0,60,0,0
124396,-107.021006083074,4,1,0,60,0,0
124568,-107.560422067096,4,1,0,60,0,0
124739,-108.105303213754,4,1,0,60,0,0
124911,-108.65573300244,4,1,0,60,0,0
125082,-109.211796621424,4,1,0,60,0,0
125253,-109.773581011805,4,1,0,60,0,0
125425,-110.341053161216,4,1,0,60,0,0
125596,-110.914545888121,4,1,0,60,0,0
125768,-111.494031167041,4,1,0,60,0,0
125939,-112.079603417531,4,1,0,60,0,0
126111,-112.6713590532,4,1,0,60,0,0
126282,-113.269396534636,4,1,0,60,0,0
126453,-113.873816424021,4,1,0,60,0,0
126625,-114.4847214415,4,1,0,60,0,0
126796,-115.102216523384,4,1,0,60,0,0
126968,-115.726408882233,4,1,0,60,0,0
127139,-116.357408068921,4,1,0,60,0,0
127311,-116.995326036725,4,1,0,60,0,0
127482,-117.640277207549,4,1,0,60,0,0
127653,-118.292378540343,4,1,0,60,0,0
127825,-118.951749601809,4,1,0,60,0,0
127996,-119.61851263949,4,1,0,60,0,0
128168,-120.292792657328,4,1,0,60,0,0
128339,-120.974717493791,4,1,0,60,0,0
128511,-121.664417902676,4,1,0,60,0,0
128682,-122.362027636688,4,1,0,60,0,0
128853,-123.067683533913,4,1,0,60,0,0
129025,-123.781525607303,4,1,0,60,0,0
129196,-124.503697137286,4,1,0,60,0,0
129368,-125.234344767646,4,1,0,60,0,0
129539,-125.973618604792,4,1,0,60,0,0
129711,-126.721672320565,4,1,0,60,0,0
129882,-127.478663258737,4,1,0,60,0,0
130053,-128.244752545338,4,1,0,60,0,0
130225,-129.020105202994,4,1,0,60,0,0
130396,-129.804890269436,4,1,0,60,0,0
130568,-130.599280920359,4,1,0,60,0,0
130739,-131.403454596821,4,1,0,60,0,0
130911,-132.217593137378,4,1,0,60,0,0
131082,-133.041882915161,4,1,0,60,0,0
131253,-133.876514980113,4,1,0,60,0,0
131425,-134.721685206616,4,1,0,60,0,0
131596,-135.577594446742,4,1,0,60,0,0
131768,-136.444448689383,4,1,0,60,0,0
131939,-137.322459225529,4,1,0,60,0,0
132111,-138.211842819964,4,1,0,60,0,0
132282,-139.112628366178,4,1,0,60,0,0
132453,-140.025428617837,4,1,0,60,0,0
132625,-140.950286833834,4,1,0,60,0,0
132796,-141.887443528797,4,1,0,60,0,0
132968,-142.837145656751,4,1,0,60,0,0
133139,-143.799646828067,4,1,0,60,0,0
133311,-144.77520753526,4,1,0,60,0,0
133482,-145.764095388024,4,1,0,60,0,0
133653,-146.766585357978,4,1,0,60,0,0
133825,-147.782960033576,4,1,0,60,0,0
133996,-148.813509885681,4,1,0,60,0,0
134168,-149.858533544334,4,1,0,60,0,0
134339,-150.918338087261,4,1,0,60,0,0
134511,-151.993239340714,4,1,0,60,0,0
134682,-153.083562193259,4,1,0,60,0,0
134853,-154.189640923164,4,1,0,60,0,0
135025,-155.311819540091,4,1,0,60,0,0
135196,-156.450452141807,4,1,0,60,0,0
135368,-157.605903286713,4,1,0,60,0,0
135539,-158.778548382999,4,1,0,60,0,0
135711,-159.968774095297,4,1,0,60,0,0
135882,-161.176978769768,4,1,0,60,0,0
136053,-162.403572878603,4,1,0,60,0,0
136225,-163.648979484964,4,1,0,60,0,0
136396,-164.913634729492,4,1,0,60,0,0
136568,-166.197988339549,4,1,0,60,0,0
136739,-167.502504162437,4,1,0,60,0,0
136911,-168.827660723933,4,1,0,60,0,0
137082,-170.173951813544,4,1,0,60,0,0
137253,-171.541887097992,4,1,0,60,0,0
137425,-172.931992764525,4,1,0,60,0,0
137596,-174.344812195768,4,1,0,60,0,0
137768,-175.780906677917,4,1,0,60,0,0
137939,-177.240856144232,4,1,0,60,0,0
138111,-178.725259955891,4,1,0,60,0,0
138282,-180.23473772241,4,1,0,60,0,0
138453,-181.769930163993,4,1,0,60,0,0
138625,-183.331500018333,4,1,0,60,0,0
138796,-184.92013299456,4,1,0,60,0,0
138968,-186.536190819062,4,1,0,60,0,0
139139,-188.181097961434,4,1,0,60,0,0
139311,-189.855273325144,4,1,0,60,0,0
139482,-191.559505086863,4,1,0,60,0,0
139653,-193.294609979801,4,1,0,60,0,0
139825,-195.061434598827,4,1,0,60,0,0
139996,-196.860856777821,4,1,0,60,0,0
140168,-198.693787043973,4,1,0,60,0,0
140339,-200.561170154091,4,1,0,60,0,0
140511,-202.463986718362,4,1,0,60,0,0
140682,-204.403254917431,4,1,0,60,0,0
140853,-206.380032319113,4,1,0,60,0,0
141025,-208.395417801553,4,1,0,60,0,0
141196,-210.450553590181,4,1,0,60,0,0
141368,-212.546627416389,4,1,0,60,0,0
141539,-214.684874806515,4,1,0,60,0,0
141711,-216.866581510389,4,1,0,60,0,0
141882,-219.093086079483,4,1,0,60,0,0
142053,-221.36578260552,4,1,0,60,0,0
142225,-223.686123631321,4,1,0,60,0,0
142396,-226.055623246656,4,1,0,60,0,0
142568,-228.475860382971,4,1,0,60,0,0
142739,-230.948482322048,4,1,0,60,0,0
142911,-233.475208434992,4,1,0,60,0,0
143082,-236.057834169372,4,1,0,60,0,0
143253,-238.698235303946,4,1,0,60,0,0
143425,-241.398372492173,4,1,0,60,0,0
143596,-244.160296117607,4,1,0,60,0,0
143768,-246.986151486486,4,1,0,60,0,0
143939,-249.878184385112,4,1,0,60,0,0

[HitObjects]
256,192,1311,5,12,0:0:0:0:
256,192,2682,1,8,0:0:0:0:
256,192,4053,1,0,0:0:0:0:
256,192,5425,1,0,0:0:0:0:
256,192,6111,1,0,0:0:0:0:
256,192,6796,1,8,0:0:0:0:
256,192,8168,1,8,0:0:0:0:
256,192,8853,1,8,0:0:0:0:
256,192,9539,1,0,0:0:0:0:
256,192,10911,1,8,0:0:0:0:
256,192,11596,1,0,0:0:0:0:
256,192,11768,1,8,0:0:0:0:
256,192,11939,1,8,0:0:0:0:
256,192,12025,1,8,0:0:0:0:
256,192,12111,1,0,0:0:0:0:
256,192,12282,1,12,0:0:0:0:
256,192,12453,1,0,0:0:0:0:
256,192,12625,1,8,0:0:0:0:
256,192,12796,1,0,0:0:0:0:
256,192,12882,1,8,0:0:0:0:
256,192,13053,1,8,0:0:0:0:
256,192,13139,1,0,0:0:0:0:
256,192,13311,1,8,0:0:0:0:
256,192,13482,1,8,0:0:0:0:
256,192,13568,1,8,0:0:0:0:
256,192,13653,1,0,0:0:0:0:
256,192,13825,1,0,0:0:0:0:
256,192,13996,1,8,0:0:0:0:
256,192,14168,1,0,0:0:0:0:
256,192,14253,1,0,0:0:0:0:
256,192,14339,1,8,0:0:0:0:
256,192,14425,1,8,0:0:0:0:
256,192,14511,1,0,0:0:0:0:
256,192,14682,1,8,0:0:0:0:
256,192,14768,1,0,0:0:0:0:
256,192,14853,1,8,0:0:0:0:
256,192,15025,1,0,0:0:0:0:
256,192,15196,1,8,0:0:0:0:
256,192,15368,1,0,0:0:0:0:
256,192,15539,1,0,0:0:0:0:
256,192,15625,1,0,0:0:0:0:
256,192,15711,1,8,0:0:0:0:
256,192,15796,1,0,0:0:0:0:
256,192,15882,1,8,0:0:0:0:
256,192,16053,1,0,0:0:0:0:
256,192,16225,1,0,0:0:0:0:
256,192,16311,1,0,0:0:0:0:
256,192,16396,1,8,0:0:0:0:
256,192,16568,1,0,0:0:0:0:
256,192,16739,1,8,0:0:0:0:
256,192,16825,1,0,0:0:0:0:
256,192,16911,1,0,0:0:0:0:
256,192,16996,1,0,0:0:0:0:
256,192,17082,1,8,0:0:0:0:
256,192,17168,1,0,0:0:0:0:
256,192,17253,1,8,0:0:0:0:
256,192,17425,1,0,0:0:0:0:
256,192,17596,1,8,0:0:0:0:
256,192,17682,1,0,0:0:0:0:
256,192,17768,1,8,0:0:0:0:
256,192,17939,1,0,0:0:0:0:
256,192,18111,1,8,0:0:0:0:
256,192,18282,1,0,0:0:0:0:
256,192,18368,1,8,0:0:0:0:
256,192,18453,1,8,0:0:0:0:
256,192,18539,1,8,0:0:0:0:
256,192,18625,1,0,0:0:0:0:
256,192,18796,1,8,0:0:0:0:
256,192,18968,1,8,0:0:0:0:
256,192,19053,1,8,0:0:0:0:
256,192,19139,1,0,0:0:0:0:
256,192,19311,1,0,0:0:0:0:
256,192,19482,1,8,0:0:0:0:
256,192,19653,1,8,0:0:0:0:
256,192,19739,1,8,0:0:0:0:
256,192,19825,1,0,0:0:0:0:
256,192,19911,1,8,0:0:0:0:
256,192,19996,1,0,0:0:0:0:
256,192,20082,1,0,0:0:0:0:
256,192,20168,1,8,0:0:0:0:
256,192,20339,1,8,0:0:0:0:
256,192,20511,1,0,0:0:0:0:
256,192,20596,1,0,0:0:0:0:
256,192,20682,1,8,0:0:0:0:
256,192,20768,1,0,0:0:0:0:
256,192,20853,1,8,0:0:0:0:
256,192,20939,1,8,0:0:0:0:
256,192,21025,1,0,0:0:0:0:
256,192,21111,1,8,0:0:0:0:
256,192,21196,1,0,0:0:0:0:
256,192,21282,1,0,0:0:0:0:
256,192,21368,1,8,0:0:0:0:
256,192,21453,1,0,0:0:0:0:
256,192,21539,1,8,0:0:0:0:
256,192,21625,1,8,0:0:0:0:
256,192,21711,1,0,0:0:0:0:
256,192,21796,1,8,0:0:0:0:
256,192,21882,1,4,0:0:0:0:
256,192,22225,1,8,0:0:0:0:
256,192,22396,1,8,0:0:0:0:
256,192,22568,1,0,0:0:0:0:
256,192,22653,1,0,0:0:0:0:
256,192,22739,1,0,0:0:0:0:
256,192,22825,1,0,0:0:0:0:
256,192,22911,1,8,0:0:0:0:
256,192,23082,1,8,0:0:0:0:
256,192,23139,1,8,0:0:0:0:
256,192,23196,1,8,0:0:0:0:
256,192,23253,1,0,0:0:0:0:
256,192,23425,1,8,0:0:0:0:
256,192,23596,1,0,0:0:0:0:
256,192,23768,1,0,0:0:0:0:
256,192,23853,1,0,0:0:0:0:
256,192,23939,1,8,0:0:0:0:
256,192,24025,1,0,0:0:0:0:
256,192,24111,1,8,0:0:0:0:
256,192,24282,1,0,0:0:0:0:
256,192,24453,1,8,0:0:0:0:
256,192,24539,1,8,0:0:0:0:
256,192,24625,1,0,0:0:0:0:
256,192,24796,1,0,0:0:0:0:
256,192,24968,1,8,0:0:0:0:
256,192,25139,1,0,0:0:0:0:
256,192,25225,1,0,0:0:0:0:
256,192,25311,1,8,0:0:0:0:
256,192,25396,1,8,0:0:0:0:
256,192,25482,1,0,0:0:0:0:
256,192,25653,1,8,0:0:0:0:
256,192,25825,1,0,0:0:0:0:
256,192,25911,1,8,0:0:0:0:
256,192,25996,1,0,0:0:0:0:
256,192,26168,1,0,0:0:0:0:
256,192,26339,1,8,0:0:0:0:
256,192,26511,1,0,0:0:0:0:
256,192,26596,1,0,0:0:0:0:
256,192,26682,1,8,0:0:0:0:
256,192,26768,1,0,0:0:0:0:
256,192,26853,1,8,0:0:0:0:
256,192,27025,1,0,0:0:0:0:
256,192,27196,1,8,0:0:0:0:
256,192,27282,1,0,0:0:0:0:
256,192,27368,1,8,0:0:0:0:
256,192,27539,1,8,0:0:0:0:
256,192,27711,1,0,0:0:0:0:
256,192,27882,1,8,0:0:0:0:
256,192,27968,1,0,0:0:0:0:
256,192,28053,1,8,0:0:0:0:
256,192,28139,1,8,0:0:0:0:
256,192,28225,1,4,0:0:0:0:
256,192,28396,1,4,0:0:0:0:
256,192,28568,1,4,0:0:0:0:
256,192,28739,1,12,0:0:0:0:
256,192,28911,1,0,0:0:0:0:
256,192,29082,1,0,0:0:0:0:
256,192,29253,1,0,0:0:0:0:
256,192,29425,1,12,0:0:0:0:
256,192,29596,1,0,0:0:0:0:
256,192,29768,1,8,0:0:0:0:
256,192,29939,1,0,0:0:0:0:
256,192,30111,1,12,0:0:0:0:
256,192,30282,1,0,0:0:0:0:
256,192,30453,1,0,0:0:0:0:
256,192,30625,1,0,0:0:0:0:
256,192,30796,1,12,0:0:0:0:
256,192,30968,1,0,0:0:0:0:
256,192,31139,1,8,0:0:0:0:
256,192,31311,1,0,0:0:0:0:
256,192,31482,1,8,0:0:0:0:
256,192,31568,1,8,0:0:0:0:
256,192,31653,1,0,0:0:0:0:
256,192,31739,1,0,0:0:0:0:
256,192,31825,1,8,0:0:0:0:
256,192,31911,1,0,0:0:0:0:
256,192,31996,1,8,0:0:0:0:
256,192,32082,1,8,0:0:0:0:
256,192,32168,1,0,0:0:0:0:
256,192,32253,1,0,0:0:0:0:
256,192,32339,1,0,0:0:0:0:
256,192,32425,1,0,0:0:0:0:
256,192,32511,1,8,0:0:0:0:
256,192,32596,1,8,0:0:0:0:
256,192,32682,1,8,0:0:0:0:
256,192,32768,1,8,0:0:0:0:
256,192,32853,1,4,0:0:0:0:
256,192,33196,1,8,0:0:0:0:
256,192,33368,1,8,0:0:0:0:
256,192,33539,1,0,0:0:0:0:
256,192,33625,1,0,0:0:0:0:
256,192,33711,1,0,0:0:0:0:
256,192,33882,1,12,0:0:0:0:
256,192,34225,1,4,0:0:0:0:
256,192,34396,1,8,0:0:0:0:
256,192,34568,1,0,0:0:0:0:
256,192,34653,1,0,0:0:0:0:
256,192,34739,1,8,0:0:0:0:
256,192,34911,1,0,0:0:0:0:
256,192,34996,1,8,0:0:0:0:
256,192,35082,1,8,0:0:0:0:
256,192,35168,1,8,0:0:0:0:
256,192,35253,1,0,0:0:0:0:
256,192,35425,1,0,0:0:0:0:
256,192,35596,1,8,0:0:0:0:
256,192,35768,1,0,0:0:0:0:
256,192,35853,1,8,0:0:0:0:
256,192,35939,1,0,0:0:0:0:
256,192,36111,1,0,0:0:0:0:
256,192,36196,1,8,0:0:0:0:
256,192,36282,1,0,0:0:0:0:
256,192,36368,1,0,0:0:0:0:
256,192,36453,1,8,0:0:0:0:
256,192,36539,1,8,0:0:0:0:
256,192,36625,1,0,0:0:0:0:
256,192,36711,1,8,0:0:0:0:
256,192,36796,1,8,0:0:0:0:
256,192,36882,1,8,0:0:0:0:
256,192,36968,1,0,0:0:0:0:
256,192,37139,1,8,0:0:0:0:
256,192,37311,1,0,0:0:0:0:
256,192,37396,1,0,0:0:0:0:
256,192,37482,1,8,0:0:0:0:
256,192,37653,1,8,0:0:0:0:
256,192,37739,1,0,0:0:0:0:
256,192,37825,1,8,0:0:0:0:
256,192,37911,1,8,0:0:0:0:
256,192,37996,1,0,0:0:0:0:
256,192,38082,1,0,0:0:0:0:
256,192,38168,1,8,0:0:0:0:
256,192,38339,1,0,0:0:0:0:
256,192,38511,1,0,0:0:0:0:
256,192,38596,1,8,0:0:0:0:
256,192,38682,1,0,0:0:0:0:
256,192,38768,1,0,0:0:0:0:
256,192,38853,1,8,0:0:0:0:
256,192,39025,1,0,0:0:0:0:
256,192,39082,1,0,0:0:0:0:
256,192,39139,1,0,0:0:0:0:
256,192,39196,1,8,0:0:0:0:
256,192,39282,1,8,0:0:0:0:
256,192,39368,1,4,0:0:0:0:
256,192,39539,1,4,0:0:0:0:
256,192,39711,1,12,0:0:0:0:
256,192,39882,1,8,0:0:0:0:
256,192,40053,1,0,0:0:0:0:
256,192,40139,1,0,0:0:0:0:
256,192,40225,1,8,0:0:0:0:
256,192,40396,1,0,0:0:0:0:
256,192,40482,1,0,0:0:0:0:
256,192,40568,1,8,0:0:0:0:
256,192,40653,1,8,0:0:0:0:
256,192,40739,1,0,0:0:0:0:
256,192,40911,1,0,0:0:0:0:
256,192,41082,1,8,0:0:0:0:
256,192,41253,1,0,0:0:0:0:
256,192,41339,1,8,0:0:0:0:
256,192,41425,1,0,0:0:0:0:
256,192,41596,1,0,0:0:0:0:
256,192,41682,1,0,0:0:0:0:
256,192,41768,1,8,0:0:0:0:
256,192,41853,1,8,0:0:0:0:
256,192,41939,1,0,0:0:0:0:
256,192,42025,1,8,0:0:0:0:
256,192,42111,1,0,0:0:0:0:
256,192,42196,1,0,0:0:0:0:
256,192,42282,1,8,0:0:0:0:
256,192,42368,1,0,0:0:0:0:
256,192,42453,1,8,0:0:0:0:
256,192,42625,1,8,0:0:0:0:
256,192,42796,1,0,0:0:0:0:
256,192,42882,1,8,0:0:0:0:
256,192,42968,1,0,0:0:0:0:
256,192,43139,1,0,0:0:0:0:
256,192,43225,1,0,0:0:0:0:
256,192,43311,1,8,0:0:0:0:
256,192,43396,1,8,0:0:0:0:
256,192,43482,1,0,0:0:0:0:
256,192,43568,1,8,0:0:0:0:
256,192,43653,1,0,0:0:0:0:
256,192,43825,1,8,0:0:0:0:
256,192,43911,1,8,0:0:0:0:
256,192,43996,1,0,0:0:0:0:
256,192,44082,1,0,0:0:0:0:
256,192,44168,1,8,0:0:0:0:
256,192,44253,1,8,0:0:0:0:
256,192,44339,1,0,0:0:0:0:
256,192,44511,1,0,0:0:0:0:
256,192,44568,1,0,0:0:0:0:
256,192,44625,1,0,0:0:0:0:
256,192,44682,1,8,0:0:0:0:
256,192,44768,1,8,0:0:0:0:
256,192,44853,1,0,0:0:0:0:
256,192,44911,1,0,0:0:0:0:
256,192,44968,1,0,0:0:0:0:
256,192,45025,1,8,0:0:0:0:
256,192,45111,1,8,0:0:0:0:
256,192,45196,1,0,0:0:0:0:
256,192,45368,1,0,0:0:0:0:
256,192,45539,1,12,0:0:0:0:
256,192,45711,1,8,0:0:0:0:
256,192,45882,1,0,0:0:0:0:
256,192,45968,1,0,0:0:0:0:
256,192,46053,1,8,0:0:0:0:
256,192,46139,1,8,0:0:0:0:
256,192,46225,1,0,0:0:0:0:
256,192,46311,1,0,0:0:0:0:
256,192,46396,1,8,0:0:0:0:
256,192,46568,1,0,0:0:0:0:
256,192,46739,1,8,0:0:0:0:
256,192,46825,1,8,0:0:0:0:
256,192,46911,1,0,0:0:0:0:
256,192,47082,1,8,0:0:0:0:
256,192,47168,1,0,0:0:0:0:
256,192,47253,1,8,0:0:0:0:
256,192,47339,1,8,0:0:0:0:
256,192,47425,1,0,0:0:0:0:
256,192,47511,1,8,0:0:0:0:
256,192,47596,1,0,0:0:0:0:
256,192,47682,1,0,0:0:0:0:
256,192,47768,1,8,0:0:0:0:
256,192,47939,1,0,0:0:0:0:
256,192,48111,1,8,0:0:0:0:
256,192,48196,1,8,0:0:0:0:
256,192,48282,1,0,0:0:0:0:
256,192,48453,1,8,0:0:0:0:
256,192,48625,1,0,0:0:0:0:
256,192,48711,1,0,0:0:0:0:
256,192,48796,1,8,0:0:0:0:
256,192,48882,1,8,0:0:0:0:
256,192,48968,1,0,0:0:0:0:
256,192,49053,1,8,0:0:0:0:
256,192,49139,1,0,0:0:0:0:
256,192,49311,1,8,0:0:0:0:
256,192,49396,1,0,0:0:0:0:
256,192,49482,1,0,0:0:0:0:
256,192,49568,1,0,0:0:0:0:
256,192,49653,1,8,0:0:0:0:
256,192,49825,1,0,0:0:0:0:
256,192,49996,1,8,0:0:0:0:
256,192,50053,1,8,0:0:0:0:
256,192,50111,1,8,0:0:0:0:
256,192,50168,1,0,0:0:0:0:
256,192,50253,1,0,0:0:0:0:
256,192,50339,1,8,0:0:0:0:
256,192,50396,1,0,0:0:0:0:
256,192,50453,1,0,0:0:0:0:
256,192,50511,1,8,0:0:0:0:
256,192,50596,1,8,0:0:0:0:
256,192,50682,1,0,0:0:0:0:
256,192,50853,1,8,0:0:0:0:
256,192,50939,1,8,0:0:0:0:
256,192,51025,1,0,0:0:0:0:
256,192,51111,1,0,0:0:0:0:
256,192,51196,1,8,0:0:0:0:
256,192,51368,1,0,0:0:0:0:
256,192,51453,1,8,0:0:0:0:
256,192,51539,1,8,0:0:0:0:
256,192,51625,1,8,0:0:0:0:
256,192,51711,1,0,0:0:0:0:
256,192,51796,1,8,0:0:0:0:
256,192,51882,1,0,0:0:0:0:
256,192,52053,1,8,0:0:0:0:
256,192,52225,1,0,0:0:0:0:
256,192,52311,1,0,0:0:0:0:
256,192,52396,1,8,0:0:0:0:
256,192,52482,1,0,0:0:0:0:
256,192,52568,1,8,0:0:0:0:
256,192,52739,1,8,0:0:0:0:
256,192,52825,1,8,0:0:0:0:
256,192,52911,1,0,0:0:0:0:
256,192,52996,1,0,0:0:0:0:
256,192,53082,1,8,0:0:0:0:
256,192,53168,1,0,0:0:0:0:
256,192,53253,1,8,0:0:0:0:
256,192,53339,1,8,0:0:0:0:
256,192,53425,1,0,0:0:0:0:
256,192,53596,1,0,0:0:0:0:
256,192,53682,1,8,0:0:0:0:
256,192,53768,1,0,0:0:0:0:
256,192,53939,1,8,0:0:0:0:
256,192,54111,1,0,0:0:0:0:
256,192,54196,1,0,0:0:0:0:
256,192,54282,1,8,0:0:0:0:
256,192,54368,1,8,0:0:0:0:
256,192,54453,1,0,0:0:0:0:
256,192,54539,1,8,0:0:0:0:
256,192,54625,1,0,0:0:0:0:
256,192,54796,1,8,0:0:0:0:
256,192,54882,1,8,0:0:0:0:
256,192,54968,1,0,0:0:0:0:
256,192,55053,1,0,0:0:0:0:
256,192,55139,1,8,0:0:0:0:
256,192,55225,1,0,0:0:0:0:
256,192,55311,1,8,0:0:0:0:
256,192,55396,1,8,0:0:0:0:
256,192,55482,1,0,0:0:0:0:
256,192,55539,1,0,0:0:0:0:
256,192,55596,1,0,0:0:0:0:
256,192,55653,1,8,0:0:0:0:
256,192,55739,1,0,0:0:0:0:
256,192,55825,1,8,0:0:0:0:
256,192,55882,1,8,0:0:0:0:
256,192,55939,1,8,0:0:0:0:
256,192,55996,1,0,0:0:0:0:
256,192,56082,1,0,0:0:0:0:
256,192,56168,1,12,0:0:0:0:
256,192,56682,1,8,0:0:0:0:
256,192,56853,1,8,0:0:0:0:
256,192,57368,1,0,0:0:0:0:
256,192,57539,1,0,0:0:0:0:
256,192,58053,1,8,0:0:0:0:
256,192,58225,1,8,0:0:0:0:
256,192,58739,1,0,0:0:0:0:
256,192,58911,1,8,0:0:0:0:
256,192,59253,1,0,0:0:0:0:
256,192,59596,1,8,0:0:0:0:
256,192,59939,1,0,0:0:0:0:
256,192,60282,1,0,0:0:0:0:
256,192,60796,1,0,0:0:0:0:
256,192,60968,1,8,0:0:0:0:
256,192,61139,1,8,0:0:0:0:
256,192,61311,1,0,0:0:0:0:
256,192,61482,1,8,0:0:0:0:
256,192,61653,1,0,0:0:0:0:
256,192,62168,1,8,0:0:0:0:
256,192,62339,1,8,0:0:0:0:
256,192,62853,1,0,0:0:0:0:
256,192,63025,1,0,0:0:0:0:
256,192,63539,1,8,0:0:0:0:
256,192,63711,1,8,0:0:0:0:
256,192,64225,1,0,0:0:0:0:
256,192,64396,1,0,0:0:0:0:
256,192,64739,1,0,0:0:0:0:
256,192,65082,1,8,0:0:0:0:
256,192,65425,1,8,0:0:0:0:
256,192,65768,1,0,0:0:0:0:
256,192,66282,1,0,0:0:0:0:
256,192,66453,1,8,0:0:0:0:
256,192,66625,1,0,0:0:0:0:
256,192,66796,1,8,0:0:0:0:
256,192,66968,1,8,0:0:0:0:
256,192,67139,1,4,0:0:0:0:
256,192,67311,1,8,0:0:0:0:
256,192,67396,1,8,0:0:0:0:
256,192,67482,1,0,0:0:0:0:
256,192,67568,1,0,0:0:0:0:
256,192,67653,1,8,0:0:0:0:
256,192,67825,1,8,0:0:0:0:
256,192,67996,1,0,0:0:0:0:
256,192,68082,1,0,0:0:0:0:
256,192,68168,1,8,0:0:0:0:
256,192,68253,1,8,0:0:0:0:
256,192,68339,1,0,0:0:0:0:
256,192,68511,1,0,0:0:0:0:
256,192,68682,1,8,0:0:0:0:
256,192,68768,1,0,0:0:0:0:
256,192,68853,1,0,0:0:0:0:
256,192,68939,1,0,0:0:0:0:
256,192,69025,1,8,0:0:0:0:
256,192,69196,1,8,0:0:0:0:
256,192,69368,1,0,0:0:0:0:
256,192,69453,1,8,0:0:0:0:
256,192,69539,1,8,0:0:0:0:
256,192,69625,1,8,0:0:0:0:
256,192,69711,1,0,0:0:0:0:
256,192,69882,1,8,0:0:0:0:
256,192,70053,1,0,0:0:0:0:
256,192,70139,1,8,0:0:0:0:
256,192,70225,1,0,0:0:0:0:
256,192,70396,1,0,0:0:0:0:
256,192,70568,1,8,0:0:0:0:
256,192,70653,1,0,0:0:0:0:
256,192,70739,1,8,0:0:0:0:
256,192,70825,1,8,0:0:0:0:
256,192,70911,1,0,0:0:0:0:
256,192,70996,1,8,0:0:0:0:
256,192,71082,1,8,0:0:0:0:
256,192,71168,1,8,0:0:0:0:
256,192,71253,1,0,0:0:0:0:
256,192,71425,1,0,0:0:0:0:
256,192,71511,1,0,0:0:0:0:
256,192,71596,1,8,0:0:0:0:
256,192,71768,1,0,0:0:0:0:
256,192,71939,1,8,0:0:0:0:
256,192,72025,1,8,0:0:0:0:
256,192,72111,1,0,0:0:0:0:
256,192,72196,1,0,0:0:0:0:
256,192,72282,1,8,0:0:0:0:
256,192,72368,1,0,0:0:0:0:
256,192,72453,1,8,0:0:0:0:
256,192,72539,1,8,0:0:0:0:
256,192,72625,1,0,0:0:0:0:
256,192,72796,1,0,0:0:0:0:
256,192,72882,1,0,0:0:0:0:
256,192,72968,1,8,0:0:0:0:
256,192,73139,1,8,0:0:0:0:
256,192,73225,1,0,0:0:0:0:
256,192,73311,1,8,0:0:0:0:
256,192,73396,1,0,0:0:0:0:
256,192,73482,1,0,0:0:0:0:
256,192,73568,1,0,0:0:0:0:
256,192,73653,1,8,0:0:0:0:
256,192,73825,1,8,0:0:0:0:
256,192,73996,1,0,0:0:0:0:
256,192,74082,1,0,0:0:0:0:
256,192,74168,1,0,0:0:0:0:
256,192,74253,1,0,0:0:0:0:
256,192,74339,1,8,0:0:0:0:
256,192,74511,1,0,0:0:0:0:
256,192,74596,1,8,0:0:0:0:
256,192,74682,1,0,0:0:0:0:
256,192,74768,1,0,0:0:0:0:
256,192,74853,1,8,0:0:0:0:
256,192,74939,1,0,0:0:0:0:
256,192,75025,1,8,0:0:0:0:
256,192,75196,1,8,0:0:0:0:
256,192,75368,1,0,0:0:0:0:
256,192,75453,1,0,0:0:0:0:
256,192,75539,1,8,0:0:0:0:
256,192,75625,1,0,0:0:0:0:
256,192,75711,1,8,0:0:0:0:
256,192,75796,1,8,0:0:0:0:
256,192,75882,1,0,0:0:0:0:
256,192,75968,1,8,0:0:0:0:
256,192,76053,1,0,0:0:0:0:
256,192,76139,1,0,0:0:0:0:
256,192,76225,1,8,0:0:0:0:
256,192,76311,1,0,0:0:0:0:
256,192,76396,1,8,0:0:0:0:
256,192,76482,1,8,0:0:0:0:
256,192,76568,1,0,0:0:0:0:
256,192,76653,1,0,0:0:0:0:
256,192,76739,1,12,0:0:0:0:
256,192,77082,1,8,0:0:0:0:
256,192,77168,1,8,0:0:0:0:
256,192,77253,1,0,0:0:0:0:
256,192,77339,1,0,0:0:0:0:
256,192,77425,1,8,0:0:0:0:
256,192,77511,1,0,0:0:0:0:
256,192,77596,1,0,0:0:0:0:
256,192,77682,1,0,0:0:0:0:
256,192,77768,1,8,0:0:0:0:
256,192,78111,1,4,0:0:0:0:
256,192,78282,1,0,0:0:0:0:
256,192,78368,1,8,0:0:0:0:
256,192,78453,1,0,0:0:0:0:
256,192,78539,1,0,0:0:0:0:
256,192,78625,1,8,0:0:0:0:
256,192,78796,1,8,0:0:0:0:
256,192,78882,1,0,0:0:0:0:
256,192,78968,1,8,0:0:0:0:
256,192,79053,1,8,0:0:0:0:
256,192,79139,1,0,0:0:0:0:
256,192,79225,1,0,0:0:0:0:
256,192,79311,1,8,0:0:0:0:
256,192,79482,1,0,0:0:0:0:
256,192,79653,1,8,0:0:0:0:
256,192,79739,1,0,0:0:0:0:
256,192,79825,1,0,0:0:0:0:
256,192,79911,1,0,0:0:0:0:
256,192,79996,1,8,0:0:0:0:
256,192,80168,1,8,0:0:0:0:
256,192,80253,1,8,0:0:0:0:
256,192,80339,1,0,0:0:0:0:
256,192,80425,1,0,0:0:0:0:
256,192,80511,1,8,0:0:0:0:
256,192,80596,1,0,0:0:0:0:
256,192,80682,1,8,0:0:0:0:
256,192,80853,1,8,0:0:0:0:
256,192,81025,1,0,0:0:0:0:
256,192,81111,1,0,0:0:0:0:
256,192,81196,1,8,0:0:0:0:
256,192,81368,1,0,0:0:0:0:
256,192,81453,1,0,0:0:0:0:
256,192,81539,1,8,0:0:0:0:
256,192,81625,1,0,0:0:0:0:
256,192,81711,1,8,0:0:0:0:
256,192,81796,1,8,0:0:0:0:
256,192,81882,1,0,0:0:0:0:
256,192,81968,1,8,0:0:0:0:
256,192,82053,1,8,0:0:0:0:
256,192,82139,1,8,0:0:0:0:
256,192,82225,1,0,0:0:0:0:
256,192,82396,1,8,0:0:0:0:
256,192,82482,1,8,0:0:0:0:
256,192,82568,1,0,0:0:0:0:
256,192,82739,1,0,0:0:0:0:
256,192,82911,1,8,0:0:0:0:
256,192,82996,1,0,0:0:0:0:
256,192,83082,1,0,0:0:0:0:
256,192,83168,1,0,0:0:0:0:
256,192,83253,1,8,0:0:0:0:
256,192,83339,1,0,0:0:0:0:
256,192,83425,1,8,0:0:0:0:
256,192,83596,1,0,0:0:0:0:
256,192,83768,1,8,0:0:0:0:
256,192,83853,1,8,0:0:0:0:
256,192,83939,1,0,0:0:0:0:
256,192,84025,1,0,0:0:0:0:
256,192,84111,1,8,0:0:0:0:
256,192,84282,1,8,0:0:0:0:
256,192,84368,1,8,0:0:0:0:
256,192,84453,1,0,0:0:0:0:
256,192,84539,1,8,0:0:0:0:
256,192,84625,1,0,0:0:0:0:
256,192,84711,1,0,0:0:0:0:
256,192,84796,1,8,0:0:0:0:
256,192,84968,1,0,0:0:0:0:
256,192,85139,1,0,0:0:0:0:
256,192,85225,1,0,0:0:0:0:
256,192,85311,1,8,0:0:0:0:
256,192,85396,1,8,0:0:0:0:
256,192,85482,1,0,0:0:0:0:
256,192,85653,1,0,0:0:0:0:
256,192,85739,1,8,0:0:0:0:
256,192,85825,1,0,0:0:0:0:
256,192,85911,1,8,0:0:0:0:
256,192,85996,1,8,0:0:0:0:
256,192,86082,1,8,0:0:0:0:
256,192,86168,1,0,0:0:0:0:
256,192,86339,1,8,0:0:0:0:
256,192,86511,1,0,0:0:0:0:
256,192,86596,1,0,0:0:0:0:
256,192,86682,1,8,0:0:0:0:
256,192,86853,1,8,0:0:0:0:
256,192,86939,1,8,0:0:0:0:
256,192,87025,1,0,0:0:0:0:
256,192,87111,1,0,0:0:0:0:
256,192,87196,1,8,0:0:0:0:
256,192,87282,1,0,0:0:0:0:
256,192,87368,1,8,0:0:0:0:
256,192,87453,1,8,0:0:0:0:
256,192,87539,1,0,0:0:0:0:
256,192,87625,1,8,0:0:0:0:
256,192,87711,1,0,0:0:0:0:
256,192,87882,1,8,0:0:0:0:
256,192,87968,1,0,0:0:0:0:
256,192,88053,1,0,0:0:0:0:
256,192,88139,1,0,0:0:0:0:
256,192,88225,1,8,0:0:0:0:
256,192,88396,1,8,0:0:0:0:
256,192,88453,1,8,0:0:0:0:
256,192,88511,1,8,0:0:0:0:
256,192,88568,1,0,0:0:0:0:
256,192,88653,1,0,0:0:0:0:
256,192,88739,1,12,0:0:0:0:
256,192,88911,1,12,0:0:0:0:
256,192,89082,1,4,0:0:0:0:
256,192,89253,1,8,0:0:0:0:
256,192,89339,1,8,0:0:0:0:
256,192,89425,1,0,0:0:0:0:
256,192,89511,1,0,0:0:0:0:
256,192,89596,1,8,0:0:0:0:
256,192,89768,1,8,0:0:0:0:
256,192,89853,1,0,0:0:0:0:
256,192,89939,1,0,0:0:0:0:
256,192,90025,1,0,0:0:0:0:
256,192,90111,1,8,0:0:0:0:
256,192,90196,1,0,0:0:0:0:
256,192,90282,1,8,0:0:0:0:
256,192,90368,1,8,0:0:0:0:
256,192,90453,1,0,0:0:0:0:
256,192,90625,1,0,0:0:0:0:
256,192,90711,1,0,0:0:0:0:
256,192,90796,1,8,0:0:0:0:
256,192,90882,1,0,0:0:0:0:
256,192,90968,1,8,0:0:0:0:
256,192,91139,1,8,0:0:0:0:
256,192,91225,1,8,0:0:0:0:
256,192,91311,1,0,0:0:0:0:
256,192,91396,1,0,0:0:0:0:
256,192,91482,1,8,0:0:0:0:
256,192,91568,1,0,0:0:0:0:
256,192,91653,1,0,0:0:0:0:
256,192,91739,1,0,0:0:0:0:
256,192,91825,1,8,0:0:0:0:
256,192,91996,1,0,0:0:0:0:
256,192,92082,1,0,0:0:0:0:
256,192,92168,1,8,0:0:0:0:
256,192,92339,1,0,0:0:0:0:
256,192,92425,1,0,0:0:0:0:
256,192,92511,1,8,0:0:0:0:
256,192,92596,1,0,0:0:0:0:
256,192,92682,1,8,0:0:0:0:
256,192,92768,1,8,0:0:0:0:
256,192,92853,1,0,0:0:0:0:
256,192,92939,1,8,0:0:0:0:
256,192,93025,1,8,0:0:0:0:
256,192,93111,1,8,0:0:0:0:
256,192,93196,1,0,0:0:0:0:
256,192,93368,1,8,0:0:0:0:
256,192,93453,1,8,0:0:0:0:
256,192,93539,1,0,0:0:0:0:
256,192,93625,1,8,0:0:0:0:
256,192,93711,1,0,0:0:0:0:
256,192,93882,1,0,0:0:0:0:
256,192,93968,1,0,0:0:0:0:
256,192,94053,1,8,0:0:0:0:
256,192,94139,1,0,0:0:0:0:
256,192,94225,1,8,0:0:0:0:
256,192,94311,1,8,0:0:0:0:
256,192,94396,1,0,0:0:0:0:
256,192,94482,1,8,0:0:0:0:
256,192,94568,1,0,0:0:0:0:
256,192,94739,1,8,0:0:0:0:
256,192,94825,1,0,0:0:0:0:
256,192,94911,1,0,0:0:0:0:
256,192,94996,1,0,0:0:0:0:
256,192,95082,1,8,0:0:0:0:
256,192,95253,1,8,0:0:0:0:
256,192,95339,1,0,0:0:0:0:
256,192,95425,1,0,0:0:0:0:
256,192,95511,1,8,0:0:0:0:
256,192,95596,1,0,0:0:0:0:
256,192,95682,1,0,0:0:0:0:
256,192,95768,1,8,0:0:0:0:
256,192,95939,1,0,0:0:0:0:
256,192,96111,1,8,0:0:0:0:
256,192,96196,1,0,0:0:0:0:
256,192,96282,1,8,0:0:0:0:
256,192,96368,1,8,0:0:0:0:
256,192,96453,1,0,0:0:0:0:
256,192,96625,1,0,0:0:0:0:
256,192,96711,1,8,0:0:0:0:
256,192,96796,1,8,0:0:0:0:
256,192,96882,1,0,0:0:0:0:
256,192,96968,1,8,0:0:0:0:
256,192,97053,1,8,0:0:0:0:
256,192,97139,1,0,0:0:0:0:
256,192,97311,1,8,0:0:0:0:
256,192,97482,1,0,0:0:0:0:
256,192,97568,1,0,0:0:0:0:
256,192,97653,1,8,0:0:0:0:
256,192,97825,1,0,0:0:0:0:
256,192,97911,1,0,0:0:0:0:
256,192,97996,1,8,0:0:0:0:
256,192,98082,1,8,0:0:0:0:
256,192,98168,1,0,0:0:0:0:
256,192,98253,1,0,0:0:0:0:
256,192,98339,1,8,0:0:0:0:
256,192,98511,1,0,0:0:0:0:
256,192,98682,1,8,0:0:0:0:
256,192,98739,1,8,0:0:0:0:
256,192,98796,1,8,0:0:0:0:
256,192,98853,1,0,0:0:0:0:
256,192,98939,1,0,0:0:0:0:
256,192,99025,1,8,0:0:0:0:
256,192,99111,1,0,0:0:0:0:
256,192,99196,1,8,0:0:0:0:
256,192,99368,1,8,0:0:0:0:
256,192,99425,1,8,0:0:0:0:
256,192,99482,1,8,0:0:0:0:
256,192,99539,1,0,0:0:0:0:
256,192,99625,1,0,0:0:0:0:
256,192,99711,1,12,0:0:0:0:
256,192,100053,1,12,0:0:0:0:
256,192,100225,1,0,0:0:0:0:
256,192,100396,1,0,0:0:0:0:
256,192,100482,1,8,0:0:0:0:
256,192,100568,1,0,0:0:0:0:
256,192,100653,1,8,0:0:0:0:
256,192,100739,1,8,0:0:0:0:
256,192,100911,1,8,0:0:0:0:
256,192,100996,1,8,0:0:0:0:
256,192,101082,1,0,0:0:0:0:
256,192,101168,1,0,0:0:0:0:
256,192,101253,1,8,0:0:0:0:
256,192,101425,1,0,0:0:0:0:
256,192,101511,1,0,0:0:0:0:
256,192,101596,1,8,0:0:0:0:
256,192,101768,1,0,0:0:0:0:
256,192,101853,1,8,0:0:0:0:
256,192,101939,1,0,0:0:0:0:
256,192,102025,1,0,0:0:0:0:
256,192,102111,1,8,0:0:0:0:
256,192,102196,1,0,0:0:0:0:
256,192,102282,1,8,0:0:0:0:
256,192,102368,1,8,0:0:0:0:
256,192,102453,1,0,0:0:0:0:
256,192,102625,1,0,0:0:0:0:
256,192,102796,1,8,0:0:0:0:
256,192,102882,1,0,0:0:0:0:
256,192,102968,1,8,0:0:0:0:
256,192,103139,1,0,0:0:0:0:
256,192,103225,1,8,0:0:0:0:
256,192,103311,1,0,0:0:0:0:
256,192,103396,1,8,0:0:0:0:
256,192,103482,1,8,0:0:0:0:
256,192,103568,1,0,0:0:0:0:
256,192,103653,1,8,0:0:0:0:
256,192,103739,1,8,0:0:0:0:
256,192,103825,1,0,0:0:0:0:
256,192,103996,1,8,0:0:0:0:
256,192,104082,1,8,0:0:0:0:
256,192,104168,1,0,0:0:0:0:
256,192,104253,1,0,0:0:0:0:
256,192,104339,1,8,0:0:0:0:
256,192,104511,1,0,0:0:0:0:
256,192,104596,1,8,0:0:0:0:
256,192,104682,1,0,0:0:0:0:
256,192,104853,1,8,0:0:0:0:
256,192,104911,1,8,0:0:0:0:
256,192,104968,1,8,0:0:0:0:
256,192,105025,1,0,0:0:0:0:
256,192,105111,1,0,0:0:0:0:
256,192,105196,1,8,0:0:0:0:
256,192,105282,1,0,0:0:0:0:
256,192,105368,1,8,0:0:0:0:
256,192,105539,1,0,0:0:0:0:
256,192,105625,1,0,0:0:0:0:
256,192,105711,1,8,0:0:0:0:
256,192,105882,1,0,0:0:0:0:
256,192,105968,1,8,0:0:0:0:
256,192,106053,1,0,0:0:0:0:
256,192,106139,1,8,0:0:0:0:
256,192,106225,1,8,0:0:0:0:
256,192,106311,1,0,0:0:0:0:
256,192,106396,1,8,0:0:0:0:
256,192,106482,1,8,0:0:0:0:
256,192,106568,1,0,0:0:0:0:
256,192,106653,1,0,0:0:0:0:
256,192,106739,1,8,0:0:0:0:
256,192,106911,1,8,0:0:0:0:
256,192,106996,1,0,0:0:0:0:
256,192,107082,1,8,0:0:0:0:
256,192,107253,1,0,0:0:0:0:
256,192,107339,1,8,0:0:0:0:
256,192,107425,1,0,0:0:0:0:
256,192,107511,1,0,0:0:0:0:
256,192,107596,1,8,0:0:0:0:
256,192,107682,1,0,0:0:0:0:
256,192,107768,1,0,0:0:0:0:
256,192,107853,1,8,0:0:0:0:
256,192,107939,1,0,0:0:0:0:
256,192,108025,1,0,0:0:0:0:
256,192,108111,1,8,0:0:0:0:
256,192,108282,1,0,0:0:0:0:
256,192,108368,1,0,0:0:0:0:
256,192,108453,1,8,0:0:0:0:
256,192,108625,1,0,0:0:0:0:
256,192,108711,1,8,0:0:0:0:
256,192,108796,1,0,0:0:0:0:
256,192,108882,1,0,0:0:0:0:
256,192,108968,1,8,0:0:0:0:
256,192,109053,1,0,0:0:0:0:
256,192,109139,1,8,0:0:0:0:
256,192,109225,1,8,0:0:0:0:
256,192,109311,1,0,0:0:0:0:
256,192,109482,1,0,0:0:0:0:
256,192,109568,1,0,0:0:0:0:
256,192,109653,1,8,0:0:0:0:
256,192,109739,1,0,0:0:0:0:
256,192,109825,1,8,0:0:0:0:
256,192,109911,1,8,0:0:0:0:
256,192,109996,1,0,0:0:0:0:
256,192,110082,1,8,0:0:0:0:
256,192,110168,1,0,0:0:0:0:
256,192,110339,1,8,0:0:0:0:
256,192,110396,1,8,0:0:0:0:
256,192,110453,1,8,0:0:0:0:
256,192,110511,1,0,0:0:0:0:
256,192,110596,1,0,0:0:0:0:
256,192,110682,1,12,0:0:0:0:
256,192,110853,1,4,0:0:0:0:
256,192,111025,1,12,0:0:0:0:
256,192,111196,1,0,0:0:0:0:
256,192,111368,1,0,0:0:0:0:
256,192,111453,1,8,0:0:0:0:
256,192,111539,1,8,0:0:0:0:
256,192,111625,1,0,0:0:0:0:
256,192,111711,1,8,0:0:0:0:
256,192,111796,1,0,0:0:0:0:
256,192,111882,1,8,0:0:0:0:
256,192,111968,1,8,0:0:0:0:
256,192,112053,1,0,0:0:0:0:
256,192,112139,1,8,0:0:0:0:
256,192,112225,1,0,0:0:0:0:
256,192,112396,1,0,0:0:0:0:
256,192,112482,1,0,0:0:0:0:
256,192,112568,1,8,0:0:0:0:
256,192,112739,1,0,0:0:0:0:
256,192,112825,1,8,0:0:0:0:
256,192,112911,1,0,0:0:0:0:
256,192,112996,1,0,0:0:0:0:
256,192,113082,1,8,0:0:0:0:
256,192,113168,1,0,0:0:0:0:
256,192,113253,1,0,0:0:0:0:
256,192,113339,1,8,0:0:0:0:
256,192,113425,1,0,0:0:0:0:
256,192,113596,1,8,0:0:0:0:
256,192,113768,1,0,0:0:0:0:
256,192,113853,1,0,0:0:0:0:
256,192,113939,1,8,0:0:0:0:
256,192,114111,1,0,0:0:0:0:
256,192,114196,1,8,0:0:0:0:
256,192,114282,1,0,0:0:0:0:
256,192,114368,1,8,0:0:0:0:
256,192,114453,1,8,0:0:0:0:
256,192,114539,1,8,0:0:0:0:
256,192,114625,1,0,0:0:0:0:
256,192,114711,1,8,0:0:0:0:
256,192,114796,1,0,0:0:0:0:
256,192,114882,1,8,0:0:0:0:
256,192,114968,1,8,0:0:0:0:
256,192,115053,1,8,0:0:0:0:
256,192,115139,1,0,0:0:0:0:
256,192,115311,1,8,0:0:0:0:
256,192,115482,1,0,0:0:0:0:
256,192,115568,1,8,0:0:0:0:
256,192,115653,1,0,0:0:0:0:
256,192,115825,1,8,0:0:0:0:
256,192,115882,1,8,0:0:0:0:
256,192,115939,1,8,0:0:0:0:
256,192,115996,1,0,0:0:0:0:
256,192,116082,1,0,0:0:0:0:
256,192,116168,1,8,0:0:0:0:
256,192,116225,1,0,0:0:0:0:
256,192,116282,1,0,0:0:0:0:
256,192,116339,1,8,0:0:0:0:
256,192,116425,1,8,0:0:0:0:
256,192,116511,1,0,0:0:0:0:
256,192,116682,1,8,0:0:0:0:
256,192,116853,1,0,0:0:0:0:
256,192,116939,1,8,0:0:0:0:
256,192,117025,1,0,0:0:0:0:
256,192,117111,1,0,0:0:0:0:
256,192,117196,1,8,0:0:0:0:
256,192,117282,1,0,0:0:0:0:
256,192,117368,1,0,0:0:0:0:
256,192,117453,1,8,0:0:0:0:
256,192,117539,1,0,0:0:0:0:
256,192,117625,1,0,0:0:0:0:
256,192,117711,1,8,0:0:0:0:
256,192,117882,1,8,0:0:0:0:
256,192,117968,1,0,0:0:0:0:
256,192,118053,1,8,0:0:0:0:
256,192,118225,1,0,0:0:0:0:
256,192,118311,1,8,0:0:0:0:
256,192,118396,1,0,0:0:0:0:
256,192,118482,1,0,0:0:0:0:
256,192,118568,1,8,0:0:0:0:
256,192,118653,1,8,0:0:0:0:
256,192,118739,1,0,0:0:0:0:
256,192,118825,1,8,0:0:0:0:
256,192,118911,1,0,0:0:0:0:
256,192,118996,1,0,0:0:0:0:
256,192,119082,1,8,0:0:0:0:
256,192,119253,1,0,0:0:0:0:
256,192,119339,1,0,0:0:0:0:
256,192,119425,1,8,0:0:0:0:
256,192,119596,1,0,0:0:0:0:
256,192,119682,1,8,0:0:0:0:
256,192,119768,1,0,0:0:0:0:
256,192,119853,1,8,0:0:0:0:
256,192,119939,1,8,0:0:0:0:
256,192,120025,1,0,0:0:0:0:
256,192,120111,1,8,0:0:0:0:
256,192,120196,1,0,0:0:0:0:
256,192,120282,1,8,0:0:0:0:
256,192,120368,1,8,0:0:0:0:
256,192,120453,1,0,0:0:0:0:
256,192,120625,1,0,0:0:0:0:
256,192,120711,1,0,0:0:0:0:
256,192,120796,1,8,0:0:0:0:
256,192,120882,1,8,0:0:0:0:
256,192,120968,1,0,0:0:0:0:
256,192,121053,1,8,0:0:0:0:
256,192,121139,1,0,0:0:0:0:
256,192,121225,1,0,0:0:0:0:
256,192,121311,1,8,0:0:0:0:
256,192,121368,1,8,0:0:0:0:
256,192,121425,1,8,0:0:0:0:
256,192,121482,1,0,0:0:0:0:
256,192,121568,1,0,0:0:0:0:
256,192,121653,1,12,0:0:0:0:
256,192,121996,1,0,0:0:0:0:
256,192,122168,1,8,0:0:0:0:
256,192,122339,1,8,0:0:0:0:
256,192,122511,1,0,0:0:0:0:
256,192,122682,1,8,0:0:0:0:
256,192,122853,1,0,0:0:0:0:
256,192,123025,1,8,0:0:0:0:
256,192,123196,1,8,0:0:0:0:
256,192,123539,1,8,0:0:0:0:
256,192,123711,1,0,0:0:0:0:
256,192,123882,1,8,0:0:0:0:
256,192,124053,1,8,0:0:0:0:
256,192,124225,1,0,0:0:0:0:
256,192,124396,1,8,0:0:0:0:
256,192,124568,1,8,0:0:0:0:
256,192,124739,1,0,0:0:0:0:
256,192,124911,1,8,0:0:0:0:
256,192,125082,1,0,0:0:0:0:
256,192,125253,1,8,0:0:0:0:
256,192,125425,1,8,0:0:0:0:
256,192,125596,1,0,0:0:0:0:
256,192,125768,1,8,0:0:0:0:
256,192,125939,1,0,0:0:0:0:
256,192,126111,1,8,0:0:0:0:
256,192,126282,1,8,0:0:0:0:
256,192,126453,1,0,0:0:0:0:
256,192,126625,1,0,0:0:0:0:
256,192,126796,1,8,0:0:0:0:
256,192,126968,1,0,0:0:0:0:
256,192,127139,1,8,0:0:0:0:
256,192,127311,1,8,0:0:0:0:
256,192,127482,1,0,0:0:0:0:
256,192,127653,1,8,0:0:0:0:
256,192,127825,1,8,0:0:0:0:
256,192,127996,1,0,0:0:0:0:
256,192,128168,1,8,0:0:0:0:
256,192,128339,1,0,0:0:0:0:
256,192,128511,1,8,0:0:0:0:
256,192,128682,1,8,0:0:0:0:
256,192,129025,1,8,0:0:0:0:
256,192,129196,1,0,0:0:0:0:
256,192,129368,1,8,0:0:0:0:
256,192,129539,1,0,0:0:0:0:
256,192,129711,1,0,0:0:0:0:
256,192,129882,1,8,0:0:0:0:
256,192,130053,1,0,0:0:0:0:
256,192,130225,1,0,0:0:0:0:
256,192,130396,1,8,0:0:0:0:
256,192,130568,1,0,0:0:0:0:
256,192,130739,1,8,0:0:0:0:
256,192,130911,1,8,0:0:0:0:
256,192,131082,1,0,0:0:0:0:
256,192,131253,1,8,0:0:0:0:
256,192,131425,1,0,0:0:0:0:
256,192,131596,1,8,0:0:0:0:
256,192,131768,1,8,0:0:0:0:
256,192,131939,1,0,0:0:0:0:
256,192,132111,1,8,0:0:0:0:
256,192,132282,1,0,0:0:0:0:
256,192,132453,1,8,0:0:0:0:
256,192,132625,1,8,0:0:0:0:
256,192,132796,1,8,0:0:0:0:
256,192,132968,1,0,0:0:0:0:
256,192,133139,1,8,0:0:0:0:
256,192,133311,1,8,0:0:0:0:
256,192,133482,1,0,0:0:0:0:
256,192,133653,1,8,0:0:0:0:
256,192,133825,1,0,0:0:0:0:
256,192,133996,1,8,0:0:0:0:
256,192,134168,1,8,0:0:0:0:
256,192,134511,1,8,0:0:0:0:
256,192,134682,1,0,0:0:0:0:
256,192,134853,1,8,0:0:0:0:
256,192,135025,1,8,0:0:0:0:
256,192,135196,1,0,0:0:0:0:
256,192,135368,1,8,0:0:0:0:
256,192,135539,1,8,0:0:0:0:
256,192,135711,1,0,0:0:0:0:
256,192,135882,1,8,0:0:0:0:
256,192,136053,1,0,0:0:0:0:
256,192,136225,1,8,0:0:0:0:
256,192,136396,1,8,0:0:0:0:
256,192,136568,1,0,0:0:0:0:
256,192,136739,1,8,0:0:0:0:
256,192,136911,1,0,0:0:0:0:
256,192,137082,1,8,0:0:0:0:
256,192,137253,1,8,0:0:0:0:
256,192,137425,1,0,0:0:0:0:
256,192,137596,1,0,0:0:0:0:
256,192,137768,1,8,0:0:0:0:
256,192,137939,1,0,0:0:0:0:
256,192,138111,1,8,0:0:0:0:
256,192,138282,1,8,0:0:0:0:
256,192,138453,1,0,0:0:0:0:
256,192,138625,1,8,0:0:0:0:
256,192,138796,1,8,0:0:0:0:
256,192,138968,1,0,0:0:0:0:
256,192,139139,1,8,0:0:0:0:
256,192,139311,1,0,0:0:0:0:
256,192,139482,1,8,0:0:0:0:
256,192,139653,1,8,0:0:0:0:
256,192,139996,1,8,0:0:0:0:
256,192,140168,1,0,0:0:0:0:
256,192,140339,1,8,0:0:0:0:
256,192,140511,1,0,0:0:0:0:
256,192,140682,1,0,0:0:0:0:
256,192,140853,1,8,0:0:0:0:
256,192,141025,1,0,0:0:0:0:
256,192,141196,1,0,0:0:0:0:
256,192,141368,1,8,0:0:0:0:
256,192,141539,1,0,0:0:0:0:
256,192,141711,1,8,0:0:0:0:
256,192,141882,1,8,0:0:0:0:
256,192,142053,1,0,0:0:0:0:
256,192,142225,1,8,0:0:0:0:
256,192,142396,1,8,0:0:0:0:
256,192,142568,1,0,0:0:0:0:
256,192,142739,1,0,0:0:0:0:
256,192,142911,1,8,0:0:0:0:
256,192,143082,1,8,0:0:0:0:
256,192,143253,1,0,0:0:0:0:
256,192,143425,1,8,0:0:0:0:
256,192,143596,1,8,0:0:0:0:
256,192,143768,1,0,0:0:0:0:
