osu file format v14

[General]
AudioFilename: audio.mp3
AudioLeadIn: 0
PreviewTime: 77939
Countdown: 0
SampleSet: Normal
StackLeniency: 0.7
Mode: 1
LetterboxInBreaks: 0
WidescreenStoryboard: 1

[Editor]
DistanceSpacing: 1.65
BeatDivisor: 2
GridSize: 32
TimelineZoom: 1.299999

[Metadata]
Title:Run to You
TitleUnicode:Run to You
Artist:Alkome
ArtistUnicode:Alkome
Creator:Ph0eNiiXZ
Version:Futsuu
Source:
Tags:phoenix phoeniixz randelman4ik k_a_t_a_g_i_r_i katagiri Arach Vized electronic instrumental Techcore UK Hardcore fa featured artist I'll Be EP NNER-02 mappers' guild mpg
BeatmapID:3230643
BeatmapSetID:1580916

[Difficulty]
HPDrainRate:7
CircleSize:2
OverallDifficulty:4
ApproachRate:10
SliderMultiplier:1.4
SliderTickRate:1

[Events]
//Background and Video events
0,0,"49367970_p0.jpg",0,0
//Break Periods
//Storyboard Layer 0 (Background)
//Storyboard Layer 1 (Fail)
//Storyboard Layer 2 (Pass)
//Storyboard Layer 3 (Foreground)
//Storyboard Layer 4 (Overlay)
//Storyboard Sound Samples

[TimingPoints]
1311,342.857142857143,4,1,0,50,1,0
1311,-105.263157894737,4,1,0,50,0,0
11682,-105.263157894737,4,1,0,80,0,0
30025,-105.263157894737,4,1,0,98,0,0
30196,-105.263157894737,4,1,0,96,0,0
30367,-105.263157894737,4,1,0,94,0,0
30539,-105.263157894737,4,1,0,92,0,0
30710,-105.263157894737,4,1,0,90,0,0
30882,-105.263157894737,4,1,0,88,0,0
31053,-105.263157894737,4,1,0,86,0,0
31225,-105.263157894737,4,1,0,84,0,0
31396,-105.263157894737,4,1,0,82,0,0
31525,-105.263157894737,4,1,0,80,0,0
31610,-105.263157894737,4,1,0,78,0,0
31696,-105.263157894737,4,1,0,76,0,0
31782,-105.263157894737,4,1,0,74,0,0
31868,-105.263157894737,4,1,0,72,0,0
31953,-105.263157894737,4,1,0,70,0,0
32039,-105.263157894737,4,1,0,68,0,0
32125,-105.263157894737,4,1,0,66,0,0
32210,-105.263157894737,4,1,0,64,0,0
32296,-105.263157894737,4,1,0,62,0,0
32382,-105.263157894737,4,1,0,60,0,0
32468,-105.263157894737,4,1,0,58,0,0
32553,-105.263157894737,4,1,0,56,0,0
32639,-105.263157894737,4,1,0,54,0,0
32725,-105.263157894737,4,1,0,52,0,0
32810,-105.263157894737,4,1,0,100,0,0
33025,-105.263157894737,4,1,0,80,0,0
33796,-105.263157894737,4,1,0,100,0,0
56382,-105.263157894737,4,1,0,60,0,0
67053,-105.263157894737,4,1,0,100,0,0
76911,-105.263157894737,4,1,0,80,0,0
77725,-105.263157894737,4,1,0,100,0,0
78111,-105.263157894737,4,1,0,100,0,1
99711,-105.263157894737,4,1,0,100,0,0
100053,-105.263157894737,4,1,0,100,0,1
121653,-105.263157894737,4,1,0,100,0,0
121825,-105.263157894737,4,1,0,60,0,0

[HitObjects]
256,192,1311,5,12,0:0:0:0:
256,192,2682,1,8,0:0:0:0:
256,192,4053,1,0,0:0:0:0:
256,192,5425,1,0,0:0:0:0:
256,192,6111,1,0,0:0:0:0:
256,192,6796,1,8,0:0:0:0:
256,192,8168,1,8,0:0:0:0:
256,192,8853,1,8,0:0:0:0:
256,192,9539,1,0,0:0:0:0:
256,192,10911,1,8,0:0:0:0:
256,192,11596,1,0,0:0:0:0:
256,192,11768,1,8,0:0:0:0:
256,192,11939,1,0,0:0:0:0:
256,192,12282,1,12,0:0:0:0:
256,192,12968,1,0,0:0:0:0:
256,192,13139,1,8,0:0:0:0:
256,192,13311,1,8,0:0:0:0:
256,192,13482,1,8,0:0:0:0:
256,192,13653,1,0,0:0:0:0:
256,192,13996,1,8,0:0:0:0:
256,192,14339,1,0,0:0:0:0:
256,192,15025,1,0,0:0:0:0:
256,192,15196,1,8,0:0:0:0:
256,192,15539,1,0,0:0:0:0:
256,192,15711,1,0,0:0:0:0:
256,192,15882,1,8,0:0:0:0:
256,192,16225,1,0,0:0:0:0:
256,192,16396,1,8,0:0:0:0:
256,192,16739,1,0,0:0:0:0:
256,192,17082,1,8,0:0:0:0:
256,192,17768,1,0,0:0:0:0:
256,192,18111,1,8,0:0:0:0:
256,192,18453,1,0,0:0:0:0:
256,192,18625,1,0,0:0:0:0:
256,192,18796,1,8,0:0:0:0:
256,192,18968,1,8,0:0:0:0:
256,192,19139,1,0,0:0:0:0:
256,192,19482,1,8,0:0:0:0:
256,192,19825,1,0,0:0:0:0:
256,192,20511,1,0,0:0:0:0:
256,192,20682,1,0,0:0:0:0:
256,192,20853,1,8,0:0:0:0:
256,192,21025,1,8,0:0:0:0:
256,192,21196,1,0,0:0:0:0:
256,192,21539,1,8,0:0:0:0:
256,192,21882,1,4,0:0:0:0:
256,192,23253,1,12,0:0:0:0:
256,192,23768,1,0,0:0:0:0:
256,192,23939,1,8,0:0:0:0:
256,192,24282,1,8,0:0:0:0:
256,192,24625,1,0,0:0:0:0:
256,192,25139,1,8,0:0:0:0:
256,192,25311,1,8,0:0:0:0:
256,192,25653,1,8,0:0:0:0:
256,192,25996,1,0,0:0:0:0:
256,192,26511,1,0,0:0:0:0:
256,192,26682,1,8,0:0:0:0:
256,192,27025,1,8,0:0:0:0:
256,192,27368,1,0,0:0:0:0:
256,192,27711,1,0,0:0:0:0:
256,192,27882,1,0,0:0:0:0:
256,192,28053,1,8,0:0:0:0:
256,192,28396,1,0,0:0:0:0:
256,192,28739,1,12,0:0:0:0:
256,192,29425,1,12,0:0:0:0:
256,192,29768,1,0,0:0:0:0:
256,192,30111,1,12,0:0:0:0:
256,192,30796,1,12,0:0:0:0:
256,192,31139,1,0,0:0:0:0:
256,192,31482,1,8,0:0:0:0:
256,192,31653,1,8,0:0:0:0:
256,192,31825,1,0,0:0:0:0:
256,192,31996,1,0,0:0:0:0:
256,192,32168,1,8,0:0:0:0:
256,192,32511,1,8,0:0:0:0:
256,192,32853,1,4,0:0:0:0:
256,192,33539,1,0,0:0:0:0:
256,192,33711,1,0,0:0:0:0:
256,192,33882,1,8,0:0:0:0:
256,192,34225,1,4,0:0:0:0:
256,192,34911,1,0,0:0:0:0:
256,192,35253,1,8,0:0:0:0:
256,192,35425,1,8,0:0:0:0:
256,192,35596,1,0,0:0:0:0:
256,192,35939,1,0,0:0:0:0:
256,192,36282,1,8,0:0:0:0:
256,192,36453,1,0,0:0:0:0:
256,192,36625,1,8,0:0:0:0:
256,192,36968,1,0,0:0:0:0:
256,192,37653,1,0,0:0:0:0:
256,192,37996,1,8,0:0:0:0:
256,192,38168,1,8,0:0:0:0:
256,192,38339,1,0,0:0:0:0:
256,192,38682,1,8,0:0:0:0:
256,192,38853,1,0,0:0:0:0:
256,192,39025,1,0,0:0:0:0:
256,192,39196,1,0,0:0:0:0:
256,192,39368,1,8,0:0:0:0:
256,192,39711,1,12,0:0:0:0:
256,192,40396,1,0,0:0:0:0:
256,192,40739,1,8,0:0:0:0:
256,192,40911,1,0,0:0:0:0:
256,192,41082,1,8,0:0:0:0:
256,192,41425,1,8,0:0:0:0:
256,192,41768,1,0,0:0:0:0:
256,192,41939,1,0,0:0:0:0:
256,192,42111,1,8,0:0:0:0:
256,192,42453,1,0,0:0:0:0:
256,192,43139,1,0,0:0:0:0:
256,192,43482,1,8,0:0:0:0:
256,192,43653,1,8,0:0:0:0:
256,192,43825,1,0,0:0:0:0:
256,192,44168,1,0,0:0:0:0:
256,192,44339,1,0,0:0:0:0:
256,192,44511,1,8,0:0:0:0:
256,192,44682,1,0,0:0:0:0:
256,192,44853,1,8,0:0:0:0:
256,192,45196,1,0,0:0:0:0:
256,192,45539,1,12,0:0:0:0:
256,192,46225,1,8,0:0:0:0:
256,192,46568,1,0,0:0:0:0:
256,192,46911,1,0,0:0:0:0:
256,192,47082,1,0,0:0:0:0:
256,192,47253,1,8,0:0:0:0:
256,192,47596,1,8,0:0:0:0:
256,192,47939,1,0,0:0:0:0:
256,192,48625,1,0,0:0:0:0:
256,192,48968,1,8,0:0:0:0:
256,192,49311,1,0,0:0:0:0:
256,192,49653,1,0,0:0:0:0:
256,192,49996,1,8,0:0:0:0:
256,192,50168,1,8,0:0:0:0:
256,192,50339,1,0,0:0:0:0:
256,192,50511,1,0,0:0:0:0:
256,192,50682,1,0,0:0:0:0:
256,192,51368,1,0,0:0:0:0:
256,192,51711,1,8,0:0:0:0:
256,192,51882,1,0,0:0:0:0:
256,192,52053,1,8,0:0:0:0:
256,192,52396,1,0,0:0:0:0:
256,192,52739,1,0,0:0:0:0:
256,192,52911,1,8,0:0:0:0:
256,192,53082,1,0,0:0:0:0:
256,192,53253,1,0,0:0:0:0:
256,192,53425,1,8,0:0:0:0:
256,192,54111,1,0,0:0:0:0:
256,192,54282,1,0,0:0:0:0:
256,192,54453,1,8,0:0:0:0:
256,192,54625,1,0,0:0:0:0:
256,192,54796,1,8,0:0:0:0:
256,192,55139,1,0,0:0:0:0:
256,192,55482,1,8,0:0:0:0:
256,192,55653,1,8,0:0:0:0:
256,192,55825,1,0,0:0:0:0:
256,192,56168,1,12,0:0:0:0:
256,192,57539,1,0,0:0:0:0:
256,192,58911,1,8,0:0:0:0:
256,192,60968,1,8,0:0:0:0:
256,192,61653,1,0,0:0:0:0:
256,192,63025,1,8,0:0:0:0:
256,192,64396,1,0,0:0:0:0:
256,192,65768,1,8,0:0:0:0:
256,192,67139,1,4,0:0:0:0:
256,192,67653,1,8,0:0:0:0:
256,192,67825,1,8,0:0:0:0:
256,192,68339,1,0,0:0:0:0:
256,192,68511,1,0,0:0:0:0:
256,192,69025,1,8,0:0:0:0:
256,192,69196,1,8,0:0:0:0:
256,192,69711,1,0,0:0:0:0:
256,192,69882,1,8,0:0:0:0:
256,192,70225,1,0,0:0:0:0:
256,192,70568,1,8,0:0:0:0:
256,192,70911,1,0,0:0:0:0:
256,192,71253,1,0,0:0:0:0:
256,192,71939,1,0,0:0:0:0:
256,192,72111,1,0,0:0:0:0:
256,192,72282,1,8,0:0:0:0:
256,192,72453,1,8,0:0:0:0:
256,192,72625,1,0,0:0:0:0:
256,192,73139,1,8,0:0:0:0:
256,192,73311,1,8,0:0:0:0:
256,192,73825,1,0,0:0:0:0:
256,192,73996,1,0,0:0:0:0:
256,192,74511,1,8,0:0:0:0:
256,192,74682,1,8,0:0:0:0:
256,192,75196,1,0,0:0:0:0:
256,192,75368,1,0,0:0:0:0:
256,192,75711,1,8,0:0:0:0:
256,192,75882,1,0,0:0:0:0:
256,192,76053,1,0,0:0:0:0:
256,192,76225,1,0,0:0:0:0:
256,192,76396,1,8,0:0:0:0:
256,192,76739,1,12,0:0:0:0:
256,192,77768,1,8,0:0:0:0:
256,192,78111,1,4,0:0:0:0:
256,192,78625,1,8,0:0:0:0:
256,192,78796,1,8,0:0:0:0:
256,192,79139,1,0,0:0:0:0:
256,192,79311,1,8,0:0:0:0:
256,192,79482,1,0,0:0:0:0:
256,192,79825,1,0,0:0:0:0:
256,192,79996,1,8,0:0:0:0:
256,192,80168,1,8,0:0:0:0:
256,192,80853,1,8,0:0:0:0:
256,192,81196,1,0,0:0:0:0:
256,192,81368,1,0,0:0:0:0:
256,192,81539,1,8,0:0:0:0:
256,192,81882,1,8,0:0:0:0:
256,192,82225,1,0,0:0:0:0:
256,192,82739,1,0,0:0:0:0:
256,192,82911,1,8,0:0:0:0:
256,192,83253,1,8,0:0:0:0:
256,192,83425,1,8,0:0:0:0:
256,192,83596,1,0,0:0:0:0:
256,192,84111,1,8,0:0:0:0:
256,192,84282,1,8,0:0:0:0:
256,192,84625,1,0,0:0:0:0:
256,192,84796,1,8,0:0:0:0:
256,192,84968,1,0,0:0:0:0:
256,192,85482,1,0,0:0:0:0:
256,192,85653,1,0,0:0:0:0:
256,192,85996,1,8,0:0:0:0:
256,192,86168,1,8,0:0:0:0:
256,192,86339,1,0,0:0:0:0:
256,192,86682,1,0,0:0:0:0:
256,192,87025,1,8,0:0:0:0:
256,192,87368,1,8,0:0:0:0:
256,192,87711,1,0,0:0:0:0:
256,192,88396,1,8,0:0:0:0:
256,192,88568,1,0,0:0:0:0:
256,192,88739,1,8,0:0:0:0:
256,192,89082,1,4,0:0:0:0:
256,192,89596,1,8,0:0:0:0:
256,192,89768,1,8,0:0:0:0:
256,192,90111,1,0,0:0:0:0:
256,192,90282,1,8,0:0:0:0:
256,192,90453,1,0,0:0:0:0:
256,192,90968,1,8,0:0:0:0:
256,192,91139,1,8,0:0:0:0:
256,192,91482,1,0,0:0:0:0:
256,192,91653,1,0,0:0:0:0:
256,192,91825,1,8,0:0:0:0:
256,192,92168,1,0,0:0:0:0:
256,192,92511,1,8,0:0:0:0:
256,192,92853,1,8,0:0:0:0:
256,192,93196,1,0,0:0:0:0:
256,192,93882,1,0,0:0:0:0:
256,192,94053,1,8,0:0:0:0:
256,192,94225,1,8,0:0:0:0:
256,192,94396,1,8,0:0:0:0:
256,192,94568,1,0,0:0:0:0:
256,192,95082,1,8,0:0:0:0:
256,192,95253,1,8,0:0:0:0:
256,192,95596,1,0,0:0:0:0:
256,192,95768,1,8,0:0:0:0:
256,192,95939,1,0,0:0:0:0:
256,192,96453,1,8,0:0:0:0:
256,192,96625,1,8,0:0:0:0:
256,192,97139,1,0,0:0:0:0:
256,192,97311,1,0,0:0:0:0:
256,192,97653,1,8,0:0:0:0:
256,192,97825,1,0,0:0:0:0:
256,192,97996,1,8,0:0:0:0:
256,192,98339,1,0,0:0:0:0:
256,192,98682,1,8,0:0:0:0:
256,192,99196,1,8,0:0:0:0:
256,192,99368,1,8,0:0:0:0:
256,192,100053,1,12,0:0:0:0:
256,192,100396,1,0,0:0:0:0:
256,192,100568,1,0,0:0:0:0:
256,192,100739,1,8,0:0:0:0:
256,192,101082,1,8,0:0:0:0:
256,192,101425,1,0,0:0:0:0:
256,192,101596,1,8,0:0:0:0:
256,192,101768,1,0,0:0:0:0:
256,192,101939,1,0,0:0:0:0:
256,192,102111,1,8,0:0:0:0:
256,192,102796,1,8,0:0:0:0:
256,192,102968,1,8,0:0:0:0:
256,192,103139,1,0,0:0:0:0:
256,192,103482,1,8,0:0:0:0:
256,192,103825,1,0,0:0:0:0:
256,192,103996,1,0,0:0:0:0:
256,192,104168,1,8,0:0:0:0:
256,192,104339,1,8,0:0:0:0:
256,192,104511,1,0,0:0:0:0:
256,192,104853,1,8,0:0:0:0:
256,192,105539,1,0,0:0:0:0:
256,192,105711,1,8,0:0:0:0:
256,192,105882,1,0,0:0:0:0:
256,192,106225,1,8,0:0:0:0:
256,192,106568,1,0,0:0:0:0:
256,192,106739,1,0,0:0:0:0:
256,192,106911,1,8,0:0:0:0:
256,192,107082,1,0,0:0:0:0:
256,192,107253,1,8,0:0:0:0:
256,192,107596,1,0,0:0:0:0:
256,192,108282,1,8,0:0:0:0:
256,192,108625,1,8,0:0:0:0:
256,192,108968,1,0,0:0:0:0:
256,192,109139,1,8,0:0:0:0:
256,192,109311,1,0,0:0:0:0:
256,192,109482,1,0,0:0:0:0:
256,192,109653,1,8,0:0:0:0:
256,192,109996,1,8,0:0:0:0:
256,192,110339,1,0,0:0:0:0:
256,192,110511,1,8,0:0:0:0:
256,192,110682,1,0,0:0:0:0:
256,192,111025,1,12,0:0:0:0:
256,192,111711,1,8,0:0:0:0:
256,192,112053,1,8,0:0:0:0:
256,192,112225,1,8,0:0:0:0:
256,192,112396,1,0,0:0:0:0:
256,192,112568,1,8,0:0:0:0:
256,192,112739,1,0,0:0:0:0:
256,192,113082,1,8,0:0:0:0:
256,192,113425,1,0,0:0:0:0:
256,192,113596,1,0,0:0:0:0:
256,192,113768,1,8,0:0:0:0:
256,192,114111,1,8,0:0:0:0:
256,192,114453,1,0,0:0:0:0:
256,192,114796,1,8,0:0:0:0:
256,192,114968,1,0,0:0:0:0:
256,192,115139,1,8,0:0:0:0:
256,192,115482,1,8,0:0:0:0:
256,192,115653,1,8,0:0:0:0:
256,192,115825,1,0,0:0:0:0:
256,192,116511,1,8,0:0:0:0:
256,192,116853,1,0,0:0:0:0:
256,192,117025,1,0,0:0:0:0:
256,192,117196,1,8,0:0:0:0:
256,192,117539,1,0,0:0:0:0:
256,192,117711,1,8,0:0:0:0:
256,192,117882,1,0,0:0:0:0:
256,192,118225,1,0,0:0:0:0:
256,192,118568,1,8,0:0:0:0:
256,192,118739,1,8,0:0:0:0:
256,192,118911,1,0,0:0:0:0:
256,192,119082,1,0,0:0:0:0:
256,192,119253,1,8,0:0:0:0:
256,192,119596,1,8,0:0:0:0:
256,192,119939,1,0,0:0:0:0:
256,192,120282,1,8,0:0:0:0:
256,192,120453,1,0,0:0:0:0:
256,192,120625,1,8,0:0:0:0:
256,192,120968,1,8,0:0:0:0:
256,192,121311,1,0,0:0:0:0:
256,192,121482,1,0,0:0:0:0:
256,192,121653,1,12,0:0:0:0:
256,192,121996,1,0,0:0:0:0:
256,192,123368,1,8,0:0:0:0:
256,192,124739,1,0,0:0:0:0:
256,192,126111,1,0,0:0:0:0:
256,192,126796,1,0,0:0:0:0:
256,192,127482,1,8,0:0:0:0:
256,192,128853,1,8,0:0:0:0:
256,192,129539,1,8,0:0:0:0:
256,192,130225,1,0,0:0:0:0:
256,192,131596,1,8,0:0:0:0:
256,192,132282,1,0,0:0:0:0:
256,192,132968,1,8,0:0:0:0:
256,192,134339,1,8,0:0:0:0:
256,192,135711,1,0,0:0:0:0:
256,192,137082,1,8,0:0:0:0:
256,192,137768,1,0,0:0:0:0:
256,192,138453,1,8,0:0:0:0:
256,192,139825,1,8,0:0:0:0:
256,192,140511,1,8,0:0:0:0:
256,192,141196,1,0,0:0:0:0:
256,192,142568,1,0,0:0:0:0:
