osu file format v14

[General]
AudioFilename: audio.mp3
AudioLeadIn: 0
PreviewTime: 77939
Countdown: 0
SampleSet: Normal
StackLeniency: 0.7
Mode: 1
LetterboxInBreaks: 0
WidescreenStoryboard: 1

[Editor]
Bookmarks: 12282,20511,21882,28739,31482,32853,34225,53425,55139,56168,61653,67139,143768
DistanceSpacing: 1.65
BeatDivisor: 4
GridSize: 32
TimelineZoom: 1.599999

[Metadata]
Title:Run to You
TitleUnicode:Run to You
Artist:Alkome
ArtistUnicode:Alkome
Creator:Ph0eNiiXZ
Version:Arach's Oni
Source:
Tags:phoenix phoeniixz randelman4ik k_a_t_a_g_i_r_i katagiri Arach Vized electronic instrumental Techcore UK Hardcore fa featured artist I'll Be EP NNER-02 mappers' guild mpg
BeatmapID:3260062
BeatmapSetID:1580916

[Difficulty]
HPDrainRate:6
CircleSize:4
OverallDifficulty:6
ApproachRate:7
SliderMultiplier:1.4
SliderTickRate:1

[Events]
//Background and Video events
0,0,"49367970_p0.jpg",0,0
//Break Periods
//Storyboard Layer 0 (Background)
//Storyboard Layer 1 (Fail)
//Storyboard Layer 2 (Pass)
//Storyboard Layer 3 (Foreground)
//Storyboard Layer 4 (Overlay)
//Storyboard Sound Samples

[TimingPoints]
1311,342.857142857143,4,1,0,60,1,0
1311,-125,4,1,0,60,0,0
6111,-125,4,1,0,60,0,0
6796,-123.076923076923,4,1,0,60,0,0
8168,-119.402985074627,4,1,0,60,0,0
8853,-117.647058823529,4,1,0,60,0,0
9539,-115.942028985507,4,1,0,60,0,0
10911,-112.676056338028,4,1,0,60,0,0
11596,-111.111111111111,4,1,0,64,0,0
11768,-108.138269917447,4,1,0,68,0,0
11939,-105.320252557966,4,1,0,72,0,0
12025,-103.965666378335,4,1,0,77,0,0
12111,-102.645482007787,4,1,0,81,0,0
12282,-100.103206405804,4,1,0,85,0,0
17768,-100,4,1,0,85,0,0
18111,-98.7654320987654,4,1,0,85,0,0
18282,-98.159509202454,4,1,0,85,0,0
18368,-97.8593272171254,4,1,0,85,0,0
18454,-97.5609756097561,4,1,0,85,0,0
18625,-96.969696969697,4,1,0,85,0,0
18797,-96.3855421686747,4,1,0,85,0,0
18968,-95.8083832335329,4,1,0,85,0,0
19054,-95.5223880597015,4,1,0,85,0,0
19139,-95.2380952380952,4,1,0,85,0,0
19482,-94.1176470588235,4,1,0,85,0,0
19654,-93.5672514619883,4,1,0,85,0,0
19739,-93.2944606413994,4,1,0,85,0,0
19825,-93.0232558139535,4,1,0,85,0,0
19911,-92.7536231884058,4,1,0,85,0,0
19997,-92.485549132948,4,1,0,85,0,0
20168,-91.9540229885058,4,1,0,85,0,0
20339,-91.4285714285714,4,1,0,85,0,0
20511,-90.9090909090909,4,1,0,85,0,0
20596,-90.6515580736544,4,1,0,86,0,0
20682,-90.3954802259887,4,1,0,87,0,0
20853,-89.8876404494382,4,1,0,88,0,0
21025,-89.3854748603352,4,1,0,89,0,0
21111,-89.1364902506964,4,1,0,90,0,0
21196,-88.8888888888889,4,1,0,91,0,0
21368,-88.3977900552486,4,1,0,92,0,0
21539,-87.9120879120879,4,1,0,93,0,0
21625,-87.6712328767123,4,1,0,94,0,0
21711,-87.431693989071,4,1,0,95,0,0
21882,-80,4,1,0,100,0,0
22225,-90.9090909090909,4,1,0,65,0,0
22396,-90.0900900900901,4,1,0,65,0,0
22568,-89.2857142857143,4,1,0,65,0,0
22653,-88.8888888888889,4,1,0,65,0,0
22739,-88.495575221239,4,1,0,65,0,0
22825,-88.1057268722467,4,1,0,65,0,0
22911,-87.719298245614,4,1,0,65,0,0
23082,-86.9565217391304,4,1,0,65,0,0
23253,-83.3333333333333,4,1,0,100,0,0
23596,-100,4,1,0,90,0,0
28568,-100,4,1,0,75,0,0
28739,-99.2063492063492,4,1,0,75,0,0
28911,-98.4251968503937,4,1,0,75,0,0
29253,-96.8992248062015,4,1,0,75,0,0
29425,-96.1538461538461,4,1,0,75,0,0
29596,-95.4198473282443,4,1,0,75,0,0
29939,-93.984962406015,4,1,0,75,0,0
30111,-93.2835820895522,4,1,0,75,0,0
30282,-92.5925925925926,4,1,0,75,0,0
30625,-91.2408759124088,4,1,0,75,0,0
30796,-90.5797101449275,4,1,0,75,0,0
30968,-89.9280575539568,4,1,0,75,0,0
31311,-88.6524822695036,4,1,0,75,0,0
31482,-88.0281690140845,4,1,0,76,0,0
31653,-87.4125874125874,4,1,0,77,0,0
31825,-86.8055555555556,4,1,0,78,0,0
31996,-86.2068965517241,4,1,0,78,0,0
32168,-85.6164383561644,4,1,0,79,0,0
32339,-85.0340136054422,4,1,0,80,0,0
32511,-84.4594594594595,4,1,0,81,0,0
32682,-83.8926174496644,4,1,0,82,0,0
32853,-83.3333333333333,4,1,0,90,0,0
33196,-100,4,1,0,75,0,0
33368,-101.76252696707,4,1,0,75,0,0
33539,-103.588191360538,4,1,0,75,0,0
33625,-104.525865448034,4,1,0,75,0,0
33711,-105.480670139794,4,1,0,75,0,0
33882,-107.443468618986,4,1,0,85,0,0
34225,-83.3333333333333,4,1,0,100,0,0
34568,-100,4,1,0,83,0,0
36968,-90.9090909090909,4,1,0,83,0,0
37311,-100,4,1,0,83,0,0
38682,-100,4,1,0,83,0,0
38853,-98.6193293885602,4,1,0,83,0,0
38939,-97.9431929480901,4,1,0,83,0,0
39025,-97.2762645914397,4,1,0,83,0,0
39196,-95.9692898272553,4,1,0,83,0,0
39282,-95.3288846520496,4,1,0,83,0,0
39368,-94.6969696969697,4,1,0,83,0,0
39539,-93.4579439252336,4,1,0,83,0,0
39625,-90.9090909090909,4,1,0,83,0,0
40053,-100,4,1,0,83,0,0
42453,-90.9090909090909,4,1,0,83,0,0
42796,-100,4,1,0,83,0,0
44511,-100,4,1,0,83,0,0
45025,-101.667344448963,4,1,0,83,0,0
45111,-102.532554085922,4,1,0,83,0,0
45196,-103.401923275773,4,1,0,83,0,0
45368,-105.185652676975,4,1,0,83,0,0
45539,-90.9090909090909,4,1,0,100,0,0
45882,-95.2380952380952,4,1,0,90,0,0
53425,-95.2380952380952,4,1,0,90,0,0
53768,-94.043916628187,4,1,0,90,0,0
53853,-93.7499707031342,4,1,0,90,0,0
53939,-93.4579439252336,4,1,0,90,0,0
54111,-92.8792282107653,4,1,0,90,0,0
54196,-92.5925925925926,4,1,0,90,0,0
54368,-92.0245116489228,4,1,0,90,0,0
54453,-91.743119266055,4,1,0,90,0,0
54625,-91.1853826184247,4,1,0,90,0,0
54796,-90.6344684696279,4,1,0,90,0,0
55139,-89.5522120739665,4,1,0,90,0,0
55311,-89.0207979290202,4,1,0,90,0,0
55482,-88.495575221239,4,1,0,90,0,0
55568,-88.2353200692118,4,1,0,90,0,0
55739,-87.719298245614,4,1,0,90,0,0
55825,-87.4635823508986,4,1,0,90,0,0
55911,-87.2092769740474,4,1,0,90,0,0
55996,-86.9565217391304,4,1,0,90,0,0
56168,-86.9565217391304,4,1,0,80,0,0
56511,-142.857142857143,4,1,0,60,0,0
64396,-142.857142857143,4,1,0,60,0,0
64739,-140.363682300841,4,1,0,60,0,0
65082,-137.955771379696,4,1,0,60,0,0
65425,-135.628897635446,4,1,0,60,0,0
65768,-133.379393683952,4,1,0,60,0,0
66282,-130.434725897945,4,1,0,60,0,0
66453,-127.659628791331,4,1,0,64,0,0
66625,-125,4,1,0,68,0,0
66796,-122.448929612682,4,1,0,72,0,0
66968,-120.000048000019,4,1,0,76,0,0
67139,-117.647058823529,4,1,0,80,0,0
72625,-117.647058823529,4,1,0,81,0,0
72796,-116.457818977966,4,1,0,81,0,0
72968,-115.292381479432,4,1,0,82,0,0
73140,-114.150038811013,4,1,0,82,0,0
73311,-113.030111221629,4,1,0,83,0,0
73482,-111.931945377211,4,1,0,83,0,0
73653,-110.854913089748,4,1,0,84,0,0
73825,-109.798530676062,4,1,0,84,0,0
73997,-108.761973333739,4,1,0,85,0,0
74168,-107.744804276176,4,1,0,85,0,0
74339,-106.746484571397,4,1,0,86,0,0
74511,-105.766495078156,4,1,0,86,0,0
74683,-104.804335545753,4,1,0,87,0,0
74853,-103.85952376254,4,1,0,88,0,0
75025,-102.931594750077,4,1,0,88,0,0
75197,-102.020100000102,4,1,0,89,0,0
75368,-101.124606751686,4,1,0,89,0,0
75453,-100.682729589345,4,1,0,90,0,0
75539,-100.244697306124,4,1,0,90,0,0
75625,-99.8104599365804,4,1,0,91,0,0
75711,-99.379968377294,4,1,0,91,0,0
75882,-98.5300304753384,4,1,0,92,0,0
76053,-97.6945073217149,4,1,0,92,0,0
76139,-97.2820371636838,4,1,0,93,0,0
76225,-96.8731291376935,4,1,0,93,0,0
76311,-96.4675512097996,4,1,0,94,0,0
76397,-96.0653551824377,4,1,0,94,0,0
76568,-95.2709410291929,4,1,0,95,0,0
76739,-89.2857142857143,4,1,0,100,0,0
77082,-95.2380952380952,4,1,0,80,0,0
77168,-96.4629914909995,4,1,0,80,0,0
77253,-97.7199015374272,4,1,0,80,0,0
77339,-99.009900990099,4,1,0,80,0,0
77425,-100.334414603875,4,1,0,80,0,0
77596,-103.092783505155,4,1,0,80,0,0
77768,-90.9090909090909,4,1,0,90,0,0
77853,-100,4,1,0,90,0,0
78111,-100,4,1,0,90,0,1
88225,-100,4,1,0,90,0,1
88396,-99.1735537190083,4,1,0,90,0,1
88482,-98.3606557377049,4,1,0,90,0,1
88568,-97.5609756097561,4,1,0,90,0,1
88739,-96.7741935483871,4,1,0,90,0,1
88911,-96,4,1,0,90,0,1
89082,-93.4579439252336,4,1,0,90,0,1
89425,-100,4,1,0,90,0,1
97311,-100,4,1,0,90,0,1
97654,-98.8960236875756,4,1,0,90,0,1
97825,-98.3531744470585,4,1,0,90,0,1
97997,-97.8161564901998,4,1,0,90,0,1
98168,-97.2850656722836,4,1,0,90,0,1
98254,-97.0216300021927,4,1,0,90,0,1
98340,-96.7597108045764,4,1,0,90,0,1
98511,-96.2399068397702,4,1,0,90,0,1
98683,-95.7257495565505,4,1,0,90,0,1
98768,-95.4706799994654,4,1,0,90,0,1
98853,-95.2169661398947,4,1,0,90,0,1
98939,-94.9646873809974,4,1,0,90,0,1
99025,-94.7136522152576,4,1,0,90,0,1
99197,-94.2156313153915,4,1,0,90,0,1
99368,-93.7227325425009,4,1,0,90,0,1
99454,-93.4782994801672,4,1,0,90,0,1
99711,-83.3333333333333,4,1,0,90,0,0
100053,-86.9565217391304,4,1,0,100,0,1
100225,-95.2380952380952,4,1,0,95,0,1
116511,-95.2380952380952,4,1,0,95,0,1
116854,-94.6780520180153,4,1,0,95,0,1
116940,-94.5391358933901,4,1,0,95,0,1
117111,-94.2623453037086,4,1,0,95,0,1
117197,-94.1246455030539,4,1,0,95,0,1
117369,-93.85027315122,4,1,0,95,0,1
117454,-93.7137737693273,4,1,0,95,0,1
117540,-93.5775833027647,4,1,0,95,0,1
117626,-93.4417881020571,4,1,0,95,0,1
117711,-93.3063864489269,4,1,0,95,0,1
117883,-93.0368435204025,4,1,0,95,0,1
118054,-92.7688534140793,4,1,0,95,0,1
118226,-92.5023171830454,4,1,0,95,0,1
118311,-92.3697079085097,4,1,0,95,0,1
118483,-92.1054570641201,4,1,0,95,0,1
118569,-91.9739823998587,4,1,0,95,0,1
118740,-91.7119876739089,4,1,0,95,0,1
118825,-91.5816331203145,4,1,0,95,0,1
118911,-91.4515649649055,4,1,0,95,0,1
118997,-91.3218657422459,4,1,0,95,0,1
119083,-91.192617045724,4,1,0,95,0,1
119254,-90.9350487320926,4,1,0,95,0,1
119426,-90.6790135211477,4,1,0,95,0,1
119597,-90.4244160391212,4,1,0,95,0,1
119683,-90.2976118990581,4,1,0,95,0,1
119854,-90.0450675563119,4,1,0,95,0,1
119940,-89.919405237086,4,1,0,95,0,1
120111,-89.6689690668957,4,1,0,95,0,1
120197,-89.5443535569256,4,1,0,95,0,1
120283,-89.4200039702482,4,1,0,95,0,1
120369,-89.2959992713446,4,1,0,95,0,1
120453,-89.1662951404369,4,1,0,95,0,1
120625,-83.3333333333333,4,1,0,95,0,1
120969,-95.2380952380952,4,1,0,85,0,1
121054,-95.9999692800098,4,1,0,85,0,1
121226,-97.5609756097561,4,1,0,85,0,1
121311,-98.3606234883202,4,1,0,85,0,1
121397,-99.173586503665,4,1,0,85,0,1
121483,-100,4,1,0,85,0,1
121653,-83.3333333333333,4,1,0,85,0,0
121996,-95.2380952380952,4,1,0,80,0,0
122339,-111.111111111111,4,1,0,65,0,0
141882,-111.111111111111,4,1,0,65,0,0
142053,-109.785391516663,4,1,0,65,0,0
142225,-108.490934497513,4,1,0,65,0,0
142396,-107.226647108526,4,1,0,65,0,0
142568,-105.991486763783,4,1,0,65,0,0
142911,-103.604611648474,4,1,0,65,0,0
143082,-102.451143610891,4,1,0,65,0,0
143253,-101.322974072464,4,1,0,65,0,0
143425,-100.219380223309,4,1,0,65,0,0
143596,-99.1395676920011,4,1,0,65,0,0
143768,-98.0827759779588,4,1,0,65,0,0

[HitObjects]
256,192,1311,5,12,0:0:0:0:
256,192,2682,1,8,0:0:0:0:
256,192,4053,1,0,0:0:0:0:
256,192,5425,1,0,0:0:0:0:
256,192,6111,1,0,0:0:0:0:
256,192,6796,1,8,0:0:0:0:
256,192,8168,1,8,0:0:0:0:
256,192,8853,1,8,0:0:0:0:
256,192,9539,1,0,0:0:0:0:
256,192,10911,1,8,0:0:0:0:
256,192,11596,1,0,0:0:0:0:
256,192,11768,1,8,0:0:0:0:
256,192,11939,1,8,0:0:0:0:
256,192,12025,1,8,0:0:0:0:
256,192,12111,1,0,0:0:0:0:
256,192,12282,1,4,0:0:0:0:
256,192,12625,1,8,0:0:0:0:
256,192,12796,1,0,0:0:0:0:
256,192,12882,1,0,0:0:0:0:
256,192,12968,1,8,0:0:0:0:
256,192,13139,1,0,0:0:0:0:
256,192,13311,1,8,0:0:0:0:
256,192,13482,1,8,0:0:0:0:
256,192,13568,1,8,0:0:0:0:
256,192,13653,1,0,0:0:0:0:
256,192,13996,1,8,0:0:0:0:
256,192,14168,1,8,0:0:0:0:
256,192,14253,1,0,0:0:0:0:
256,192,14339,1,8,0:0:0:0:
256,192,14425,1,8,0:0:0:0:
256,192,14511,1,0,0:0:0:0:
256,192,14682,1,0,0:0:0:0:
256,192,14853,1,8,0:0:0:0:
256,192,15025,1,0,0:0:0:0:
256,192,15368,1,8,0:0:0:0:
256,192,15539,1,0,0:0:0:0:
256,192,15625,1,0,0:0:0:0:
256,192,15711,1,8,0:0:0:0:
256,192,15882,1,0,0:0:0:0:
256,192,16053,1,8,0:0:0:0:
256,192,16225,1,8,0:0:0:0:
256,192,16311,1,0,0:0:0:0:
256,192,16396,1,8,0:0:0:0:
256,192,16568,1,8,0:0:0:0:
256,192,16739,1,0,0:0:0:0:
256,192,16911,1,0,0:0:0:0:
256,192,16996,1,0,0:0:0:0:
256,192,17082,1,8,0:0:0:0:
256,192,17168,1,8,0:0:0:0:
256,192,17253,1,0,0:0:0:0:
256,192,17425,1,8,0:0:0:0:
256,192,17596,1,8,0:0:0:0:
256,192,17768,1,0,0:0:0:0:
256,192,18111,1,8,0:0:0:0:
256,192,18282,1,0,0:0:0:0:
256,192,18368,1,0,0:0:0:0:
256,192,18454,1,8,0:0:0:0:
256,192,18625,1,0,0:0:0:0:
256,192,18797,1,8,0:0:0:0:
256,192,18968,1,8,0:0:0:0:
256,192,19054,1,8,0:0:0:0:
256,192,19139,1,0,0:0:0:0:
256,192,19482,1,8,0:0:0:0:
256,192,19654,1,8,0:0:0:0:
256,192,19739,1,0,0:0:0:0:
256,192,19825,1,8,0:0:0:0:
256,192,19911,1,8,0:0:0:0:
256,192,19997,1,0,0:0:0:0:
256,192,20168,1,0,0:0:0:0:
256,192,20339,1,8,0:0:0:0:
256,192,20511,1,0,0:0:0:0:
256,192,20596,1,0,0:0:0:0:
256,192,20682,1,0,0:0:0:0:
256,192,20853,1,0,0:0:0:0:
256,192,21025,1,0,0:0:0:0:
256,192,21111,1,0,0:0:0:0:
256,192,21196,1,8,0:0:0:0:
256,192,21368,1,0,0:0:0:0:
256,192,21539,1,8,0:0:0:0:
256,192,21625,1,8,0:0:0:0:
256,192,21711,1,0,0:0:0:0:
256,192,21882,1,12,0:0:0:0:
256,192,22225,1,8,0:0:0:0:
256,192,22396,1,0,0:0:0:0:
256,192,22568,1,8,0:0:0:0:
256,192,22653,1,8,0:0:0:0:
256,192,22739,1,0,0:0:0:0:
256,192,22825,1,0,0:0:0:0:
256,192,22911,1,8,0:0:0:0:
256,192,23082,1,8,0:0:0:0:
256,192,23254,1,4,0:0:0:0:
256,192,23596,1,0,0:0:0:0:
256,192,23768,1,0,0:0:0:0:
256,192,23939,1,8,0:0:0:0:
256,192,24025,1,8,0:0:0:0:
256,192,24111,1,0,0:0:0:0:
256,192,24282,1,8,0:0:0:0:
256,192,24453,1,0,0:0:0:0:
256,192,24625,1,8,0:0:0:0:
256,192,24968,1,0,0:0:0:0:
256,192,25139,1,0,0:0:0:0:
256,192,25311,1,8,0:0:0:0:
256,192,25482,1,8,0:0:0:0:
256,192,25653,1,8,0:0:0:0:
256,192,25739,1,0,0:0:0:0:
256,192,25825,1,0,0:0:0:0:
256,192,25996,1,8,0:0:0:0:
256,192,26339,1,0,0:0:0:0:
256,192,26511,1,0,0:0:0:0:
256,192,26596,1,0,0:0:0:0:
256,192,26682,1,8,0:0:0:0:
256,192,26853,1,0,0:0:0:0:
256,192,27025,1,8,0:0:0:0:
256,192,27111,1,0,0:0:0:0:
256,192,27196,1,8,0:0:0:0:
256,192,27368,1,8,0:0:0:0:
256,192,27711,1,0,0:0:0:0:
256,192,27882,1,8,0:0:0:0:
256,192,27968,1,0,0:0:0:0:
256,192,28053,1,8,0:0:0:0:
256,192,28139,1,8,0:0:0:0:
256,192,28225,1,0,0:0:0:0:
256,192,28396,1,0,0:0:0:0:
256,192,28568,1,0,0:0:0:0:
256,192,28739,1,12,0:0:0:0:
256,192,28911,1,0,0:0:0:0:
256,192,29253,1,0,0:0:0:0:
256,192,29425,1,12,0:0:0:0:
256,192,29596,1,0,0:0:0:0:
256,192,29939,1,0,0:0:0:0:
256,192,30111,1,12,0:0:0:0:
256,192,30282,1,0,0:0:0:0:
256,192,30625,1,0,0:0:0:0:
256,192,30796,1,12,0:0:0:0:
256,192,30968,1,0,0:0:0:0:
256,192,31311,1,0,0:0:0:0:
256,192,31482,1,8,0:0:0:0:
256,192,31653,1,8,0:0:0:0:
256,192,31825,1,8,0:0:0:0:
256,192,31996,1,8,0:0:0:0:
256,192,32168,1,8,0:0:0:0:
256,192,32339,1,8,0:0:0:0:
256,192,32511,1,8,0:0:0:0:
256,192,32682,1,8,0:0:0:0:
256,192,32853,1,4,0:0:0:0:
256,192,33196,1,8,0:0:0:0:
256,192,33368,1,0,0:0:0:0:
256,192,33539,1,8,0:0:0:0:
256,192,33625,1,8,0:0:0:0:
256,192,33711,1,0,0:0:0:0:
256,192,33882,1,0,0:0:0:0:
256,192,34225,1,12,0:0:0:0:
256,192,34568,1,0,0:0:0:0:
256,192,34739,1,8,0:0:0:0:
256,192,34911,1,0,0:0:0:0:
256,192,34996,1,8,0:0:0:0:
256,192,35168,1,8,0:0:0:0:
256,192,35253,1,0,0:0:0:0:
256,192,35425,1,0,0:0:0:0:
256,192,35596,1,8,0:0:0:0:
256,192,35939,1,0,0:0:0:0:
256,192,36111,1,0,0:0:0:0:
256,192,36282,1,0,0:0:0:0:
256,192,36368,1,0,0:0:0:0:
256,192,36453,1,8,0:0:0:0:
256,192,36539,1,8,0:0:0:0:
256,192,36625,1,0,0:0:0:0:
256,192,36796,1,0,0:0:0:0:
256,192,36968,1,12,0:0:0:0:
256,192,37311,1,0,0:0:0:0:
256,192,37482,1,8,0:0:0:0:
256,192,37653,1,0,0:0:0:0:
256,192,37739,1,8,0:0:0:0:
256,192,37911,1,8,0:0:0:0:
256,192,37996,1,0,0:0:0:0:
256,192,38168,1,0,0:0:0:0:
256,192,38339,1,8,0:0:0:0:
256,192,38682,1,0,0:0:0:0:
256,192,38853,1,0,0:0:0:0:
256,192,38939,1,0,0:0:0:0:
256,192,39025,1,8,0:0:0:0:
256,192,39196,1,8,0:0:0:0:
256,192,39282,1,8,0:0:0:0:
256,192,39368,1,8,0:0:0:0:
256,192,39539,1,8,0:0:0:0:
256,192,39711,1,4,0:0:0:0:
256,192,40053,1,8,0:0:0:0:
256,192,40225,1,0,0:0:0:0:
256,192,40396,1,0,0:0:0:0:
256,192,40482,1,8,0:0:0:0:
256,192,40653,1,8,0:0:0:0:
256,192,40739,1,0,0:0:0:0:
256,192,40911,1,0,0:0:0:0:
256,192,41082,1,8,0:0:0:0:
256,192,41425,1,8,0:0:0:0:
256,192,41596,1,0,0:0:0:0:
256,192,41768,1,0,0:0:0:0:
256,192,41853,1,8,0:0:0:0:
256,192,41939,1,0,0:0:0:0:
256,192,42025,1,0,0:0:0:0:
256,192,42111,1,8,0:0:0:0:
256,192,42282,1,0,0:0:0:0:
256,192,42453,1,12,0:0:0:0:
256,192,42796,1,8,0:0:0:0:
256,192,42968,1,0,0:0:0:0:
256,192,43139,1,0,0:0:0:0:
256,192,43225,1,8,0:0:0:0:
256,192,43396,1,8,0:0:0:0:
256,192,43482,1,0,0:0:0:0:
256,192,43653,1,0,0:0:0:0:
256,192,43825,1,8,0:0:0:0:
256,192,44168,1,8,0:0:0:0:
256,192,44511,1,0,0:0:0:0:
256,192,44596,1,8,0:0:0:0:
256,192,44682,1,8,0:0:0:0:
256,192,44768,1,8,0:0:0:0:
256,192,44853,1,0,0:0:0:0:
256,192,45025,1,0,0:0:0:0:
256,192,45111,1,8,0:0:0:0:
256,192,45196,1,0,0:0:0:0:
256,192,45368,1,0,0:0:0:0:
256,192,45539,1,12,0:0:0:0:
256,192,45882,1,0,0:0:0:0:
256,192,45968,1,8,0:0:0:0:
256,192,46139,1,8,0:0:0:0:
256,192,46225,1,0,0:0:0:0:
256,192,46396,1,0,0:0:0:0:
256,192,46568,1,8,0:0:0:0:
256,192,46911,1,8,0:0:0:0:
256,192,47082,1,0,0:0:0:0:
256,192,47168,1,0,0:0:0:0:
256,192,47253,1,8,0:0:0:0:
256,192,47425,1,8,0:0:0:0:
256,192,47596,1,8,0:0:0:0:
256,192,47682,1,8,0:0:0:0:
256,192,47768,1,0,0:0:0:0:
256,192,47939,1,12,0:0:0:0:
256,192,48282,1,8,0:0:0:0:
256,192,48453,1,0,0:0:0:0:
256,192,48625,1,0,0:0:0:0:
256,192,48711,1,8,0:0:0:0:
256,192,48882,1,8,0:0:0:0:
256,192,48968,1,0,0:0:0:0:
256,192,49139,1,0,0:0:0:0:
256,192,49311,1,8,0:0:0:0:
256,192,49396,1,8,0:0:0:0:
256,192,49482,1,0,0:0:0:0:
256,192,49653,1,8,0:0:0:0:
256,192,49825,1,0,0:0:0:0:
256,192,49996,1,0,0:0:0:0:
256,192,50082,1,8,0:0:0:0:
256,192,50168,1,8,0:0:0:0:
256,192,50253,1,8,0:0:0:0:
256,192,50339,1,0,0:0:0:0:
256,192,50511,1,0,0:0:0:0:
256,192,50596,1,8,0:0:0:0:
256,192,50682,1,0,0:0:0:0:
256,192,51025,1,8,0:0:0:0:
256,192,51196,1,0,0:0:0:0:
256,192,51368,1,0,0:0:0:0:
256,192,51453,1,8,0:0:0:0:
256,192,51625,1,8,0:0:0:0:
256,192,51711,1,8,0:0:0:0:
256,192,51796,1,0,0:0:0:0:
256,192,51882,1,0,0:0:0:0:
256,192,52053,1,8,0:0:0:0:
256,192,52396,1,8,0:0:0:0:
256,192,52568,1,0,0:0:0:0:
256,192,52653,1,0,0:0:0:0:
256,192,52739,1,8,0:0:0:0:
256,192,52825,1,8,0:0:0:0:
256,192,52911,1,0,0:0:0:0:
256,192,53082,1,8,0:0:0:0:
256,192,53253,1,0,0:0:0:0:
256,192,53425,1,4,0:0:0:0:
256,192,53768,1,8,0:0:0:0:
256,192,53853,1,0,0:0:0:0:
256,192,53939,1,0,0:0:0:0:
256,192,54111,1,0,0:0:0:0:
256,192,54196,1,8,0:0:0:0:
256,192,54368,1,8,0:0:0:0:
256,192,54453,1,0,0:0:0:0:
256,192,54625,1,0,0:0:0:0:
256,192,54796,1,12,0:0:0:0:
256,192,55139,1,8,0:0:0:0:
256,192,55311,1,0,0:0:0:0:
256,192,55482,1,8,0:0:0:0:
256,192,55568,1,0,0:0:0:0:
256,192,55739,1,0,0:0:0:0:
256,192,55825,1,8,0:0:0:0:
256,192,55911,1,8,0:0:0:0:
256,192,55996,1,0,0:0:0:0:
256,192,56168,1,12,0:0:0:0:
256,192,56682,1,8,0:0:0:0:
256,192,56853,1,8,0:0:0:0:
256,192,57368,1,0,0:0:0:0:
256,192,57539,1,0,0:0:0:0:
256,192,58053,1,8,0:0:0:0:
256,192,58225,1,8,0:0:0:0:
256,192,58739,1,0,0:0:0:0:
256,192,58911,1,8,0:0:0:0:
256,192,59253,1,0,0:0:0:0:
256,192,59596,1,8,0:0:0:0:
256,192,59939,1,8,0:0:0:0:
256,192,60282,1,0,0:0:0:0:
256,192,60796,1,0,0:0:0:0:
256,192,60968,1,8,0:0:0:0:
256,192,61139,1,8,0:0:0:0:
256,192,61311,1,8,0:0:0:0:
256,192,61482,1,0,0:0:0:0:
256,192,61653,1,0,0:0:0:0:
256,192,62168,1,0,0:0:0:0:
256,192,62339,1,0,0:0:0:0:
256,192,62853,1,8,0:0:0:0:
256,192,63025,1,0,0:0:0:0:
256,192,63539,1,0,0:0:0:0:
256,192,63711,1,0,0:0:0:0:
256,192,64225,1,0,0:0:0:0:
256,192,64396,1,0,0:0:0:0:
256,192,64739,1,8,0:0:0:0:
256,192,65082,1,0,0:0:0:0:
256,192,65425,1,8,0:0:0:0:
256,192,65768,1,0,0:0:0:0:
256,192,66282,1,0,0:0:0:0:
256,192,66453,1,8,0:0:0:0:
256,192,66625,1,8,0:0:0:0:
256,192,66796,1,8,0:0:0:0:
256,192,66968,1,0,0:0:0:0:
256,192,67139,1,8,0:0:0:0:
256,192,67482,1,0,0:0:0:0:
256,192,67653,1,8,0:0:0:0:
256,192,67825,1,8,0:0:0:0:
256,192,67911,1,0,0:0:0:0:
256,192,67996,1,0,0:0:0:0:
256,192,68168,1,8,0:0:0:0:
256,192,68339,1,0,0:0:0:0:
256,192,68511,1,0,0:0:0:0:
256,192,68853,1,0,0:0:0:0:
256,192,69025,1,8,0:0:0:0:
256,192,69196,1,8,0:0:0:0:
256,192,69282,1,0,0:0:0:0:
256,192,69368,1,8,0:0:0:0:
256,192,69539,1,8,0:0:0:0:
256,192,69711,1,0,0:0:0:0:
256,192,69882,1,8,0:0:0:0:
256,192,70225,1,0,0:0:0:0:
256,192,70396,1,0,0:0:0:0:
256,192,70482,1,0,0:0:0:0:
256,192,70568,1,8,0:0:0:0:
256,192,70739,1,8,0:0:0:0:
256,192,70911,1,8,0:0:0:0:
256,192,71082,1,8,0:0:0:0:
256,192,71168,1,8,0:0:0:0:
256,192,71254,1,0,0:0:0:0:
256,192,71768,1,0,0:0:0:0:
256,192,71940,1,8,0:0:0:0:
256,192,72111,1,8,0:0:0:0:
256,192,72283,1,8,0:0:0:0:
256,192,72368,1,8,0:0:0:0:
256,192,72454,1,0,0:0:0:0:
256,192,72625,1,0,0:0:0:0:
256,192,72796,1,0,0:0:0:0:
256,192,72968,1,8,0:0:0:0:
256,192,73140,1,0,0:0:0:0:
256,192,73311,1,0,0:0:0:0:
256,192,73482,1,0,0:0:0:0:
256,192,73653,1,8,0:0:0:0:
256,192,73825,1,8,0:0:0:0:
256,192,73997,1,0,0:0:0:0:
256,192,74168,1,0,0:0:0:0:
256,192,74339,1,8,0:0:0:0:
256,192,74511,1,0,0:0:0:0:
256,192,74683,1,0,0:0:0:0:
256,192,74853,1,0,0:0:0:0:
256,192,75025,1,8,0:0:0:0:
256,192,75197,1,0,0:0:0:0:
256,192,75368,1,0,0:0:0:0:
256,192,75453,1,0,0:0:0:0:
256,192,75539,1,0,0:0:0:0:
256,192,75625,1,0,0:0:0:0:
256,192,75711,1,8,0:0:0:0:
256,192,75882,1,8,0:0:0:0:
256,192,76053,1,8,0:0:0:0:
256,192,76139,1,0,0:0:0:0:
256,192,76225,1,0,0:0:0:0:
256,192,76311,1,0,0:0:0:0:
256,192,76397,1,8,0:0:0:0:
256,192,76568,1,0,0:0:0:0:
256,192,76740,1,4,0:0:0:0:
256,192,77082,1,8,0:0:0:0:
256,192,77168,1,8,0:0:0:0:
256,192,77253,1,0,0:0:0:0:
256,192,77339,1,0,0:0:0:0:
256,192,77425,1,8,0:0:0:0:
256,192,77596,1,0,0:0:0:0:
256,192,77768,1,12,0:0:0:0:
256,192,78111,1,4,0:0:0:0:
256,192,78453,1,0,0:0:0:0:
256,192,78625,1,8,0:0:0:0:
256,192,78796,1,8,0:0:0:0:
256,192,78882,1,0,0:0:0:0:
256,192,78968,1,0,0:0:0:0:
256,192,79053,1,0,0:0:0:0:
256,192,79139,1,8,0:0:0:0:
256,192,79311,1,0,0:0:0:0:
256,192,79482,1,0,0:0:0:0:
256,192,79825,1,8,0:0:0:0:
256,192,79996,1,8,0:0:0:0:
256,192,80168,1,8,0:0:0:0:
256,192,80253,1,8,0:0:0:0:
256,192,80339,1,0,0:0:0:0:
256,192,80425,1,0,0:0:0:0:
256,192,80511,1,8,0:0:0:0:
256,192,80682,1,0,0:0:0:0:
256,192,80854,1,8,0:0:0:0:
256,192,81196,1,0,0:0:0:0:
256,192,81368,1,0,0:0:0:0:
256,192,81539,1,8,0:0:0:0:
256,192,81711,1,0,0:0:0:0:
256,192,81796,1,0,0:0:0:0:
256,192,81882,1,8,0:0:0:0:
256,192,82053,1,0,0:0:0:0:
256,192,82225,1,0,0:0:0:0:
256,192,82568,1,0,0:0:0:0:
256,192,82739,1,0,0:0:0:0:
256,192,82911,1,8,0:0:0:0:
256,192,82996,1,0,0:0:0:0:
256,192,83082,1,8,0:0:0:0:
256,192,83168,1,0,0:0:0:0:
256,192,83254,1,8,0:0:0:0:
256,192,83425,1,0,0:0:0:0:
256,192,83596,1,0,0:0:0:0:
256,192,83939,1,8,0:0:0:0:
256,192,84111,1,0,0:0:0:0:
256,192,84282,1,0,0:0:0:0:
256,192,84368,1,0,0:0:0:0:
256,192,84453,1,0,0:0:0:0:
256,192,84539,1,0,0:0:0:0:
256,192,84625,1,8,0:0:0:0:
256,192,84796,1,8,0:0:0:0:
256,192,84968,1,0,0:0:0:0:
256,192,85311,1,8,0:0:0:0:
256,192,85482,1,0,0:0:0:0:
256,192,85654,1,8,0:0:0:0:
256,192,85739,1,8,0:0:0:0:
256,192,85825,1,0,0:0:0:0:
256,192,85911,1,0,0:0:0:0:
256,192,85996,1,8,0:0:0:0:
256,192,86168,1,0,0:0:0:0:
256,192,86339,1,0,0:0:0:0:
256,192,86682,1,8,0:0:0:0:
256,192,86853,1,0,0:0:0:0:
256,192,87025,1,0,0:0:0:0:
256,192,87196,1,0,0:0:0:0:
256,192,87282,1,0,0:0:0:0:
256,192,87368,1,8,0:0:0:0:
256,192,87539,1,8,0:0:0:0:
256,192,87711,1,0,0:0:0:0:
256,192,88225,1,0,0:0:0:0:
256,192,88396,1,8,0:0:0:0:
256,192,88482,1,8,0:0:0:0:
256,192,88568,1,0,0:0:0:0:
256,192,88739,1,12,0:0:0:0:
256,192,88911,1,0,0:0:0:0:
256,192,89082,1,4,0:0:0:0:
256,192,89425,1,0,0:0:0:0:
256,192,89597,1,8,0:0:0:0:
256,192,89768,1,8,0:0:0:0:
256,192,89854,1,0,0:0:0:0:
256,192,89940,1,0,0:0:0:0:
256,192,90025,1,0,0:0:0:0:
256,192,90111,1,8,0:0:0:0:
256,192,90283,1,0,0:0:0:0:
256,192,90454,1,0,0:0:0:0:
256,192,90797,1,8,0:0:0:0:
256,192,90968,1,8,0:0:0:0:
256,192,91140,1,8,0:0:0:0:
256,192,91225,1,8,0:0:0:0:
256,192,91311,1,0,0:0:0:0:
256,192,91397,1,0,0:0:0:0:
256,192,91483,1,8,0:0:0:0:
256,192,91654,1,0,0:0:0:0:
256,192,91826,1,8,0:0:0:0:
256,192,92168,1,0,0:0:0:0:
256,192,92340,1,0,0:0:0:0:
256,192,92511,1,8,0:0:0:0:
256,192,92683,1,8,0:0:0:0:
256,192,92768,1,8,0:0:0:0:
256,192,92854,1,8,0:0:0:0:
256,192,93025,1,0,0:0:0:0:
256,192,93197,1,0,0:0:0:0:
256,192,93540,1,0,0:0:0:0:
256,192,93711,1,0,0:0:0:0:
256,192,93883,1,8,0:0:0:0:
256,192,93968,1,0,0:0:0:0:
256,192,94054,1,8,0:0:0:0:
256,192,94140,1,0,0:0:0:0:
256,192,94226,1,8,0:0:0:0:
256,192,94397,1,0,0:0:0:0:
256,192,94568,1,0,0:0:0:0:
256,192,94911,1,8,0:0:0:0:
256,192,95083,1,0,0:0:0:0:
256,192,95254,1,0,0:0:0:0:
256,192,95340,1,0,0:0:0:0:
256,192,95425,1,0,0:0:0:0:
256,192,95511,1,0,0:0:0:0:
256,192,95597,1,8,0:0:0:0:
256,192,95768,1,8,0:0:0:0:
256,192,95940,1,0,0:0:0:0:
256,192,96283,1,8,0:0:0:0:
256,192,96454,1,0,0:0:0:0:
256,192,96626,1,8,0:0:0:0:
256,192,96711,1,8,0:0:0:0:
256,192,96797,1,0,0:0:0:0:
256,192,96883,1,0,0:0:0:0:
256,192,96968,1,8,0:0:0:0:
256,192,97140,1,0,0:0:0:0:
256,192,97311,1,0,0:0:0:0:
256,192,97654,1,8,0:0:0:0:
256,192,97825,1,0,0:0:0:0:
256,192,97997,1,8,0:0:0:0:
256,192,98168,1,0,0:0:0:0:
256,192,98254,1,0,0:0:0:0:
256,192,98340,1,8,0:0:0:0:
256,192,98511,1,0,0:0:0:0:
256,192,98683,1,8,0:0:0:0:
256,192,98768,1,8,0:0:0:0:
256,192,98853,1,8,0:0:0:0:
256,192,98939,1,8,0:0:0:0:
256,192,99025,1,0,0:0:0:0:
256,192,99197,1,0,0:0:0:0:
256,192,99368,1,8,0:0:0:0:
256,192,99454,1,8,0:0:0:0:
256,192,99540,1,0,0:0:0:0:
256,192,99711,1,12,0:0:0:0:
256,192,100054,1,4,0:0:0:0:
256,192,100396,1,0,0:0:0:0:
256,192,100482,1,8,0:0:0:0:
256,192,100653,1,0,0:0:0:0:
256,192,100739,1,8,0:0:0:0:
256,192,100911,1,8,0:0:0:0:
256,192,100996,1,0,0:0:0:0:
256,192,101082,1,0,0:0:0:0:
256,192,101168,1,0,0:0:0:0:
256,192,101253,1,8,0:0:0:0:
256,192,101425,1,0,0:0:0:0:
256,192,101596,1,8,0:0:0:0:
256,192,101768,1,0,0:0:0:0:
256,192,101853,1,0,0:0:0:0:
256,192,102025,1,0,0:0:0:0:
256,192,102111,1,8,0:0:0:0:
256,192,102282,1,8,0:0:0:0:
256,192,102368,1,0,0:0:0:0:
256,192,102453,1,0,0:0:0:0:
256,192,102539,1,0,0:0:0:0:
256,192,102625,1,8,0:0:0:0:
256,192,102796,1,0,0:0:0:0:
256,192,102968,1,8,0:0:0:0:
256,192,103139,1,8,0:0:0:0:
256,192,103225,1,0,0:0:0:0:
256,192,103396,1,0,0:0:0:0:
256,192,103482,1,8,0:0:0:0:
256,192,103653,1,8,0:0:0:0:
256,192,103739,1,0,0:0:0:0:
256,192,103825,1,0,0:0:0:0:
256,192,103911,1,0,0:0:0:0:
256,192,103996,1,8,0:0:0:0:
256,192,104168,1,0,0:0:0:0:
256,192,104339,1,8,0:0:0:0:
256,192,104511,1,0,0:0:0:0:
256,192,104596,1,8,0:0:0:0:
256,192,104768,1,8,0:0:0:0:
256,192,104853,1,0,0:0:0:0:
256,192,104939,1,0,0:0:0:0:
256,192,105025,1,0,0:0:0:0:
256,192,105111,1,0,0:0:0:0:
256,192,105196,1,0,0:0:0:0:
256,192,105368,1,8,0:0:0:0:
256,192,105539,1,0,0:0:0:0:
256,192,105882,1,0,0:0:0:0:
256,192,105968,1,8,0:0:0:0:
256,192,106139,1,0,0:0:0:0:
256,192,106225,1,8,0:0:0:0:
256,192,106397,1,8,0:0:0:0:
256,192,106482,1,0,0:0:0:0:
256,192,106568,1,0,0:0:0:0:
256,192,106654,1,0,0:0:0:0:
256,192,106739,1,8,0:0:0:0:
256,192,106911,1,8,0:0:0:0:
256,192,107082,1,0,0:0:0:0:
256,192,107254,1,0,0:0:0:0:
256,192,107339,1,0,0:0:0:0:
256,192,107511,1,0,0:0:0:0:
256,192,107597,1,8,0:0:0:0:
256,192,107768,1,8,0:0:0:0:
256,192,107853,1,8,0:0:0:0:
256,192,107939,1,0,0:0:0:0:
256,192,108025,1,0,0:0:0:0:
256,192,108111,1,8,0:0:0:0:
256,192,108282,1,0,0:0:0:0:
256,192,108454,1,8,0:0:0:0:
256,192,108625,1,8,0:0:0:0:
256,192,108711,1,8,0:0:0:0:
256,192,108882,1,0,0:0:0:0:
256,192,108968,1,8,0:0:0:0:
256,192,109139,1,8,0:0:0:0:
256,192,109225,1,8,0:0:0:0:
256,192,109311,1,0,0:0:0:0:
256,192,109397,1,0,0:0:0:0:
256,192,109482,1,8,0:0:0:0:
256,192,109654,1,0,0:0:0:0:
256,192,109825,1,8,0:0:0:0:
256,192,109997,1,8,0:0:0:0:
256,192,110082,1,8,0:0:0:0:
256,192,110254,1,8,0:0:0:0:
256,192,110339,1,0,0:0:0:0:
256,192,110425,1,0,0:0:0:0:
256,192,110511,1,0,0:0:0:0:
256,192,110682,1,8,0:0:0:0:
256,192,110854,1,0,0:0:0:0:
256,192,111025,1,12,0:0:0:0:
256,192,111368,1,0,0:0:0:0:
256,192,111454,1,8,0:0:0:0:
256,192,111625,1,0,0:0:0:0:
256,192,111711,1,8,0:0:0:0:
256,192,111883,1,8,0:0:0:0:
256,192,111968,1,0,0:0:0:0:
256,192,112054,1,0,0:0:0:0:
256,192,112140,1,0,0:0:0:0:
256,192,112225,1,8,0:0:0:0:
256,192,112397,1,0,0:0:0:0:
256,192,112568,1,8,0:0:0:0:
256,192,112740,1,0,0:0:0:0:
256,192,112825,1,0,0:0:0:0:
256,192,112997,1,0,0:0:0:0:
256,192,113083,1,8,0:0:0:0:
256,192,113254,1,8,0:0:0:0:
256,192,113340,1,0,0:0:0:0:
256,192,113425,1,0,0:0:0:0:
256,192,113511,1,0,0:0:0:0:
256,192,113597,1,8,0:0:0:0:
256,192,113768,1,0,0:0:0:0:
256,192,113940,1,8,0:0:0:0:
256,192,114111,1,8,0:0:0:0:
256,192,114197,1,0,0:0:0:0:
256,192,114368,1,0,0:0:0:0:
256,192,114454,1,8,0:0:0:0:
256,192,114625,1,8,0:0:0:0:
256,192,114711,1,0,0:0:0:0:
256,192,114797,1,0,0:0:0:0:
256,192,114883,1,0,0:0:0:0:
256,192,114968,1,8,0:0:0:0:
256,192,115140,1,0,0:0:0:0:
256,192,115311,1,8,0:0:0:0:
256,192,115483,1,0,0:0:0:0:
256,192,115568,1,8,0:0:0:0:
256,192,115740,1,8,0:0:0:0:
256,192,115825,1,0,0:0:0:0:
256,192,115911,1,0,0:0:0:0:
256,192,115997,1,0,0:0:0:0:
256,192,116168,1,0,0:0:0:0:
256,192,116253,1,0,0:0:0:0:
256,192,116340,1,8,0:0:0:0:
256,192,116511,1,0,0:0:0:0:
256,192,116854,1,0,0:0:0:0:
256,192,116940,1,8,0:0:0:0:
256,192,117111,1,0,0:0:0:0:
256,192,117197,1,8,0:0:0:0:
256,192,117369,1,8,0:0:0:0:
256,192,117454,1,0,0:0:0:0:
256,192,117540,1,0,0:0:0:0:
256,192,117626,1,0,0:0:0:0:
256,192,117711,1,8,0:0:0:0:
256,192,117883,1,8,0:0:0:0:
256,192,118054,1,0,0:0:0:0:
256,192,118226,1,0,0:0:0:0:
256,192,118311,1,0,0:0:0:0:
256,192,118483,1,0,0:0:0:0:
256,192,118569,1,8,0:0:0:0:
256,192,118740,1,8,0:0:0:0:
256,192,118825,1,8,0:0:0:0:
256,192,118911,1,0,0:0:0:0:
256,192,118997,1,0,0:0:0:0:
256,192,119083,1,8,0:0:0:0:
256,192,119254,1,0,0:0:0:0:
256,192,119426,1,8,0:0:0:0:
256,192,119597,1,8,0:0:0:0:
256,192,119683,1,8,0:0:0:0:
256,192,119854,1,0,0:0:0:0:
256,192,119940,1,8,0:0:0:0:
256,192,120111,1,8,0:0:0:0:
256,192,120197,1,8,0:0:0:0:
256,192,120283,1,0,0:0:0:0:
256,192,120369,1,0,0:0:0:0:
256,192,120454,1,8,0:0:0:0:
256,192,120626,1,12,0:0:0:0:
256,192,120969,1,8,0:0:0:0:
256,192,121054,1,8,0:0:0:0:
256,192,121226,1,8,0:0:0:0:
256,192,121311,1,8,0:0:0:0:
256,192,121397,1,0,0:0:0:0:
256,192,121483,1,0,0:0:0:0:
256,192,121654,1,12,0:0:0:0:
256,192,121996,1,4,0:0:0:0:
256,192,122339,1,8,0:0:0:0:
256,192,122682,1,0,0:0:0:0:
256,192,122853,1,0,0:0:0:0:
256,192,123025,1,8,0:0:0:0:
256,192,123196,1,8,0:0:0:0:
256,192,123367,1,0,0:0:0:0:
256,192,123711,1,0,0:0:0:0:
256,192,124053,1,8,0:0:0:0:
256,192,124225,1,0,0:0:0:0:
256,192,124396,1,8,0:0:0:0:
256,192,124568,1,8,0:0:0:0:
256,192,124738,1,0,0:0:0:0:
256,192,125082,1,0,0:0:0:0:
256,192,125425,1,0,0:0:0:0:
256,192,125596,1,0,0:0:0:0:
256,192,125768,1,8,0:0:0:0:
256,192,125939,1,0,0:0:0:0:
256,192,126111,1,8,0:0:0:0:
256,192,126453,1,0,0:0:0:0:
256,192,126625,1,0,0:0:0:0:
256,192,126796,1,8,0:0:0:0:
256,192,127139,1,8,0:0:0:0:
256,192,127311,1,8,0:0:0:0:
256,192,127482,1,0,0:0:0:0:
256,192,127825,1,8,0:0:0:0:
256,192,128168,1,8,0:0:0:0:
256,192,128339,1,0,0:0:0:0:
256,192,128511,1,8,0:0:0:0:
256,192,128682,1,8,0:0:0:0:
256,192,128853,1,0,0:0:0:0:
256,192,129196,1,0,0:0:0:0:
256,192,129368,1,0,0:0:0:0:
256,192,129538,1,8,0:0:0:0:
256,192,129882,1,8,0:0:0:0:
256,192,130053,1,8,0:0:0:0:
256,192,130224,1,0,0:0:0:0:
256,192,130568,1,8,0:0:0:0:
256,192,130911,1,0,0:0:0:0:
256,192,131082,1,8,0:0:0:0:
256,192,131253,1,8,0:0:0:0:
256,192,131425,1,0,0:0:0:0:
256,192,131596,1,8,0:0:0:0:
256,192,131939,1,0,0:0:0:0:
256,192,132111,1,8,0:0:0:0:
256,192,132281,1,0,0:0:0:0:
256,192,132453,1,8,0:0:0:0:
256,192,132625,1,8,0:0:0:0:
256,192,132796,1,0,0:0:0:0:
256,192,132968,1,0,0:0:0:0:
256,192,133311,1,8,0:0:0:0:
256,192,133654,1,0,0:0:0:0:
256,192,133825,1,0,0:0:0:0:
256,192,133997,1,8,0:0:0:0:
256,192,134168,1,8,0:0:0:0:
256,192,134339,1,0,0:0:0:0:
256,192,134683,1,8,0:0:0:0:
256,192,135025,1,8,0:0:0:0:
256,192,135197,1,0,0:0:0:0:
256,192,135368,1,8,0:0:0:0:
256,192,135540,1,8,0:0:0:0:
256,192,135710,1,0,0:0:0:0:
256,192,136054,1,0,0:0:0:0:
256,192,136397,1,0,0:0:0:0:
256,192,136568,1,0,0:0:0:0:
256,192,136740,1,8,0:0:0:0:
256,192,136911,1,0,0:0:0:0:
256,192,137083,1,8,0:0:0:0:
256,192,137425,1,8,0:0:0:0:
256,192,137597,1,0,0:0:0:0:
256,192,137768,1,8,0:0:0:0:
256,192,138111,1,8,0:0:0:0:
256,192,138283,1,8,0:0:0:0:
256,192,138454,1,0,0:0:0:0:
256,192,138797,1,8,0:0:0:0:
256,192,139140,1,8,0:0:0:0:
256,192,139311,1,0,0:0:0:0:
256,192,139483,1,8,0:0:0:0:
256,192,139654,1,8,0:0:0:0:
256,192,139825,1,0,0:0:0:0:
256,192,140168,1,0,0:0:0:0:
256,192,140339,1,0,0:0:0:0:
256,192,140510,1,8,0:0:0:0:
256,192,140853,1,8,0:0:0:0:
256,192,141025,1,8,0:0:0:0:
256,192,141196,1,0,0:0:0:0:
256,192,141539,1,8,0:0:0:0:
256,192,141882,1,0,0:0:0:0:
256,192,142053,1,8,0:0:0:0:
256,192,142225,1,8,0:0:0:0:
256,192,142396,1,0,0:0:0:0:
256,192,142568,1,8,0:0:0:0:
256,192,142911,1,0,0:0:0:0:
256,192,143082,1,8,0:0:0:0:
256,192,143253,1,0,0:0:0:0:
256,192,143425,1,8,0:0:0:0:
256,192,143596,1,8,0:0:0:0:
256,192,143768,1,8,0:0:0:0:
