osu file format v14

[General]
AudioFilename: audio.mp3
AudioLeadIn: 0
PreviewTime: 187528
Countdown: 0
SampleSet: Normal
StackLeniency: 0.7
Mode: 1
LetterboxInBreaks: 0
WidescreenStoryboard: 0

[Editor]
Bookmarks: 1357,12328,23299,34271,45242,56214,67185,78157,89128,100099,111071,122042,133014,143985,154957,165928,176899,187871,209814,210157,230385,231757,253699,264671,274271,275299
DistanceSpacing: 1.65
BeatDivisor: 4
GridSize: 32
TimelineZoom: 2.4

[Metadata]
Title:BR4V3 W1ND
TitleUnicode:BR4V3 W1ND
Artist:Alkome
ArtistUnicode:Alkome
Creator:eiri-
Version:34SY
Source:東方花映塚 ~ Phantasmagoria of Flower View.
Tags:Ayyri Featured Artist FA Instrumental Video Game Electronic Touhou 東方Project Team Shanghai Alice ZUN StB Bunkachou Word Flower Album BRAVE WIND oriental breeze 2 射命丸文 Aya Shameimaru 風神少女 Wind God Girl Fuujin Shoujo Shojo 東方文花帖 ~ Shoot the Bullet. TH9.5 TH 9.5 Kaeizuka Reflecting Mound PoFV TH09 TH9 Tsukuba DTM Lab. Kantan Futsuu Muzukashii Inner Oni Easy Normal Hard Insane Lunatic Extra
BeatmapID:3714807
BeatmapSetID:1592887

[Difficulty]
HPDrainRate:8
CircleSize:2
OverallDifficulty:3
ApproachRate:10
SliderMultiplier:1.4
SliderTickRate:1

[Events]
//Background and Video events
0,0,"Aya 463.jpg",0,50
//Break Periods
//Storyboard Layer 0 (Background)
//Storyboard Layer 1 (Fail)
//Storyboard Layer 2 (Pass)
//Storyboard Layer 3 (Foreground)
//Storyboard Layer 4 (Overlay)
//Storyboard Sound Samples

[TimingPoints]
1357,342.857142857143,4,1,0,70,1,0
1357,-125,4,1,0,70,0,0
12285,-117.647058823529,4,1,0,70,0,0
15028,-111.111111111111,4,1,0,70,0,0
17771,-105.263157894737,4,1,0,70,0,0
20514,-100,4,1,0,70,0,0
21885,-90.9090909090909,4,1,0,70,0,0
23257,-125,4,1,0,50,0,0
34228,-111.111111111111,4,1,0,60,0,0
45199,-105.263157894737,4,1,0,60,0,0
54799,-100,4,1,0,60,0,0
56171,-90.9090909090909,4,1,0,70,0,0
56857,-100,4,1,0,70,0,0
67142,-90.9090909090909,4,1,0,75,0,0
67485,-100,4,1,0,75,0,0
78114,-90.9090909090909,4,1,0,60,0,0
78799,-100,4,1,0,60,0,0
83599,-95.2380952380952,4,1,0,65,0,0
84971,-93.4579439252336,4,1,0,65,0,0
86342,-90.9090909090909,4,1,0,67,0,0
87714,-90.9090909090909,4,1,0,70,0,0
89085,-100,4,1,0,70,0,0
100057,-90.9090909090909,4,1,0,70,0,0
100399,-100,4,1,0,70,0,0
111028,-100,4,1,0,75,0,0
111371,-111.111111111111,4,1,0,75,0,0
121999,-111.111111111111,4,1,0,80,0,0
122342,-100,4,1,0,80,0,0
131599,-90.9090909090909,4,1,0,80,0,0
132971,-125,4,1,0,50,0,0
143942,-111.111111111111,4,1,0,60,0,0
154914,-105.263157894737,4,1,0,60,0,0
164514,-100,4,1,0,60,0,0
165885,-90.9090909090909,4,1,0,70,0,0
166571,-100,4,1,0,70,0,0
176857,-90.9090909090909,4,1,0,75,0,0
177199,-100,4,1,0,75,0,0
182342,-95.2380952380952,4,1,0,80,0,0
183714,-93.4579439252336,4,1,0,80,0,0
185085,-90.9090909090909,4,1,0,83,0,0
186457,-90.9090909090909,4,1,0,85,0,0
187871,-90.9090909090909,4,1,0,90,0,1
188171,-100,4,1,0,90,0,1
209814,-100,4,1,0,90,0,0
210157,-90.9090909090909,4,1,0,90,0,1
210457,-100,4,1,0,90,0,1
230385,-95.2380952380952,4,1,0,90,0,0
231371,-86.9565217391304,4,1,0,90,0,0
231757,-83.3333333333333,4,1,0,90,0,1
232399,-100,4,1,0,90,0,1
253699,-125,4,1,0,70,0,0
264628,-117.647058823529,4,1,0,70,0,0
267371,-111.111111111111,4,1,0,70,0,0
270114,-105.263157894737,4,1,0,70,0,0
272857,-100,4,1,0,70,0,0
274228,-90.9090909090909,4,1,0,70,0,0
274914,-125,4,1,0,60,0,0
275257,-111.111111111111,4,1,0,50,0,0

[HitObjects]
256,192,1357,5,12,0:0:0:0:
256,192,1871,1,8,0:0:0:0:
256,192,2557,1,8,0:0:0:0:
256,192,3242,1,8,0:0:0:0:
256,192,3414,1,8,0:0:0:0:
256,192,4614,1,8,0:0:0:0:
256,192,5299,1,8,0:0:0:0:
256,192,5985,1,8,0:0:0:0:
256,192,6157,1,8,0:0:0:0:
256,192,7357,1,8,0:0:0:0:
256,192,8042,1,8,0:0:0:0:
256,192,8728,1,8,0:0:0:0:
256,192,8899,1,8,0:0:0:0:
256,192,10099,1,8,0:0:0:0:
256,192,10957,1,4,0:0:0:0:
256,192,12328,1,12,0:0:0:0:
256,192,12842,1,8,0:0:0:0:
256,192,13528,1,8,0:0:0:0:
256,192,14214,1,8,0:0:0:0:
256,192,14385,1,8,0:0:0:0:
256,192,15585,1,8,0:0:0:0:
256,192,16271,1,8,0:0:0:0:
256,192,17128,1,8,0:0:0:0:
256,192,17814,1,0,0:0:0:0:
256,192,18157,1,0,0:0:0:0:
256,192,18499,1,0,0:0:0:0:
256,192,19185,1,0,0:0:0:0:
256,192,19528,1,0,0:0:0:0:
256,192,19871,1,0,0:0:0:0:
256,192,20557,1,0,0:0:0:0:
256,192,20899,1,0,0:0:0:0:
256,192,21242,1,0,0:0:0:0:
256,192,21585,1,0,0:0:0:0:
256,192,21928,1,4,0:0:0:0:
256,192,23299,1,12,0:0:0:0:
256,192,24671,1,0,0:0:0:0:
256,192,26042,1,8,0:0:0:0:
256,192,27414,1,0,0:0:0:0:
256,192,28099,1,0,0:0:0:0:
256,192,28785,1,8,0:0:0:0:
256,192,30157,1,0,0:0:0:0:
256,192,31528,1,8,0:0:0:0:
256,192,32899,1,0,0:0:0:0:
256,192,33585,1,0,0:0:0:0:
256,192,34271,1,12,0:0:0:0:
256,192,35642,1,0,0:0:0:0:
256,192,36328,1,8,0:0:0:0:
256,192,37014,1,8,0:0:0:0:
256,192,38385,1,0,0:0:0:0:
256,192,39071,1,8,0:0:0:0:
256,192,39757,1,0,0:0:0:0:
256,192,41128,1,0,0:0:0:0:
256,192,41814,1,8,0:0:0:0:
256,192,42499,1,8,0:0:0:0:
256,192,43871,1,0,0:0:0:0:
256,192,44557,1,8,0:0:0:0:
256,192,45242,1,0,0:0:0:0:
256,192,46614,1,0,0:0:0:0:
256,192,47299,1,8,0:0:0:0:
256,192,47985,1,8,0:0:0:0:
256,192,49357,1,0,0:0:0:0:
256,192,50042,1,8,0:0:0:0:
256,192,50728,1,0,0:0:0:0:
256,192,52099,1,0,0:0:0:0:
256,192,52785,1,8,0:0:0:0:
256,192,53471,1,8,0:0:0:0:
256,192,54842,1,4,0:0:0:0:
256,192,56214,1,12,0:0:0:0:
256,192,56899,1,0,0:0:0:0:
256,192,57585,1,8,0:0:0:0:
256,192,58957,1,8,0:0:0:0:
256,192,59642,1,8,0:0:0:0:
256,192,60328,1,0,0:0:0:0:
256,192,61699,1,0,0:0:0:0:
256,192,62385,1,8,0:0:0:0:
256,192,63071,1,8,0:0:0:0:
256,192,64442,1,0,0:0:0:0:
256,192,65128,1,0,0:0:0:0:
256,192,65814,1,8,0:0:0:0:
256,192,67185,1,12,0:0:0:0:
256,192,67528,1,8,0:0:0:0:
256,192,67871,1,8,0:0:0:0:
256,192,68557,1,0,0:0:0:0:
256,192,68899,1,8,0:0:0:0:
256,192,69242,1,0,0:0:0:0:
256,192,69928,1,8,0:0:0:0:
256,192,70271,1,8,0:0:0:0:
256,192,70614,1,8,0:0:0:0:
256,192,71299,1,0,0:0:0:0:
256,192,72671,1,0,0:0:0:0:
256,192,73014,1,8,0:0:0:0:
256,192,73357,1,8,0:0:0:0:
256,192,74042,1,8,0:0:0:0:
256,192,74385,1,8,0:0:0:0:
256,192,74728,1,0,0:0:0:0:
256,192,75414,1,8,0:0:0:0:
256,192,75757,1,0,0:0:0:0:
256,192,76099,1,8,0:0:0:0:
256,192,76785,1,0,0:0:0:0:
256,192,78157,1,12,0:0:0:0:
256,192,78842,1,8,0:0:0:0:
256,192,79528,1,8,0:0:0:0:
256,192,80214,1,8,0:0:0:0:
256,192,80899,1,8,0:0:0:0:
256,192,81585,1,8,0:0:0:0:
256,192,82271,1,8,0:0:0:0:
256,192,83642,1,8,0:0:0:0:
256,192,83985,1,8,0:0:0:0:
256,192,84328,1,8,0:0:0:0:
256,192,85014,1,8,0:0:0:0:
256,192,85357,1,8,0:0:0:0:
256,192,85699,1,8,0:0:0:0:
256,192,86385,1,8,0:0:0:0:
256,192,86728,1,8,0:0:0:0:
256,192,87071,1,8,0:0:0:0:
256,192,87414,1,8,0:0:0:0:
256,192,87757,1,12,0:0:0:0:
256,192,89128,1,12,0:0:0:0:
256,192,89642,1,0,0:0:0:0:
256,192,89899,1,8,0:0:0:0:
256,192,90499,1,0,0:0:0:0:
256,192,90842,1,0,0:0:0:0:
256,192,91185,1,8,0:0:0:0:
256,192,91871,1,12,0:0:0:0:
256,192,92385,1,0,0:0:0:0:
256,192,92642,1,8,0:0:0:0:
256,192,93242,1,0,0:0:0:0:
256,192,94614,1,12,0:0:0:0:
256,192,95128,1,0,0:0:0:0:
256,192,95385,1,8,0:0:0:0:
256,192,95985,1,0,0:0:0:0:
256,192,96328,1,0,0:0:0:0:
256,192,96671,1,8,0:0:0:0:
256,192,97357,1,12,0:0:0:0:
256,192,97871,1,0,0:0:0:0:
256,192,98128,1,8,0:0:0:0:
256,192,98728,1,0,0:0:0:0:
256,192,100099,1,4,0:0:0:0:
256,192,100442,1,12,0:0:0:0:
256,192,100871,1,8,0:0:0:0:
256,192,101471,1,0,0:0:0:0:
256,192,101814,1,8,0:0:0:0:
256,192,102157,1,0,0:0:0:0:
256,192,102842,1,12,0:0:0:0:
256,192,103357,1,0,0:0:0:0:
256,192,103614,1,8,0:0:0:0:
256,192,104214,1,0,0:0:0:0:
256,192,105585,1,12,0:0:0:0:
256,192,106099,1,0,0:0:0:0:
256,192,106357,1,8,0:0:0:0:
256,192,106957,1,0,0:0:0:0:
256,192,107299,1,8,0:0:0:0:
256,192,107642,1,0,0:0:0:0:
256,192,108328,1,12,0:0:0:0:
256,192,108842,1,0,0:0:0:0:
256,192,109099,1,8,0:0:0:0:
256,192,109699,1,0,0:0:0:0:
256,192,111071,1,4,0:0:0:0:
256,192,111414,1,8,0:0:0:0:
256,192,111928,1,8,0:0:0:0:
256,192,112271,1,8,0:0:0:0:
256,192,112614,1,8,0:0:0:0:
256,192,113299,1,8,0:0:0:0:
256,192,113814,1,0,0:0:0:0:
256,192,114157,1,8,0:0:0:0:
256,192,114671,1,8,0:0:0:0:
256,192,115185,1,0,0:0:0:0:
256,192,116557,1,8,0:0:0:0:
256,192,116899,1,8,0:0:0:0:
256,192,117414,1,8,0:0:0:0:
256,192,117757,1,8,0:0:0:0:
256,192,118099,1,8,0:0:0:0:
256,192,118785,1,8,0:0:0:0:
256,192,119299,1,0,0:0:0:0:
256,192,119642,1,8,0:0:0:0:
256,192,120157,1,8,0:0:0:0:
256,192,120671,1,0,0:0:0:0:
256,192,122042,1,0,0:0:0:0:
256,192,122385,1,12,0:0:0:0:
256,192,122728,1,0,0:0:0:0:
256,192,123414,1,8,0:0:0:0:
256,192,124099,1,0,0:0:0:0:
256,192,124785,1,0,0:0:0:0:
256,192,125128,1,12,0:0:0:0:
256,192,125471,1,0,0:0:0:0:
256,192,126157,1,8,0:0:0:0:
256,192,127528,1,8,0:0:0:0:
256,192,127871,1,12,0:0:0:0:
256,192,128214,1,8,0:0:0:0:
256,192,128899,1,0,0:0:0:0:
256,192,129242,1,8,0:0:0:0:
256,192,129585,1,0,0:0:0:0:
256,192,130271,1,0,0:0:0:0:
256,192,130614,1,12,0:0:0:0:
256,192,130957,1,0,0:0:0:0:
256,192,131299,1,8,0:0:0:0:
256,192,131642,1,0,0:0:0:0:
256,192,133014,1,12,0:0:0:0:
256,192,134385,1,0,0:0:0:0:
256,192,135757,1,8,0:0:0:0:
256,192,137128,1,0,0:0:0:0:
256,192,137814,1,0,0:0:0:0:
256,192,138499,1,8,0:0:0:0:
256,192,139871,1,0,0:0:0:0:
256,192,141242,1,8,0:0:0:0:
256,192,142614,1,0,0:0:0:0:
256,192,143299,1,0,0:0:0:0:
256,192,143985,1,12,0:0:0:0:
256,192,145356,1,0,0:0:0:0:
256,192,146042,1,8,0:0:0:0:
256,192,146728,1,8,0:0:0:0:
256,192,148099,1,0,0:0:0:0:
256,192,148785,1,8,0:0:0:0:
256,192,149471,1,0,0:0:0:0:
256,192,150842,1,0,0:0:0:0:
256,192,151528,1,8,0:0:0:0:
256,192,152213,1,8,0:0:0:0:
256,192,153585,1,0,0:0:0:0:
256,192,154271,1,8,0:0:0:0:
256,192,154956,1,0,0:0:0:0:
256,192,156328,1,0,0:0:0:0:
256,192,157013,1,8,0:0:0:0:
256,192,157699,1,8,0:0:0:0:
256,192,159071,1,0,0:0:0:0:
256,192,159756,1,8,0:0:0:0:
256,192,160442,1,0,0:0:0:0:
256,192,161813,1,0,0:0:0:0:
256,192,162499,1,8,0:0:0:0:
256,192,163185,1,8,0:0:0:0:
256,192,164556,1,4,0:0:0:0:
256,192,165928,1,12,0:0:0:0:
256,192,166613,1,0,0:0:0:0:
256,192,167299,1,8,0:0:0:0:
256,192,168671,1,8,0:0:0:0:
256,192,169356,1,8,0:0:0:0:
256,192,170042,1,0,0:0:0:0:
256,192,171413,1,0,0:0:0:0:
256,192,172099,1,8,0:0:0:0:
256,192,172785,1,8,0:0:0:0:
256,192,174156,1,0,0:0:0:0:
256,192,174842,1,0,0:0:0:0:
256,192,175528,1,8,0:0:0:0:
256,192,176899,1,12,0:0:0:0:
256,192,177242,1,8,0:0:0:0:
256,192,177585,1,8,0:0:0:0:
256,192,178271,1,0,0:0:0:0:
256,192,178613,1,8,0:0:0:0:
256,192,178956,1,0,0:0:0:0:
256,192,179642,1,8,0:0:0:0:
256,192,179985,1,8,0:0:0:0:
256,192,180328,1,8,0:0:0:0:
256,192,181013,1,0,0:0:0:0:
256,192,182385,1,0,0:0:0:0:
256,192,182728,1,8,0:0:0:0:
256,192,183071,1,8,0:0:0:0:
256,192,183756,1,8,0:0:0:0:
256,192,184099,1,8,0:0:0:0:
256,192,184442,1,0,0:0:0:0:
256,192,185128,1,8,0:0:0:0:
256,192,185471,1,0,0:0:0:0:
256,192,185813,1,8,0:0:0:0:
256,192,186157,1,8,0:0:0:0:
256,192,186499,1,0,0:0:0:0:
256,192,187871,1,12,0:0:0:0:
256,192,188214,1,0,0:0:0:0:
256,192,188557,1,8,0:0:0:0:
256,192,189242,1,0,0:0:0:0:
256,192,189585,1,8,0:0:0:0:
256,192,189928,1,0,0:0:0:0:
256,192,190271,1,8,0:0:0:0:
256,192,190614,1,0,0:0:0:0:
256,192,191299,1,8,0:0:0:0:
256,192,191642,1,8,0:0:0:0:
256,192,191985,1,0,0:0:0:0:
256,192,193357,1,0,0:0:0:0:
256,192,193699,1,8,0:0:0:0:
256,192,194043,1,8,0:0:0:0:
256,192,194728,1,8,0:0:0:0:
256,192,195071,1,8,0:0:0:0:
256,192,195414,1,0,0:0:0:0:
256,192,195757,1,8,0:0:0:0:
256,192,196100,1,0,0:0:0:0:
256,192,196785,1,8,0:0:0:0:
256,192,197128,1,8,0:0:0:0:
256,192,197471,1,0,0:0:0:0:
256,192,198842,1,8,0:0:0:0:
256,192,199185,1,0,0:0:0:0:
256,192,199528,1,8,0:0:0:0:
256,192,200213,1,0,0:0:0:0:
256,192,200556,1,8,0:0:0:0:
256,192,200899,1,0,0:0:0:0:
256,192,201242,1,8,0:0:0:0:
256,192,201585,1,0,0:0:0:0:
256,192,202270,1,8,0:0:0:0:
256,192,202614,1,8,0:0:0:0:
256,192,202956,1,0,0:0:0:0:
256,192,204328,1,0,0:0:0:0:
256,192,204670,1,8,0:0:0:0:
256,192,205014,1,8,0:0:0:0:
256,192,205699,1,8,0:0:0:0:
256,192,206042,1,8,0:0:0:0:
256,192,206385,1,0,0:0:0:0:
256,192,206728,1,8,0:0:0:0:
256,192,207071,1,0,0:0:0:0:
256,192,207756,1,8,0:0:0:0:
256,192,208099,1,8,0:0:0:0:
256,192,208442,1,4,0:0:0:0:
256,192,210157,1,12,0:0:0:0:
256,192,210499,1,0,0:0:0:0:
256,192,210842,1,8,0:0:0:0:
256,192,211185,1,0,0:0:0:0:
256,192,211871,1,0,0:0:0:0:
256,192,212214,1,8,0:0:0:0:
256,192,212557,1,0,0:0:0:0:
256,192,213242,1,8,0:0:0:0:
256,192,213585,1,8,0:0:0:0:
256,192,213928,1,0,0:0:0:0:
256,192,215299,1,0,0:0:0:0:
256,192,215985,1,8,0:0:0:0:
256,192,216328,1,8,0:0:0:0:
256,192,216671,1,0,0:0:0:0:
256,192,217357,1,8,0:0:0:0:
256,192,218042,1,0,0:0:0:0:
256,192,219414,1,0,0:0:0:0:
256,192,219757,1,8,0:0:0:0:
256,192,220099,1,0,0:0:0:0:
256,192,220442,1,8,0:0:0:0:
256,192,220785,1,0,0:0:0:0:
256,192,221470,1,8,0:0:0:0:
256,192,221813,1,8,0:0:0:0:
256,192,222156,1,0,0:0:0:0:
256,192,222842,1,8,0:0:0:0:
256,192,223528,1,0,0:0:0:0:
256,192,223870,1,8,0:0:0:0:
256,192,224213,1,0,0:0:0:0:
256,192,224557,1,8,0:0:0:0:
256,192,224899,1,0,0:0:0:0:
256,192,226270,1,0,0:0:0:0:
256,192,226614,1,8,0:0:0:0:
256,192,226956,1,0,0:0:0:0:
256,192,227642,1,8,0:0:0:0:
256,192,228327,1,0,0:0:0:0:
256,192,229014,1,0,0:0:0:0:
256,192,229357,1,8,0:0:0:0:
256,192,229699,1,0,0:0:0:0:
256,192,230042,1,8,0:0:0:0:
256,192,230385,1,4,0:0:0:0:
256,192,231414,1,4,0:0:0:0:
256,192,231757,1,12,0:0:0:0:
256,192,232442,1,8,0:0:0:0:
256,192,233128,1,0,0:0:0:0:
256,192,233471,1,8,0:0:0:0:
256,192,233814,1,0,0:0:0:0:
256,192,234499,1,8,0:0:0:0:
256,192,235871,1,0,0:0:0:0:
256,192,236214,1,8,0:0:0:0:
256,192,236557,1,0,0:0:0:0:
256,192,236899,1,0,0:0:0:0:
256,192,237242,1,8,0:0:0:0:
256,192,237928,1,0,0:0:0:0:
256,192,238614,1,8,0:0:0:0:
256,192,238957,1,0,0:0:0:0:
256,192,239299,1,8,0:0:0:0:
256,192,239985,1,0,0:0:0:0:
256,192,240671,1,8,0:0:0:0:
256,192,241357,1,0,0:0:0:0:
256,192,242042,1,8,0:0:0:0:
256,192,242728,1,0,0:0:0:0:
256,192,243071,1,0,0:0:0:0:
256,192,243413,1,8,0:0:0:0:
256,192,244099,1,0,0:0:0:0:
256,192,244442,1,8,0:0:0:0:
256,192,244785,1,0,0:0:0:0:
256,192,245470,1,8,0:0:0:0:
256,192,245814,1,0,0:0:0:0:
256,192,246156,1,8,0:0:0:0:
256,192,246842,1,0,0:0:0:0:
256,192,247185,1,8,0:0:0:0:
256,192,247528,1,0,0:0:0:0:
256,192,247870,1,0,0:0:0:0:
256,192,248213,1,8,0:0:0:0:
256,192,249585,1,8,0:0:0:0:
256,192,249928,1,0,0:0:0:0:
256,192,250270,1,8,0:0:0:0:
256,192,250956,1,0,0:0:0:0:
256,192,251299,1,0,0:0:0:0:
256,192,251642,1,8,0:0:0:0:
256,192,251985,1,0,0:0:0:0:
256,192,252328,1,12,0:0:0:0:
256,192,253699,1,12,0:0:0:0:
256,192,254213,1,8,0:0:0:0:
256,192,254899,1,8,0:0:0:0:
256,192,255584,1,8,0:0:0:0:
256,192,255756,1,8,0:0:0:0:
256,192,256956,1,8,0:0:0:0:
256,192,257641,1,8,0:0:0:0:
256,192,258327,1,8,0:0:0:0:
256,192,258499,1,8,0:0:0:0:
256,192,259699,1,8,0:0:0:0:
256,192,260384,1,8,0:0:0:0:
256,192,261070,1,8,0:0:0:0:
256,192,261241,1,8,0:0:0:0:
256,192,262441,1,8,0:0:0:0:
256,192,263299,1,4,0:0:0:0:
256,192,264670,1,12,0:0:0:0:
256,192,265184,1,8,0:0:0:0:
256,192,265870,1,8,0:0:0:0:
256,192,266556,1,8,0:0:0:0:
256,192,266727,1,8,0:0:0:0:
256,192,267927,1,8,0:0:0:0:
256,192,268613,1,8,0:0:0:0:
256,192,269470,1,8,0:0:0:0:
256,192,270156,1,0,0:0:0:0:
256,192,270499,1,0,0:0:0:0:
256,192,270841,1,0,0:0:0:0:
256,192,271527,1,0,0:0:0:0:
256,192,271870,1,0,0:0:0:0:
256,192,272213,1,0,0:0:0:0:
256,192,272899,1,0,0:0:0:0:
256,192,273241,1,0,0:0:0:0:
256,192,273584,1,0,0:0:0:0:
256,192,273927,1,0,0:0:0:0:
256,192,274270,1,4,0:0:0:0:
256,192,274956,1,8,0:0:0:0:
256,192,275299,1,0,0:0:0:0:
