osu file format v14

[General]
AudioFilename: audio.mp3
AudioLeadIn: 0
PreviewTime: 61161
Countdown: 0
SampleSet: Soft
StackLeniency: 0.1
Mode: 0
LetterboxInBreaks: 0
WidescreenStoryboard: 1

[Editor]
Bookmarks: 1229,9956,18683,27410,36138,44865,53592,62319,71047,79774,88501,97229,105956,114683,119266,125788
DistanceSpacing: 1.2
BeatDivisor: 8
GridSize: 16
TimelineZoom: 2.7

[Metadata]
Title:Your Love (Manila Killa Remix)
TitleUnicode:Your Love (Manila Killa Remix)
Artist:Alizzz (Feat. Max Marshall)
ArtistUnicode:Alizzz (Feat. Max Marshall)
Creator:VINXIS
Version:KAIVIN's Insane
Source:
Tags:Kaifin Moving Castle
BeatmapID:1127991
BeatmapSetID:532334

[Difficulty]
HPDrainRate:6
CircleSize:4
OverallDifficulty:8
ApproachRate:9
SliderMultiplier:1.8
SliderTickRate:1

[Events]
//Background and Video events
0,0,"MANILA KILL a.png",0,0
//Break Periods
2,97429,105356
//Storyboard Layer 0 (Background)
//Storyboard Layer 1 (Fail)
//Storyboard Layer 2 (Pass)
//Storyboard Layer 3 (Foreground)
//Storyboard Sound Samples

[TimingPoints]
1255,545.454545454546,4,2,1,40,1,0
9914,-100,4,2,1,5,0,0
9982,-200,4,2,1,40,0,0
14277,-200,4,2,1,5,0,0
14345,-200,4,2,1,40,0,0
15368,-200,4,2,1,5,0,0
15436,-200,4,2,1,40,0,0
16459,-200,4,2,1,5,0,0
16527,-200,4,2,1,40,0,0
17550,-200,4,2,1,5,0,0
17618,-50,4,2,1,50,0,0
18709,-90.9090909090909,4,2,1,60,0,0
32550,-111.111111111111,4,2,1,60,0,0
33436,-90.9090909090909,4,2,1,60,0,0
36164,-90.9090909090909,4,2,1,55,0,0
43800,-76.9230769230769,4,2,1,55,0,0
44345,-66.6666666666667,4,2,1,55,0,0
44891,-90.9090909090909,4,2,1,55,0,0
51436,-200,4,2,1,55,0,0
53593,545.454545454546,4,2,1,70,1,0
53593,-76.9230769230769,4,2,1,70,0,0
71047,-58.8235294117647,4,2,1,80,0,0
87138,-50,4,2,1,80,0,0
88502,-76.9230769230769,4,2,1,60,0,0
96752,-76.9230769230769,4,2,1,5,0,0
96820,-76.9230769230769,4,2,1,60,0,0
105956,-90.9090909090909,4,2,1,60,0,0
106502,-76.9230769230769,4,2,1,60,0,0
107047,-90.9090909090909,4,2,1,60,0,0
107593,-76.9230769230769,4,2,1,60,0,0
110320,-90.9090909090909,4,2,1,60,0,0
110865,-76.9230769230769,4,2,1,60,0,0
111411,-90.9090909090909,4,2,1,60,0,0
111956,-76.9230769230769,4,2,1,60,0,0
113593,-66.6666666666667,4,2,1,50,0,0
114684,577.645133339752,4,2,2,50,1,0
114684,-200,4,2,2,50,0,0
119160,-200,4,2,2,5,0,0
119305,538.068334678504,4,2,2,50,1,0
119305,-200,4,2,2,50,0,0

[Colours]
Combo1 : 255,243,206
Combo2 : 185,255,185
Combo3 : 159,203,255
Combo4 : 253,213,219

[HitObjects]
164,116,1255,5,2,0:0:0:0:
176,244,1800,1,0,0:0:0:0:
348,116,2345,5,2,0:0:0:0:
336,244,2891,1,0,0:0:0:0:
164,101,3436,5,2,0:0:0:0:
176,229,3982,1,0,0:0:0:0:
348,101,4527,5,2,0:0:0:0:
336,229,5073,1,0,0:0:0:0:
164,86,5618,5,2,0:0:0:0:
176,315,6164,1,0,0:0:0:0:
348,86,6709,5,2,0:0:0:0:
336,315,7255,1,0,0:0:0:0:
164,71,7800,5,2,0:0:0:0:
176,330,8345,1,0,0:0:0:0:
348,71,8891,5,2,0:0:0:0:
336,330,9436,2,0,L|344:162,1,157.5
348,71,9982,6,0,P|285:90|244:192,1,180,2|2,0:0|0:0,0:0:0:0:
348,71,11618,1,0,0:0:0:0:
257,279,12164,1,2,0:0:0:0:
155,91,12709,1,0,0:0:0:0:
256,299,13255,1,2,0:0:0:0:
113,232,13527,2,0,L|109:215,3,11.25
64,317,13800,6,0,L|147:305,1,78.75
205,235,14345,6,0,L|33:209,1,168.75,2|0,0:0|0:0,0:0:0:0:
173,144,15436,6,0,P|261:157|302:220,1,168.75,2|0,0:0|0:0,0:0:0:0:
372,164,16527,2,0,L|374:147,3,11.25,2|0|0|0,0:0|0:0|0:0|0:0,0:0:0:0:
435,236,16800,2,0,L|433:247,1,11.25
364,308,16936,2,0,L|365:319,1,11.25
507,375,17073,6,0,L|429:365,1,78.75
365,319,17618,6,0,L|358:258,3,45,2|0|0|0,0:0|0:0|0:0|0:0,0:0:0:0:
433,247,17891,2,0,L|440:186,3,45,2|0|0|0,0:0|0:0|0:0|0:0,0:0:0:0:
370,130,18164,6,0,L|448:115,1,45,8|0,0:0|0:0,0:0:0:0:
283,212,18300,2,0,L|327:203,1,45,8|0,0:0|0:0,0:0:0:0:
183,127,18436,6,0,L|227:118,1,45,8|0,0:0|0:0,0:0:0:0:
129,258,18573,2,0,L|173:249,1,45,8|0,0:0|0:0,0:0:0:0:
36,115,18709,5,6,0:0:0:0:
56,173,20345,6,0,L|125:169,1,49.5000015106202,2|0,0:0|0:0,0:0:0:0:
300,37,20618,2,0,L|231:33,1,49.5000015106202
177,101,20891,5,2,0:0:0:0:
177,101,21982,6,0,P|153:105|129:111,1,49.5000015106202,2|0,0:0|0:0,0:0:0:0:
335,101,22255,2,0,P|360:105|384:111,1,49.5000015106202
338,211,22527,1,2,0:0:0:0:
256,22,22800,1,0,0:0:0:0:
174,211,23073,5,2,0:0:0:0:
174,211,24709,6,0,L|243:207,1,49.5000015106202,2|0,0:0|0:0,0:0:0:0:
418,75,24982,2,0,L|349:71,1,49.5000015106202
295,139,25255,5,2,0:0:0:0:
295,139,26345,6,0,P|319:135|343:129,1,49.5000015106202,2|0,0:0|0:0,0:0:0:0:
137,139,26618,2,0,P|112:135|88:129,1,49.5000015106202
140,36,26891,1,2,0:0:0:0:
88,229,27164,1,0,0:0:0:0:
140,36,27436,6,0,L|160:42,2,12.375000377655,2|0|0,0:0|0:0|0:0,0:0:0:0:
440,171,29073,6,0,L|434:226,1,49.5000015106202,2|0,0:0|0:0,0:0:0:0:
335,80,29345,2,0,L|341:135,1,49.5000015106202
471,24,29618,6,0,L|491:18,2,12.375000377655,2|0|0,0:0|0:0|0:0,0:0:0:0:
70,181,30709,6,0,P|101:175|120:175,1,49.5000015106202,2|0,0:0|0:0,0:0:0:0:
254,213,30982,2,0,P|229:218|205:219,1,49.5000015106202
147,93,31255,1,2,0:0:0:0:
95,266,31527,1,0,0:0:0:0:
300,128,31800,6,0,L|447:113,1,132.00000402832,2|0,0:0|0:0,0:0:0:0:
512,264,32573,2,0,L|313:283,1,188.999994232178,2|0,0:0|0:0,0:0:0:0:
70,181,33436,6,0,P|101:175|120:175,1,49.5000015106202,2|0,0:0|0:0,0:0:0:0:
253,213,33709,2,0,P|229:217|205:219,1,49.5000015106202
339,150,33982,1,2,0:0:0:0:
339,150,34800,5,0,0:0:0:0:
254,213,35073,2,0,P|206:220|154:202,1,99.0000030212403
434,159,35618,2,0,P|387:143|338:149,1,99.0000030212403,2|0,0:0|0:0,0:0:0:0:
362,340,36164,5,2,0:0:0:0:
433,305,36436,1,0,0:0:0:0:
377,224,36709,1,0,0:0:0:0:
439,122,36982,1,0,0:0:0:0:
361,9,37255,5,2,0:0:0:0:
239,74,37527,1,0,0:0:0:0:
338,148,37800,1,0,0:0:0:0:
239,74,38073,1,0,0:0:0:0:
209,314,38345,5,2,0:0:0:0:
297,248,38618,1,0,0:0:0:0:
286,139,38891,1,0,0:0:0:0:
214,56,39164,1,0,0:0:0:0:
33,49,39436,6,0,L|30:-8,1,49.5000015106202,2|0,0:0|0:0,0:0:0:0:
126,113,39709,2,0,L|124:64,2,49.5000015106202
136,295,40255,1,0,0:0:0:0:
457,373,40527,5,2,0:0:0:0:
371,305,40800,1,0,0:0:0:0:
340,200,41073,1,0,0:0:0:0:
360,93,41345,1,0,0:0:0:0:
364,97,41618,5,2,0:0:0:0:
364,97,41664,2,0,P|309:95|272:80,1,82.5000025177003
102,156,42164,2,0,P|139:147|198:182,1,99.0000030212403
102,156,42709,5,2,0:0:0:0:
93,329,43255,2,0,L|101:155,1,173.250005287171,2|0,0:0|0:0,0:0:0:0:
84,125,43800,6,0,L|94:339,1,204.749990627289,2|0,0:0|0:0,0:0:0:0:
73,361,44345,6,0,L|85:109,1,236.250009012223,2|0,0:0|0:0,0:0:0:0:
60,93,44891,5,2,0:0:0:0:
160,51,45164,1,0,0:0:0:0:
261,162,45436,1,0,0:0:0:0:
404,59,45709,1,0,0:0:0:0:
452,274,45982,5,2,0:0:0:0:
452,274,46027,1,0,0:0:0:0:
363,208,46255,1,0,0:0:0:0:
315,340,46527,1,0,0:0:0:0:
363,208,46800,1,0,0:0:0:0:
506,330,47073,6,0,L|405:313,1,99.0000030212403,2|0,0:0|0:0,0:0:0:0:
265,225,47618,1,0,0:0:0:0:
454,195,47891,1,0,0:0:0:0:
358,87,48164,5,2,0:0:0:0:
336,176,48300,1,0,0:0:0:0:
264,42,48436,5,0,0:0:0:0:
341,195,48573,1,0,0:0:0:0:
176,144,48709,6,0,L|258:130,1,74.2500022659302,2|0,0:0|0:0,0:0:0:0:
273,124,48982,5,8,0:0:0:0:
170,64,49118,1,8,0:0:0:0:
128,221,49255,5,2,0:0:0:0:
125,240,49527,1,0,0:0:0:0:
122,259,49800,1,0,0:0:0:0:
119,278,50073,1,0,0:0:0:0:
258,188,50345,5,2,0:0:0:0:
255,169,50618,1,0,0:0:0:0:
252,150,50891,1,0,0:0:0:0:
249,131,51164,1,0,0:0:0:0:
434,320,51436,6,0,B|387:342|387:342|315:286,1,135,2|0,0:0|0:0,0:0:0:0:
480,141,52527,2,0,L|500:266,1,123.75,2|0,0:0|0:0,0:0:0:0:
504,285,53345,5,0,0:0:0:0:
466,63,53482,1,0,0:0:0:0:
395,204,53593,6,0,P|338:219|282:207,1,116.999994644165,6|0,1:2|0:0,0:0:0:0:
191,184,54002,2,0,P|188:198|189:213,1,29.2499986610413,2|0,0:0|0:0,0:0:0:0:
261,104,54138,5,0,1:0:0:0:
6,113,54411,2,0,P|6:84|12:56,1,58.4999973220826,2|0,0:0|0:0,0:0:0:0:
109,276,54683,5,0,1:0:0:0:
62,200,54820,2,0,P|116:187|172:214,1,116.999994644165,2|0,0:0|0:0,0:0:0:0:
285,306,55229,2,0,P|256:304|229:294,1,58.4999973220826,2|0,1:2|0:0,0:0:0:0:
366,250,55502,2,0,L|368:195,2,29.2499986610413,2|0|0,0:0|0:0|0:0,0:0:0:0:
366,360,55774,6,0,B|420:375|453:363|453:363|441:350|439:338,1,116.999994644165,2|0,1:2|0:0,0:0:0:0:
509,308,56183,2,0,P|508:293|506:278,1,29.2499986610413,2|0,0:0|0:0,0:0:0:0:
477,130,56320,5,0,1:0:0:0:
477,130,56456,1,0,0:0:0:0:
370,197,56593,2,0,P|341:202|312:199,1,58.4999973220826,2|0,0:0|0:0,0:0:0:0:
310,16,56865,5,0,1:0:0:0:
339,113,57002,2,0,P|263:107|223:68,1,116.999994644165,2|0,0:0|0:0,0:0:0:0:
24,54,57411,2,0,P|72:22|129:23,1,116.999994644165,2|0,1:2|0:0,0:0:0:0:
106,230,57956,6,0,P|85:176|99:120,1,116.999994644165,2|0,1:2|0:0,0:0:0:0:
183,89,58365,2,0,P|186:110|188:135,1,29.2499986610413,2|0,0:0|0:0,0:0:0:0:
106,230,58502,5,0,1:0:0:0:
281,109,58774,2,0,P|310:107|338:112,1,58.4999973220826,2|0,0:0|0:0,0:0:0:0:
336,296,59047,5,0,1:0:0:0:
307,197,59183,2,0,P|364:198|413:229,1,116.999994644165,2|0,0:0|0:0,0:0:0:0:
505,300,59593,2,0,P|482:319|456:332,1,58.4999973220826,2|0,1:2|0:0,0:0:0:0:
474,133,59865,2,0,L|469:93,2,29.2499986610413
413,229,60138,6,0,P|363:246|292:232,1,116.999994644165,2|0,1:2|0:0,0:0:0:0:
249,159,60547,2,0,P|261:151|275:147,1,29.2499986610413,2|0,0:0|0:0,0:0:0:0:
351,136,60683,5,0,1:0:0:0:
351,136,60820,1,0,0:0:0:0:
356,349,60956,2,0,L|268:356,1,87.749995983124,2|0,0:0|0:0,0:0:0:0:
241,357,61229,6,0,L|246:289,1,58.4999973220826,0|0,1:0|0:0,0:0:0:0:
0,301,61502,2,0,L|4:359,1,58.4999973220826
120,220,61774,6,0,L|120:151,1,58.4999973220826,0|0,1:0|0:0,0:0:0:0:
118,67,62047,1,2,3:0:0:0:
118,67,62183,1,2,3:0:0:0:
98,320,62320,6,0,P|137:322|168:311,1,58.4999973220826,2|0,1:2|0:0,0:0:0:0:
281,230,62593,2,0,P|252:223|224:227,1,58.4999973220826
348,307,62865,1,2,1:2:0:0:
348,307,63002,1,0,0:0:0:0:
224,227,63138,6,0,L|231:176,1,29.2499986610413,2|0,0:0|0:0,0:0:0:0:
414,181,63274,2,0,L|407:232,1,29.2499986610413,2|0,0:0|0:0,0:0:0:0:
224,227,63411,6,0,L|241:97,1,116.999994644165,6|0,1:2|0:0,0:0:0:0:
426,94,63956,2,0,L|412:203,1,87.749995983124,2|0,1:2|0:0,0:0:0:0:
411,210,64229,1,0,0:0:0:0:
438,15,64365,1,0,0:0:0:0:
500,305,64502,6,0,L|429:293,1,58.4999973220826,2|0,1:2|0:0,0:0:0:0:
281,238,64774,2,0,L|352:226,1,58.4999973220826
495,150,65047,1,2,1:2:0:0:
495,150,65183,1,0,0:0:0:0:
442,295,65320,2,0,L|439:334,2,29.2499986610413,2|0|2,0:0|0:0|0:0,0:0:0:0:
338,228,65593,6,0,P|335:189|342:150,1,58.4999973220826,2|0,1:2|0:0,0:0:0:0:
495,150,65865,2,0,P|498:189|491:228,1,58.4999973220826
257,200,66138,6,0,P|254:161|261:122,1,58.4999973220826,2|0,1:2|0:0,0:0:0:0:
414,122,66411,2,0,P|417:161|410:200,1,58.4999973220826
245,24,66683,6,0,L|309:14,1,58.4999973220826,2|0,1:2|0:0,0:0:0:0:
111,48,66956,2,0,L|175:38,1,58.4999973220826
31,64,67229,1,2,1:2:0:0:
31,64,67365,1,0,0:0:0:0:
302,14,67502,6,0,L|245:24,1,58.4999973220826
152,154,67774,6,0,P|224:124|244:209,1,175.499991966248,2|0,1:2|0:0,0:0:0:0:
72,171,68320,2,0,P|74:142|84:102,1,58.4999973220826,2|0,1:2|0:0,0:0:0:0:
329,201,68593,2,0,P|328:215|323:235,1,29.2499986610413,2|0,0:0|0:0,0:0:0:0:
250,198,68729,1,2,0:0:0:0:
456,136,68865,6,0,L|330:125,1,116.999994644165,4|0,1:0|0:0,0:0:0:0:
481,207,69274,5,0,0:0:0:0:
407,55,69411,1,0,0:0:0:0:
329,201,69547,1,0,0:0:0:0:
512,86,69683,2,0,L|497:3,1,58.4999973220826
501,28,69888,1,0,0:0:0:0:
501,28,69956,5,4,1:0:0:0:
339,125,70093,1,0,0:0:0:0:
407,55,70229,5,0,0:0:0:0:
481,206,70365,1,0,0:0:0:0:
247,143,70502,5,4,1:0:0:0:
339,125,70638,1,0,0:0:0:0:
512,285,70774,5,4,1:0:0:0:
420,267,70911,1,0,0:0:0:0:
328,249,71047,6,0,L|177:278,1,153.000002918243,6|0,1:2|0:0,0:0:0:0:
177,278,71456,2,0,P|177:239|191:205,1,76.5000014591217,0|8,0:0|1:2,0:0:0:0:
488,153,71865,6,0,L|312:118,1,153.000002918243,2|0,0:2|1:2,0:0:0:0:
338,124,72274,2,0,P|355:197|331:268,1,153.000002918243,2|0,0:0|0:0,0:0:0:0:
153,196,72683,2,0,L|230:192,1,76.5000014591217,8|0,1:2|0:0,0:0:0:0:
190,327,72956,2,0,L|111:331,1,76.5000014591217
18,258,73229,6,0,P|3:192|34:111,1,153.000002918243,2|0,1:2|0:0,0:0:0:0:
98,57,73638,2,0,L|176:52,1,76.5000014591217,2|8,0:2|1:2,0:0:0:0:
414,128,74047,2,0,L|336:123,1,76.5000014591217,0|0,0:2|0:2,0:0:0:0:
211,41,74320,5,0,1:0:0:0:
211,41,74456,1,2,0:0:0:0:
227,204,74593,2,0,L|233:114,1,76.5000014591217
193,10,74865,5,10,1:2:0:0:
173,301,75138,1,2,0:0:0:0:
193,10,75411,6,0,P|274:27|356:9,1,153.000002918243,2|0,1:2|0:0,0:0:0:0:
374,96,75820,2,0,P|409:82|447:79,1,76.5000014591217,2|8,0:0|1:2,0:0:0:0:
229,245,76229,2,0,L|242:92,1,153.000002918243,2|0,0:0|1:2,0:0:0:0:
161,57,76638,2,0,L|152:133,1,76.5000014591217,2|0,0:0|0:0,0:0:0:0:
305,239,77047,6,0,P|267:245|229:245,1,76.5000014591217,10|0,1:2|0:0,0:0:0:0:
76,126,77320,2,0,P|114:126|151:132,1,76.5000014591217,0|0,0:2|0:0,0:0:0:0:
100,366,77593,6,0,P|80:323|108:213,1,153.000002918243,2|0,1:2|0:0,0:0:0:0:
99,222,78002,2,0,L|15:225,1,76.5000014591217,2|8,0:0|1:2,0:0:0:0:
343,304,78411,2,0,L|419:305,1,76.5000014591217,2|0,0:0|0:2,0:0:0:0:
236,227,78683,5,0,1:0:0:0:
236,227,78820,1,2,0:0:0:0:
236,227,78956,2,0,L|229:83,1,114.750002188683
230,112,79229,2,0,P|268:117|306:112,1,76.5000014591217,10|0,1:2|0:0,0:0:0:0:
96,45,79502,2,0,P|58:40|20:45,1,76.5000014591217
78,223,79774,6,0,P|160:232|234:193,1,153.000002918243,2|0,1:2|0:0,0:0:0:0:
222,203,80183,2,0,L|215:293,1,76.5000014591217,0|8,0:0|1:2,0:0:0:0:
505,345,80593,6,0,P|423:336|349:375,1,153.000002918243,0|0,0:0|1:0,0:0:0:0:
360,364,81002,2,0,L|375:199,1,153.000002918243
470,174,81411,2,0,L|463:250,1,76.5000014591217,8|0,1:2|0:0,0:0:0:0:
275,320,81683,2,0,L|281:243,1,76.5000014591217
482,80,81956,6,0,P|400:71|326:110,1,153.000002918243,2|0,1:2|0:0,0:0:0:0:
251,87,82365,2,0,P|218:107|181:115,1,76.5000014591217,0|8,0:0|1:2,0:0:0:0:
288,161,82638,1,0,0:0:0:0:
337,99,82774,2,0,P|384:74|420:70,1,76.5000014591217
482,80,83047,5,2,1:2:0:0:
415,159,83183,1,0,0:0:0:0:
345,22,83320,2,0,L|336:103,1,76.5000014591217
318,250,83593,5,8,1:2:0:0:
452,11,83865,1,0,0:0:0:0:
306,270,84138,6,0,P|250:281|147:220,1,153.000002918243,2|0,1:2|0:0,0:0:0:0:
87,188,84547,2,0,P|71:249|76:295,1,76.5000014591217,0|8,0:0|1:2,0:0:0:0:
70,261,84956,6,0,P|56:172|12:113,1,153.000002918243,0|0,0:0|1:0,0:0:0:0:
130,115,85365,2,0,L|312:93,1,153.000002918243
213,32,85774,6,0,L|139:21,3,38.2500007295609,8|0|0|0,1:2|0:0|0:0|0:0,0:0:0:0:
288,171,86047,2,0,L|362:160,3,38.2500007295609
199,194,86320,6,0,P|270:187|313:258,1,153.000002918243,4|0,0:0|0:0,0:0:0:0:
312,248,86865,1,8,1:2:0:0:
501,102,87138,6,0,L|360:82,1,135,4|0,1:0|0:0,0:0:0:0:
373,161,87411,2,0,L|239:179,1,135,4|0,0:2|0:0,0:0:0:0:
190,245,87683,1,0,0:0:0:0:
188,259,87752,1,0,0:0:0:0:
186,273,87820,1,0,0:0:0:0:
184,287,87888,1,0,0:0:0:0:
182,301,87956,5,0,1:0:0:0:
287,69,88229,1,0,0:0:0:0:
449,291,88502,6,0,L|458:162,1,116.999994644165,6|0,1:2|0:0,0:0:0:0:
471,14,89047,1,8,1:2:0:0:
280,46,89320,2,0,P|321:62|365:59,1,87.749995983124,2|0,0:0|0:0,0:0:0:0:
364,60,89593,6,0,L|359:137,1,58.4999973220826,0|0,1:0|0:0,0:0:0:0:
476,302,89865,2,0,L|483:201,1,87.749995983124,0|0,0:2|0:0,0:0:0:0:
485,185,90138,1,8,1:2:0:0:
350,293,90411,1,0,0:0:0:0:
364,60,90683,6,0,L|350:293,1,233.999989288331,0|8,1:2|1:2,0:0:0:0:
248,177,91502,1,0,0:0:0:0:
195,253,91774,2,0,P|220:265|249:266,1,58.4999973220826,0|0,1:0|0:0,0:0:0:0:
162,117,92047,2,0,P|118:113|77:129,1,87.749995983124
77,129,92320,1,8,1:2:0:0:
105,355,92593,1,0,0:0:0:0:
248,177,92865,6,0,L|446:170,1,175.499991966248,0|0,1:2|0:0,0:0:0:0:
423,170,93411,1,8,1:2:0:0:
179,129,93683,2,0,P|166:155|175:218,1,87.749995983124
191,233,93956,6,0,L|119:238,1,58.4999973220826,0|0,1:0|0:0,0:0:0:0:
49,243,94229,1,0,0:0:0:0:
248,321,94502,1,8,1:2:0:0:
179,129,94774,1,0,0:2:0:0:
126,368,95047,5,6,1:2:0:0:
417,306,96138,6,0,L|337:310,1,58.4999973220826,0|0,0:2|0:2,3:2:0:0:
205,318,96411,1,0,3:2:0:0:
205,318,96547,1,0,3:2:0:0:
205,318,96683,2,0,L|234:319,1,29.2499986610413,2|0,3:2|0:0,0:0:0:0:
205,318,96820,1,0,3:2:0:0:
205,318,96956,1,0,3:2:0:0:
205,318,97093,1,0,3:2:0:0:
291,251,97229,5,6,3:2:0:0:
211,125,105956,6,0,P|204:158|205:182,1,49.5000015106202,2|0,0:0|0:0,0:0:0:0:
271,224,106229,2,0,P|279:182|278:152,1,49.5000015106202
211,125,106502,6,0,P|203:167|204:197,1,58.4999973220826,2|0,0:0|0:0,0:0:0:0:
271,224,106774,2,0,P|279:182|278:152,1,58.4999973220826
135,261,107047,6,0,L|220:264,1,49.5000015106202,2|0,0:0|0:0,0:0:0:0:
238,331,107320,2,0,L|323:334,1,49.5000015106202
135,261,107593,6,0,L|220:264,1,58.4999973220826,2|0,0:0|0:0,0:0:0:0:
238,331,107865,2,0,L|323:334,1,58.4999973220826
392,286,108138,5,2,0:0:0:0:
431,221,108274,1,0,0:0:0:0:
376,167,108411,1,0,0:0:0:0:
415,102,108547,1,0,0:0:0:0:
359,49,108683,5,2,0:0:0:0:
343,31,108820,1,0,0:0:0:0:
325,46,108956,1,0,0:0:0:0:
341,64,109093,1,0,0:0:0:0:
431,221,109229,5,2,0:0:0:0:
447,239,109365,1,0,0:0:0:0:
465,224,109502,1,0,0:0:0:0:
449,206,109638,1,0,0:0:0:0:
330,175,109774,5,2,0:0:0:0:
254,165,109911,1,0,0:0:0:0:
178,155,110047,1,0,0:0:0:0:
102,146,110183,1,0,0:0:0:0:
62,243,110320,6,0,P|110:236|142:245,1,49.5000015106202,2|0,0:0|0:0,0:0:0:0:
193,288,110593,2,0,P|222:289|250:282,1,49.5000015106202
62,243,110865,6,0,P|110:236|142:245,1,58.4999973220826,2|0,0:0|0:0,0:0:0:0:
193,288,111138,2,0,P|222:289|250:282,1,58.4999973220826
337,243,111411,6,0,L|329:327,1,49.5000015106202,2|0,0:0|0:0,0:0:0:0:
414,175,111683,2,0,L|422:259,1,49.5000015106202
337,243,111956,6,0,L|329:327,1,58.4999973220826,2|0,0:0|0:0,0:0:0:0:
414,175,112229,2,0,L|422:259,1,58.4999973220826
336,108,112502,6,0,L|345:56,3,29.2499986610413,2|0|0|0,0:0|0:0|0:0|0:0,0:0:0:0:
270,64,112774,6,0,L|274:35,1,29.2499986610413
232,87,112911,2,0,L|227:115,1,29.2499986610413
174,30,113047,6,0,P|104:26|40:147,1,204.749990627289,2|0,0:0|0:0,0:0:0:0:
36,128,113593,6,0,L|29:34,1,67.5000025749208,2|0,0:0|0:0,0:0:0:0:
226,115,113865,2,0,L|233:209,1,67.5000025749208
6,275,114138,6,0,L|-1:181,1,67.5000025749208,2|0,0:0|0:0,0:0:0:0:
196,262,114411,2,0,L|203:356,1,67.5000025749208
145,110,114684,6,0,B|178:89|218:89|218:89|244:43|320:33|370:59|370:59|457:40|504:65|522:115|513:184|499:227|460:262|380:269|320:224|315:176,1,697.5,2|0,0:0|0:0,0:0:0:0:
512,316,119305,6,0,B|462:348|382:360|311:336|271:311|249:270|249:270|195:356|103:375|1:315|-14:275|-40:115|30:35|128:4|267:13|309:82|315:180,1,1080,2|2,0:0|0:0,0:0:0:0:
256,192,125829,12,0,132218,0:0:0:0:
