osu file format v14

[General]
AudioFilename: audio.mp3
AudioLeadIn: 0
PreviewTime: 61161
Countdown: 0
SampleSet: Soft
StackLeniency: 0.7
Mode: 0
LetterboxInBreaks: 0
WidescreenStoryboard: 1

[Editor]
Bookmarks: 1229,9956,18683,27410,36138,44865,53592,62319,71047,79774,88501,97229,105956,114683,119266,125788
DistanceSpacing: 1
BeatDivisor: 16
GridSize: 16
TimelineZoom: 2.7

[Metadata]
Title:Your Love (Manila Killa Remix)
TitleUnicode:Your Love (Manila Killa Remix)
Artist:Alizzz (Feat. Max Marshall)
ArtistUnicode:Alizzz (Feat. Max Marshall)
Creator:VINXIS
Version:Normal
Source:
Tags:Kaifin Moving Castle
BeatmapID:1257559
BeatmapSetID:532334

[Difficulty]
HPDrainRate:4
CircleSize:3
OverallDifficulty:4
ApproachRate:5
SliderMultiplier:1.2
SliderTickRate:1

[Events]
//Background and Video events
0,0,"MANILA KILL a.png",0,0
//Break Periods
2,97429,104756
//Storyboard Layer 0 (Background)
//Storyboard Layer 1 (Fail)
//Storyboard Layer 2 (Pass)
//Storyboard Layer 3 (Foreground)
//Storyboard Sound Samples

[TimingPoints]
1255,545.454545454546,4,2,1,40,1,0
17618,-100,4,2,1,50,0,0
18709,-100,4,2,1,60,0,0
36164,-100,4,2,1,55,0,0
53593,545.454545454546,4,2,1,70,1,0
53593,-100,4,2,1,70,0,0
62320,-100,4,2,1,80,0,0
88502,-100,4,2,1,60,0,0
114684,577.645133339752,4,2,2,50,1,0
119305,538.068334678504,4,2,2,50,1,0

[Colours]
Combo1 : 255,243,206
Combo2 : 185,255,185
Combo3 : 159,203,255
Combo4 : 253,213,219

[HitObjects]
355,56,1255,6,0,P|403:45|477:47,2,120,2|0|2,0:0|0:0|0:0,0:0:0:0:
267,138,2891,1,0,0:0:0:0:
187,227,3436,2,0,P|128:239|68:236,2,120,2|0|2,0:0|0:0|0:0,0:0:0:0:
267,138,5073,1,0,0:0:0:0:
321,244,5618,6,0,L|338:369,2,120,2|0|2,0:0|0:0|0:0,0:0:0:0:
267,138,7255,1,0,0:0:0:0:
150,166,7800,2,0,L|133:41,2,120,2|0|2,0:0|0:0|0:0,0:0:0:0:
193,278,9436,1,0,0:0:0:0:
309,246,9982,5,2,0:0:0:0:
256,192,10118,12,2,14345,0:0:0:0:
256,192,14482,12,6,18709,0:0:0:0:
99,78,20891,5,2,0:0:0:0:
211,289,21982,1,2,0:0:0:0:
299,207,22527,2,0,L|363:212,2,60,2|0|2,0:0|0:0|0:0,0:0:0:0:
49,30,24709,6,0,L|43:90,2,60,2|0|2,0:0|0:0|0:0,0:0:0:0:
125,257,26345,2,0,L|131:197,1,60,2|0,0:0|0:0,0:0:0:0:
166,148,26891,2,0,L|172:88,2,60,2|0|2,0:0|0:0|0:0,0:0:0:0:
488,307,29073,6,0,L|482:367,2,60,2|0|2,0:0|0:0|0:0,0:0:0:0:
392,86,30709,2,0,L|386:146,1,60,2|0,0:0|0:0,0:0:0:0:
328,162,31255,2,0,L|322:222,2,60,2|0|0,0:0|0:0|0:0,0:0:0:0:
256,192,31936,12,2,33982,0:0:0:0:
50,95,36164,6,0,P|104:88|170:89,1,120,2|0,0:0|0:0,0:0:0:0:
211,201,37255,2,0,P|265:208|331:207,1,120,2|0,0:0|0:0,0:0:0:0:
435,148,38345,6,0,L|431:268,2,120,2|0|2,0:0|0:0|0:0,0:0:0:0:
394,34,39982,1,0,0:0:0:0:
274,43,40527,6,0,L|210:42,2,60,2|0|0,0:0|0:0|0:0,0:0:0:0:
394,34,41618,1,2,0:0:0:0:
434,147,42164,1,0,0:0:0:0:
314,147,42709,6,0,L|250:146,2,60,2|0|2,0:0|0:0|0:0,0:0:0:0:
342,263,43800,1,2,0:0:0:0:
225,236,44345,1,2,0:0:0:0:
107,208,44891,6,0,P|85:245|71:323,2,120,2|0|2,0:0|0:0|0:0,0:0:0:0:
188,150,46527,1,0,0:0:0:0:
138,63,47073,6,0,L|17:47,2,120,2|0|2,0:0|0:0|0:0,0:0:0:0:
188,150,48709,2,0,L|249:158,2,60,2|8|2,0:0|0:0|0:0,0:0:0:0:
256,192,49391,12,2,51436,0:0:0:0:
371,251,53593,6,0,L|365:314,2,60,6|0|0,1:2|0:0|1:0,0:0:0:0:
409,204,54411,2,0,L|414:144,1,60,2|0,0:0|1:0,0:0:0:0:
317,73,55229,1,2,1:2:0:0:
257,65,55502,1,2,0:0:0:0:
197,58,55774,6,0,L|132:49,2,60,2|0|0,1:2|0:0|1:0,0:0:0:0:
190,117,56593,2,0,L|176:177,1,60,2|0,0:0|1:0,0:0:0:0:
258,263,57411,1,2,1:2:0:0:
146,307,57956,6,0,L|140:366,2,60,2|0|0,1:2|0:0|1:0,0:0:0:0:
113,256,58774,2,0,L|120:196,1,60,2|0,0:0|1:0,0:0:0:0:
142,78,59593,1,2,1:2:0:0:
197,55,59865,1,0,0:0:0:0:
252,32,60138,6,0,P|276:25|313:17,2,60,2|0|0,1:2|0:0|1:0,0:0:0:0:
267,90,60956,1,2,0:0:0:0:
293,144,61229,2,0,L|280:263,1,120,0|0,1:0|1:0,0:0:0:0:
162,238,62320,6,0,L|153:301,1,60,2|0,1:2|0:0,0:0:0:0:
183,349,62865,1,2,1:2:0:0:
301,365,63411,2,0,P|372:347|422:350,1,120,6|2,1:2|1:2,0:0:0:0:
476,363,64229,1,0,0:0:0:0:
506,311,64502,6,0,L|512:245,2,60,2|0|2,1:2|0:0|1:2,0:0:0:0:
402,254,65593,2,0,L|396:188,1,60,2|0,1:2|0:0,0:0:0:0:
389,134,66138,2,0,L|383:68,1,60,2|0,1:2|0:0,0:0:0:0:
376,14,66683,6,0,L|317:13,2,60,2|0|2,1:2|0:0|1:2,0:0:0:0:
455,104,67774,2,0,L|477:228,1,120,2|2,1:2|1:2,0:0:0:0:
483,281,68593,1,2,0:0:0:0:
423,289,68865,6,0,P|373:289|206:377,1,240,4|4,1:0|1:0,0:0:0:0:
210,254,70502,1,4,1:0:0:0:
118,331,71047,6,0,P|66:336|-5:325,1,120,6|8,1:2|1:2,0:0:0:0:
7,206,72138,2,0,P|66:196|125:201,1,120,0|8,1:2|1:2,0:0:0:0:
226,266,73229,5,2,1:2:0:0:
338,223,73774,1,8,1:2:0:0:
251,139,74320,2,0,L|262:17,1,120,0|10,1:0|1:2,0:0:0:0:
375,56,75411,6,0,P|423:67|498:67,1,120,2|8,1:2|1:2,0:0:0:0:
421,163,76502,2,0,P|361:162|302:174,1,120,0|10,1:2|1:2,0:0:0:0:
197,232,77593,5,2,1:2:0:0:
185,351,78138,1,8,1:2:0:0:
81,290,78683,2,0,L|77:227,1,60,0|0,1:0|0:0,0:0:0:0:
72,169,79229,2,0,L|68:106,1,60,10|0,1:2|0:0,0:0:0:0:
102,59,79774,6,0,L|222:52,1,120,2|8,1:2|1:2,0:0:0:0:
229,171,80865,2,0,L|349:178,1,120,0|8,1:0|1:2,0:0:0:0:
468,191,81956,5,2,1:2:0:0:
470,310,82502,1,8,1:2:0:0:
352,331,83047,2,0,P|286:329|231:347,1,120,2|8,1:2|1:2,0:0:0:0:
116,366,84138,6,0,B|101:308|101:308|113:244,1,120,2|8,1:2|1:2,0:0:0:0:
222,201,85229,2,0,B|237:143|237:143|225:79,1,120,0|8,1:0|1:2,0:0:0:0:
116,34,86320,5,4,0:0:0:0:
225,83,86865,2,0,L|285:87,1,60,8|0,1:2|0:0,0:0:0:0:
397,44,87683,2,0,L|458:48,2,60,0|0|0,0:0|1:0|0:0,0:0:0:0:
384,102,88502,6,0,L|366:223,2,120,6|8|0,1:2|1:2|1:0,0:0:0:0:
300,14,90138,1,8,1:2:0:0:
212,94,90683,6,0,P|154:123|10:47,1,240,0|0,1:2|1:0,0:0:0:0:
3,168,92320,1,8,1:2:0:0:
100,237,92865,6,0,L|218:214,2,120,0|8|0,1:2|1:2|1:0,0:0:0:0:
59,350,94502,1,8,1:2:0:0:
179,355,95047,5,6,1:2:0:0:
256,192,95183,12,6,97229,3:2:0:0:
143,99,105956,6,0,L|133:159,2,60,2|0|2,0:0|0:0|0:0,0:0:0:0:
250,152,107047,2,0,L|260:213,2,60,2|0|2,0:0|0:0|0:0,0:0:0:0:
362,109,108138,2,0,L|352:169,2,60,2|0|2,0:0|0:0|0:0,0:0:0:0:
469,162,109229,2,0,L|479:223,2,60,2|0|2,0:0|0:0|0:0,0:0:0:0:
451,43,110320,5,2,0:0:0:0:
330,47,110865,1,2,0:0:0:0:
210,52,111411,1,2,0:0:0:0:
90,61,111956,1,2,0:0:0:0:
18,157,112502,5,2,0:0:0:0:
136,176,113047,1,2,0:0:0:0:
253,200,113593,2,0,L|245:263,1,60,2|0,0:0|0:0,0:0:0:0:
241,319,114138,1,2,0:0:0:0:
188,348,114411,1,0,0:0:0:0:
128,345,114683,5,6,0:0:0:0:
