osu file format v14

[General]
AudioFilename: audio.mp3
AudioLeadIn: 0
PreviewTime: 61161
Countdown: 0
SampleSet: Soft
StackLeniency: 0.3
Mode: 0
LetterboxInBreaks: 0
WidescreenStoryboard: 1

[Editor]
Bookmarks: 1229,9956,18683,27410,36138,44865,53592,62319,71047,79774,88501,97229,105956,114683,119266,125788
DistanceSpacing: 1.4
BeatDivisor: 8
GridSize: 16
TimelineZoom: 2.7

[Metadata]
Title:Your Love (Manila Killa Remix)
TitleUnicode:Your Love (Manila Killa Remix)
Artist:Alizzz (Feat. Max Marshall)
ArtistUnicode:Alizzz (Feat. Max Marshall)
Creator:VINXIS
Version:Kaifin's Hard
Source:
Tags:Kaifin Moving Castle
BeatmapID:1257558
BeatmapSetID:532334

[Difficulty]
HPDrainRate:5
CircleSize:3.5
OverallDifficulty:6.5
ApproachRate:7.8
SliderMultiplier:1.6
SliderTickRate:1

[Events]
//Background and Video events
0,0,"MANILA KILL a.png",0,0
//Break Periods
2,97429,105177
//Storyboard Layer 0 (Background)
//Storyboard Layer 1 (Fail)
//Storyboard Layer 2 (Pass)
//Storyboard Layer 3 (Foreground)
//Storyboard Sound Samples

[TimingPoints]
1255,545.454545454546,4,2,1,30,1,0
1255,-200,4,2,1,30,0,0
9982,-133.333333333333,4,2,1,30,0,0
14209,-133.333333333333,4,2,1,5,0,0
14345,-133.333333333333,4,2,1,30,0,0
15300,-133.333333333333,4,2,1,5,0,0
15436,-133.333333333333,4,2,1,30,0,0
16391,-133.333333333333,4,2,1,5,0,0
16527,-133.333333333333,4,2,1,30,0,0
32618,-200,4,2,1,30,0,0
34800,-133.333333333333,4,2,1,30,0,0
35073,-100,4,2,1,30,0,0
35618,-80,4,2,1,30,0,0
45982,-100,4,2,1,30,0,0
48164,-66.6666666666667,4,2,1,30,0,0
49255,-80,4,2,1,30,0,0
51436,-133.333333333333,4,2,1,30,0,0
52527,-200,4,2,1,30,0,0
53593,545.454545454546,4,2,1,70,1,0
53593,-80,4,2,1,70,0,0
62320,-66.6666666666667,4,2,1,30,0,0
71047,-80,4,2,1,30,0,0
79774,-66.6666666666667,4,2,1,30,0,0
86320,-100,4,2,1,30,0,0
96683,-66.6666666666667,4,2,1,30,0,0
105956,-133.333333333333,4,2,1,30,0,0
114684,577.645133339752,4,2,2,40,1,0
118929,-100,4,2,2,5,0,0
119305,538.068334678504,4,2,2,40,1,0
121933,-100,4,2,2,5,0,0

[Colours]
Combo1 : 255,243,206
Combo2 : 185,255,185
Combo3 : 159,203,255
Combo4 : 253,213,219

[HitObjects]
369,337,1255,6,0,L|451:328,1,80,2|0,0:0|0:0,0:0:0:0:
326,256,2345,2,0,L|408:247,1,80,2|0,0:0|0:0,0:0:0:0:
283,175,3436,2,0,L|365:166,1,80,2|0,0:0|0:0,0:0:0:0:
240,94,4527,2,0,L|322:85,1,80,2|0,0:0|0:0,0:0:0:0:
201,251,5618,6,0,L|192:169,1,80,2|0,0:0|0:0,0:0:0:0:
240,94,6709,2,0,L|322:85,1,80,2|0,0:0|0:0,0:0:0:0:
397,133,7800,2,0,L|406:215,1,80,2|0,0:0|0:0,0:0:0:0:
358,290,8891,1,2,0:0:0:0:
279,245,9436,1,0,0:0:0:0:
171,321,9982,6,0,P|278:344|268:236,1,240.000009155274,2|2,0:0|0:0,0:0:0:0:
171,321,11618,1,0,0:0:0:0:
68,239,12164,2,0,L|191:225,1,120.000004577637,2|0,0:0|0:0,0:0:0:0:
278,244,13255,1,2,0:0:0:0:
385,167,13527,1,0,0:0:0:0:
385,167,13664,1,0,0:0:0:0:
385,167,13800,6,0,L|286:155,1,90.0000034332277,0|0,0:0|0:0,0:0:0:0:
295,156,14345,2,0,P|300:61|391:86,1,210.000008010865,2|0,0:0|0:0,0:0:0:0:
389,81,15436,2,0,L|164:55,1,210.000008010865,2|0,0:0|0:0,0:0:0:0:
180,57,16527,6,0,L|173:113,1,30.0000011444092,2|0,0:0|0:0,0:0:0:0:
102,109,16800,2,0,L|95:165,1,30.0000011444092,0|0,0:0|0:0,0:0:0:0:
24,161,17073,2,0,L|11:273,1,90.0000034332277,0|0,0:0|0:0,0:0:0:0:
13,250,17618,5,2,0:0:0:0:
98,138,17891,1,2,0:0:0:0:
210,223,18164,1,8,0:0:0:0:
125,335,18436,1,8,0:0:0:0:
17,254,18709,5,6,0:0:0:0:
17,254,20345,5,2,0:0:0:0:
113,238,20618,1,0,0:0:0:0:
210,223,20891,1,2,0:0:0:0:
210,223,21982,5,2,0:0:0:0:
88,97,22255,1,0,0:0:0:0:
113,271,22527,1,2,0:0:0:0:
195,116,22800,1,0,0:0:0:0:
37,193,23073,5,2,0:0:0:0:
37,193,24709,5,2,0:0:0:0:
210,223,24982,1,0,0:0:0:0:
113,271,25255,1,2,0:0:0:0:
113,271,26345,5,2,0:0:0:0:
211,223,26618,1,0,0:0:0:0:
309,271,26891,1,2,0:0:0:0:
407,223,27164,1,0,0:0:0:0:
505,271,27436,5,2,0:0:0:0:
505,271,29073,5,2,0:0:0:0:
407,319,29345,1,0,0:0:0:0:
309,271,29618,1,2,0:0:0:0:
309,271,30709,5,2,0:0:0:0:
309,124,30982,1,0,0:0:0:0:
505,124,31255,1,2,0:0:0:0:
505,271,31527,1,0,0:0:0:0:
219,271,31800,6,0,L|309:271,1,90.0000034332277,2|0,0:0|0:0,0:0:0:0:
505,124,32618,6,0,L|415:124,1,90,0|0,0:0|0:0,0:0:0:0:
309,124,33436,5,2,0:0:0:0:
309,271,33709,1,0,0:0:0:0:
505,271,33982,1,2,0:0:0:0:
505,124,34800,6,0,L|450:124,1,30.0000011444092,0|0,0:0|0:0,0:0:0:0:
382,152,35073,6,0,P|434:147|460:205,1,120,0|0,0:0|0:0,0:0:0:0:
407,271,35618,6,0,L|253:271,1,150,2|0,0:0|0:0,0:0:0:0:
257,271,36164,5,2,0:0:0:0:
257,371,36436,1,0,0:0:0:0:
157,371,36709,1,0,0:0:0:0:
157,271,36982,1,0,0:0:0:0:
257,371,37255,6,0,L|372:371,1,100,2|0,0:0|0:0,0:0:0:0:
507,271,37800,2,0,L|391:271,1,100,0|0,0:0|0:0,0:0:0:0:
306,171,38345,5,2,0:0:0:0:
405,71,38618,1,0,0:0:0:0:
306,71,38891,1,0,0:0:0:0:
406,171,39164,1,0,0:0:0:0:
306,221,39436,6,0,L|306:163,1,50,2|0,0:0|0:0,0:0:0:0:
223,115,39709,2,0,L|223:172,1,50,0|0,0:0|0:0,0:0:0:0:
145,204,39982,1,0,0:0:0:0:
145,204,40255,1,0,0:0:0:0:
45,204,40527,5,2,0:0:0:0:
45,304,40800,1,0,0:0:0:0:
145,304,41073,1,0,0:0:0:0:
145,204,41345,1,0,0:0:0:0:
45,204,41618,5,2,0:0:0:0:
45,304,41891,1,0,0:0:0:0:
145,204,42164,5,0,0:0:0:0:
145,104,42436,1,0,0:0:0:0:
45,304,42709,6,0,L|144:304,1,100,2|0,0:0|0:0,0:0:0:0:
145,204,43255,1,2,0:0:0:0:
45,204,43800,1,2,0:0:0:0:
45,304,44345,2,0,L|144:304,1,100,2|0,0:0|0:0,0:0:0:0:
245,204,44891,5,2,0:0:0:0:
331,180,45164,1,0,0:0:0:0:
417,202,45436,1,0,0:0:0:0:
480,264,45709,1,0,0:0:0:0:
324,259,45982,6,0,L|332:160,1,80,2|0,0:0|0:0,0:0:0:0:
423,122,46527,2,0,L|414:220,1,80,0|0,0:0|0:0,0:0:0:0:
245,204,47073,5,2,0:0:0:0:
212,98,47345,1,0,0:0:0:0:
106,130,47618,1,0,0:0:0:0:
138,236,47891,1,0,0:0:0:0:
212,98,48164,6,0,P|239:86|269:84,1,60.0000022888184,2|0,0:0|0:0,0:0:0:0:
333,134,48436,2,0,P|362:132|390:120,1,60.0000022888184,0|0,0:0|0:0,0:0:0:0:
447,58,48709,1,2,0:0:0:0:
447,58,48982,5,8,0:0:0:0:
473,139,49118,1,8,0:0:0:0:
447,220,49255,6,0,L|318:231,1,100,2|0,0:0|0:0,0:0:0:0:
212,98,49800,2,0,L|223:226,1,100,0|0,0:0|0:0,0:0:0:0:
90,333,50345,5,2,0:0:0:0:
217,302,50618,1,0,0:0:0:0:
347,228,50891,5,0,0:0:0:0:
220,197,51164,1,0,0:0:0:0:
90,123,51436,6,0,P|131:61|214:103,1,180.000006866455,2|0,0:0|0:0,0:0:0:0:
118,206,52527,2,0,L|32:200,1,80,2|0,0:0|0:0,0:0:0:0:
150,284,53345,5,0,0:0:0:0:
189,281,53482,1,0,0:0:0:0:
229,278,53593,6,0,L|315:272,1,50,6|0,1:2|0:0,0:0:0:0:
357,246,53865,2,0,L|363:332,1,50,0|2,0:0|0:0,0:0:0:0:
284,352,54138,1,0,1:0:0:0:
281,313,54274,1,0,0:0:0:0:
278,274,54411,2,0,L|272:188,1,50,2|0,0:0|0:0,0:0:0:0:
357,246,54683,6,0,L|443:240,1,50,0|2,1:0|0:0,0:0:0:0:
456,157,54956,2,0,L|370:163,1,50
367,58,55229,2,0,L|281:64,1,50,2|0,1:2|0:0,0:0:0:0:
268,146,55502,2,0,L|182:152,1,50,2|0,0:0|0:0,0:0:0:0:
140,178,55774,6,0,L|134:92,1,50,2|0,1:2|0:0,0:0:0:0:
108,50,56047,2,0,L|194:44,1,50,0|2,0:0|0:0,0:0:0:0:
236,18,56320,1,0,1:0:0:0:
239,67,56456,1,0,0:0:0:0:
242,116,56593,2,0,L|248:202,1,50,2|0,0:0|0:0,0:0:0:0:
140,178,56865,6,0,L|134:92,1,50,0|2,1:0|0:0,0:0:0:0:
344,54,57274,1,0,0:0:0:0:
347,103,57411,1,2,1:2:0:0:
350,152,57547,1,0,0:0:0:0:
353,201,57683,2,0,L|359:287,1,50,0|0,0:0|0:0,0:0:0:0:
286,376,57956,6,0,L|200:382,1,50,2|0,1:2|0:0,0:0:0:0:
165,320,58229,2,0,L|79:326,1,50,0|2,0:0|0:0,0:0:0:0:
239,244,58502,1,0,1:0:0:0:
239,244,58638,1,0,0:0:0:0:
282,326,58774,2,0,L|288:412,1,50,2|0,0:0|0:0,0:0:0:0:
165,320,59047,6,0,L|159:234,1,50,0|2,1:0|0:0,0:0:0:0:
239,244,59320,2,0,L|233:158,1,50,0|0,0:0|0:0,0:0:0:0:
114,167,59593,2,0,L|108:81,1,50,2|0,1:2|0:0,0:0:0:0:
184,41,59865,2,0,L|188:91,1,50,0|0,0:0|0:0,0:0:0:0:
235,194,60138,6,0,L|321:188,1,50,2|0,1:2|0:0,0:0:0:0:
356,250,60411,2,0,L|442:244,1,50,0|2,0:0|0:0,0:0:0:0:
282,326,60683,1,0,1:0:0:0:
282,326,60820,1,0,0:0:0:0:
239,244,60956,2,0,L|233:158,1,50,2|0,0:0|0:0,0:0:0:0:
161,270,61229,6,0,L|166:356,1,50,0|0,1:0|0:0,0:0:0:0:
83,296,61502,2,0,L|-3:301,1,50,0|0,0:0|0:0,0:0:0:0:
57,218,61774,2,0,L|51:132,1,50,0|0,1:0|0:0,0:0:0:0:
135,192,62047,2,0,L|221:186,1,50,2|2,3:0|3:0,0:0:0:0:
322,69,62320,6,0,L|236:74,1,60.0000022888184,2|0,1:2|0:0,0:0:0:0:
184,80,62593,2,0,L|98:86,1,60.0000022888184,0|0,0:0|0:0,0:0:0:0:
46,91,62865,1,2,1:2:0:0:
46,91,63002,1,0,0:0:0:0:
53,168,63138,2,0,L|59:254,1,60.0000022888184,2|2,0:0|0:0,0:0:0:0:
143,311,63411,6,0,L|131:148,1,120.000004577637,6|0,1:2|0:0,0:0:0:0:
322,69,63956,2,0,L|333:231,1,120.000004577637,2|0,1:2|0:0,0:0:0:0:
143,311,64502,6,0,L|229:306,1,60.0000022888184,2|0,1:2|0:0,0:0:0:0:
281,300,64774,2,0,L|367:294,1,60.0000022888184,0|0,0:0|0:0,0:0:0:0:
423,293,65047,1,2,1:2:0:0:
423,293,65183,1,0,0:0:0:0:
412,212,65320,2,0,L|406:126,1,60.0000022888184,2|2,0:0|0:0,0:0:0:0:
340,295,65593,6,0,L|346:381,1,60.0000022888184,2|0,1:2|0:0,0:0:0:0:
419,289,65865,2,0,L|505:283,1,60.0000022888184,0|0,0:0|0:0,0:0:0:0:
412,212,66138,2,0,L|406:126,1,60.0000022888184,2|0,1:2|0:0,0:0:0:0:
335,219,66411,2,0,L|249:225,1,60.0000022888184,0|0,0:0|0:0,0:0:0:0:
206,367,66683,6,0,L|201:281,1,60.0000022888184,2|0,1:2|0:0,0:0:0:0:
195,229,66956,2,0,L|189:143,1,60.0000022888184,0|0,0:0|0:0,0:0:0:0:
188,95,67229,1,2,1:2:0:0:
188,95,67365,1,0,0:0:0:0:
107,98,67502,2,0,L|21:104,1,60.0000022888184,0|0,0:0|0:0,0:0:0:0:
0,245,67774,6,0,L|163:233,1,120.000004577637,2|0,1:2|0:0,0:0:0:0:
325,358,68320,2,0,L|162:370,1,120.000004577637,2|2,1:2|0:0,0:0:0:0:
162,301,68729,1,2,0:0:0:0:
119,236,68865,5,4,1:0:0:0:
8,379,69138,6,0,L|89:373,1,60.0000022888184,0|0,0:0|0:0,0:0:0:0:
145,371,69411,2,0,L|226:365,1,60.0000022888184,0|0,0:0|0:0,0:0:0:0:
325,358,69683,1,0,0:0:0:0:
255,282,69820,1,0,0:0:0:0:
255,282,69888,1,0,0:0:0:0:
255,282,69956,6,0,L|336:276,1,60.0000022888184,4|0,1:0|0:0,0:0:0:0:
392,274,70229,2,0,L|473:268,1,60.0000022888184,0|0,0:0|0:0,0:0:0:0:
452,190,70502,5,4,1:0:0:0:
392,193,70638,1,0,0:0:0:0:
332,197,70775,1,4,1:0:0:0:
272,200,70911,1,0,0:0:0:0:
213,204,71047,6,0,P|151:223|95:155,1,150,6|0,1:2|0:0,0:0:0:0:
96,167,71593,1,8,1:2:0:0:
24,324,71865,2,0,L|145:315,1,100,2|0,0:2|1:2,0:0:0:0:
167,340,72274,2,0,L|288:331,1,100,2|0,0:0|0:0,0:0:0:0:
310,356,72683,1,8,1:2:0:0:
213,204,72956,5,0,0:0:0:0:
213,204,73093,1,0,0:0:0:0:
213,204,73229,2,0,P|275:185|331:253,1,150,2|2,1:2|0:2,0:0:0:0:
329,240,73774,2,0,L|324:179,1,50,8|0,1:2|0:0,0:0:0:0:
393,148,74047,2,0,L|388:87,1,50,0|0,0:2|0:2,0:0:0:0:
453,6,74320,6,0,L|457:56,1,50,0|2,1:0|0:0,0:0:0:0:
389,98,74593,2,0,L|339:101,1,50,0|0,0:0|0:0,0:0:0:0:
211,95,74865,6,0,L|207:144,1,50,10|0,1:2|0:0,0:0:0:0:
275,186,75138,2,0,L|324:189,1,50,2|0,0:0|0:0,0:0:0:0:
389,274,75411,6,0,L|239:285,1,150,2|2,1:2|0:0,0:0:0:0:
239,285,75956,1,8,1:2:0:0:
80,338,76229,2,0,P|122:314|170:323,1,100,2|0,0:0|1:2,0:0:0:0:
208,357,76638,2,0,P|256:366|298:342,1,100,2|0,0:0|0:0,0:0:0:0:
329,302,77047,1,10,1:2:0:0:
181,173,77320,5,0,0:2:0:0:
181,173,77456,1,0,0:0:0:0:
181,173,77593,2,0,L|170:323,1,150,2|2,1:2|0:0,0:0:0:0:
170,322,78138,2,0,L|109:327,1,50,8|0,1:2|0:0,0:0:0:0:
28,262,78411,2,0,L|78:258,1,50,2|0,0:0|0:2,0:0:0:0:
181,173,78683,6,0,L|131:168,1,50,0|2,1:0|0:0,0:0:0:0:
56,158,78956,2,0,L|60:108,1,50,0|0,0:0|0:0,0:0:0:0:
71,33,79229,2,0,L|120:37,1,50,10|0,1:2|0:0,0:0:0:0:
196,48,79502,2,0,L|191:97,1,50,0|0,0:0|0:0,0:0:0:0:
174,246,79774,6,0,P|261:250|310:179,1,180.000006866455,2|0,1:2|0:0,0:0:0:0:
310,179,80320,1,8,1:2:0:0:
60,108,80593,2,0,L|49:240,1,120.000004577637,0|0,0:0|1:0,0:0:0:0:
19,257,81002,2,0,L|151:267,1,120.000004577637,0|0,0:0|0:0,0:0:0:0:
174,246,81411,1,8,1:2:0:0:
401,347,81683,1,0,0:0:0:0:
401,347,81820,1,0,0:0:0:0:
401,347,81956,6,0,P|314:350|265:279,1,180.000006866455,2|0,1:2|0:0,0:0:0:0:
265,279,82502,2,0,L|331:273,1,60.0000022888184,8|0,1:2|0:0,0:0:0:0:
354,201,82774,2,0,L|420:195,1,60.0000022888184,0|0,0:0|0:0,0:0:0:0:
443,123,83047,6,0,L|502:118,1,60.0000022888184,2|0,1:2|0:0,0:0:0:0:
364,33,83320,2,0,L|369:93,1,60.0000022888184,0|0,0:0|0:0,0:0:0:0:
358,260,83593,6,0,L|353:200,1,60.0000022888184,8|0,1:2|0:0,0:0:0:0:
280,171,83865,2,0,L|220:175,1,60.0000022888184,0|0,0:0|0:0,0:0:0:0:
85,291,84138,6,0,L|320:275,1,180.000006866455,2|0,1:2|0:0,0:0:0:0:
264,279,84683,1,8,1:2:0:0:
489,200,84956,6,0,P|442:169|374:183,1,120.000004577637,0|0,0:0|1:0,0:0:0:0:
353,200,85365,2,0,P|295:209|245:177,1,120.000004577637,0|0,0:0|0:0,0:0:0:0:
225,147,85774,2,0,L|220:207,1,60.0000022888184,8|0,1:2|0:0,0:0:0:0:
312,121,86047,2,0,L|317:61,1,60.0000022888184,0|0,0:0|0:0,0:0:0:0:
424,244,86320,6,0,L|416:334,1,80,4|0,0:0|0:0,0:0:0:0:
312,121,86865,1,8,1:2:0:0:
312,121,87138,6,0,L|317:61,1,40,4|0,1:0|0:0,0:0:0:0:
225,147,87411,2,0,L|220:207,1,40,4|0,0:2|0:0,0:0:0:0:
290,237,87683,2,0,L|320:239,4,20,0|0|0|0|0,0:0|0:0|0:0|0:0|1:0,0:0:0:0:
211,272,88229,1,0,0:0:0:0:
132,237,88502,5,6,1:2:0:0:
132,237,89047,1,8,1:2:0:0:
132,237,89593,5,0,1:0:0:0:
211,272,89865,1,0,0:2:0:0:
290,237,90138,1,8,1:2:0:0:
369,272,90411,1,0,0:0:0:0:
448,237,90683,5,0,1:2:0:0:
448,237,91229,1,8,1:2:0:0:
448,237,91774,5,0,1:0:0:0:
448,79,92047,1,0,0:0:0:0:
290,79,92320,1,8,1:2:0:0:
290,237,92593,1,0,0:0:0:0:
369,158,92865,5,0,1:2:0:0:
369,158,93411,1,8,1:2:0:0:
369,158,93956,5,0,1:0:0:0:
290,79,94229,1,0,0:0:0:0:
211,158,94502,1,8,1:2:0:0:
132,79,94774,1,0,0:2:0:0:
53,158,95047,6,0,L|41:293,1,120,6|0,1:2|0:0,0:0:0:0:
67,355,95593,2,0,L|76:235,1,120,0|0,0:0|0:0,0:0:0:0:
43,277,96138,5,0,0:2:0:0:
76,235,96274,1,0,0:2:0:0:
109,193,96411,1,0,3:2:0:0:
142,151,96547,1,0,3:2:0:0:
175,109,96683,6,0,L|179:168,1,60.0000022888184,0|0,3:2|3:2,0:0:0:0:
254,194,96956,2,0,L|258:253,1,60.0000022888184,0|0,3:2|3:2,0:0:0:0:
333,279,97229,1,6,3:2:0:0:
74,173,105956,6,0,L|79:216,3,30.0000011444092,2|0|0|0,0:0|0:0|0:0|0:0,0:0:0:0:
151,146,106502,2,0,L|156:189,3,30.0000011444092,2|0|0|0,0:0|0:0|0:0|0:0,0:0:0:0:
228,119,107047,2,0,L|233:162,3,30.0000011444092,2|0|0|0,0:0|0:0|0:0|0:0,0:0:0:0:
305,92,107593,2,0,L|310:135,3,30.0000011444092,2|0|0|0,0:0|0:0|0:0|0:0,0:0:0:0:
382,65,108138,6,0,L|387:108,3,30.0000011444092,2|0|0|0,0:0|0:0|0:0|0:0,0:0:0:0:
442,168,108683,2,0,L|399:173,3,30.0000011444092,2|0|0|0,0:0|0:0|0:0|0:0,0:0:0:0:
339,228,109229,2,0,L|334:185,3,30.0000011444092,2|0|0|0,0:0|0:0|0:0|0:0,0:0:0:0:
279,125,109774,2,0,L|322:120,3,30.0000011444092,2|0|0|0,0:0|0:0|0:0|0:0,0:0:0:0:
385,94,110320,6,0,L|381:64,3,30.0000011444092,2|0|0|0,0:0|0:0|0:0|0:0,0:0:0:0:
335,198,110865,2,0,L|338:227,3,30.0000011444092,2|0|0|0,0:0|0:0|0:0|0:0,0:0:0:0:
279,125,111411,2,0,L|275:95,3,30.0000011444092,2|0|0|0,0:0|0:0|0:0|0:0,0:0:0:0:
219,182,111956,2,0,L|222:211,3,30.0000011444092,2|0|0|0,0:0|0:0|0:0|0:0,0:0:0:0:
159,125,112502,5,2,0:0:0:0:
76,64,112774,1,0,0:0:0:0:
15,147,113047,1,2,0:0:0:0:
98,208,113320,1,0,0:0:0:0:
159,125,113593,6,0,L|227:118,1,60.0000022888184,2|0,0:0|0:0,0:0:0:0:
289,164,114138,2,0,L|357:157,1,60.0000022888184,2|0,0:0|0:0,0:0:0:0:
419,203,114683,1,6,0:0:0:0:
256,192,114828,12,2,119305,0:0:0:0:
256,192,119439,12,2,125761,0:0:0:0:
256,192,125896,12,0,132218,0:0:0:0:
