osu file format v14

[General]
AudioFilename: audio.mp3
AudioLeadIn: 0
PreviewTime: 61161
Countdown: 0
SampleSet: Soft
StackLeniency: 0.6
Mode: 0
LetterboxInBreaks: 0
WidescreenStoryboard: 1

[Editor]
Bookmarks: 1229,9956,18683,27410,36138,44865,53592,62319,71047,79774,88501,97229,105956,114683,119266,125788
DistanceSpacing: 1.5
BeatDivisor: 8
GridSize: 16
TimelineZoom: 2.7

[Metadata]
Title:Your Love (Manila Killa Remix)
TitleUnicode:Your Love (Manila Killa Remix)
Artist:Alizzz (Feat. Max Marshall)
ArtistUnicode:Alizzz (Feat. Max Marshall)
Creator:VINXIS
Version:Advanced
Source:
Tags:Kaifin Moving Castle
BeatmapID:1257925
BeatmapSetID:532334

[Difficulty]
HPDrainRate:4.5
CircleSize:4
OverallDifficulty:6
ApproachRate:6
SliderMultiplier:1.4
SliderTickRate:1

[Events]
//Background and Video events
0,0,"MANILA KILL a.png",0,0
//Break Periods
2,97429,104906
//Storyboard Layer 0 (Background)
//Storyboard Layer 1 (Fail)
//Storyboard Layer 2 (Pass)
//Storyboard Layer 3 (Foreground)
//Storyboard Sound Samples

[TimingPoints]
1255,545.454545454546,4,2,1,40,1,0
1255,-200,4,2,1,40,0,0
9982,-133.333333333333,4,2,1,30,0,0
32618,-200,4,2,1,30,0,0
34800,-133.333333333333,4,2,1,30,0,0
35073,-100,4,2,1,30,0,0
45982,-100,4,2,1,30,0,0
51436,-133.333333333333,4,2,1,30,0,0
52527,-200,4,2,1,30,0,0
53593,545.454545454546,4,2,1,70,1,0
53593,-80,4,2,1,70,0,0
62320,-71.4285714285714,4,2,1,30,0,0
71047,-80,4,2,1,30,0,0
105956,-133.333333333333,4,2,1,30,0,0
114684,577.645133339752,4,2,2,40,1,0
116730,-133.333333333333,4,2,2,5,0,0
118929,-100,4,2,2,5,0,0
119305,538.068334678504,4,2,2,40,1,0

[Colours]
Combo1 : 255,243,206
Combo2 : 185,255,185
Combo3 : 159,203,255
Combo4 : 253,213,219

[HitObjects]
149,52,1255,6,0,L|230:59,1,70,2|0,0:0|0:0,0:0:0:0:
334,137,2345,2,0,L|253:144,1,70,2|0,0:0|0:0,0:0:0:0:
141,211,3436,6,0,L|222:218,1,70,2|0,0:0|0:0,0:0:0:0:
326,296,4527,2,0,L|245:303,1,70,2|0,0:0|0:0,0:0:0:0:
135,372,5618,5,2,0:0:0:0:
65,251,6164,1,0,0:0:0:0:
186,181,6709,1,2,0:0:0:0:
256,302,7255,1,0,0:0:0:0:
392,269,7800,6,0,L|465:282,2,70,2|0|2,0:0|0:0|0:0,0:0:0:0:
278,187,9436,1,0,0:0:0:0:
306,32,9982,6,0,B|364:13|409:30|409:30|461:52|511:33,2,210.000008010865,2|2|2,0:0|0:0|0:0,0:0:0:0:
170,113,12709,1,0,0:0:0:0:
268,236,13255,1,2,0:0:0:0:
177,364,13800,1,0,0:0:0:0:
333,346,14345,6,0,L|365:138,1,210.000008010865,2|2,0:0|0:0,0:0:0:0:
208,158,15982,1,0,0:0:0:0:
314,42,16527,6,0,L|377:50,2,52.5000020027161,2|0|0,0:0|0:0|0:0,0:0:0:0:
156,49,17618,2,0,L|151:82,8,26.2500010013581,2|0|2|0|8|8|8|8|6,0:0|0:0|0:0|0:0|0:0|0:0|0:0|0:0|0:0,0:0:0:0:
499,373,20345,2,0,L|446:377,1,52.5000020027161,2|0,0:0|0:0,0:0:0:0:
374,343,20891,5,2,0:0:0:0:
329,31,21982,1,2,0:0:0:0:
290,99,22255,1,0,0:0:0:0:
299,177,22527,1,2,0:0:0:0:
335,246,22800,1,0,0:0:0:0:
321,323,23073,5,2,0:0:0:0:
321,323,24709,2,0,L|269:331,1,52.5000020027161,2|0,0:0|0:0,0:0:0:0:
196,361,25255,5,2,0:0:0:0:
71,72,26345,1,2,0:0:0:0:
146,47,26618,1,0,0:0:0:0:
218,77,26891,1,2,0:0:0:0:
292,50,27164,1,0,0:0:0:0:
367,73,27436,5,2,0:0:0:0:
367,73,29073,2,0,L|358:134,1,52.5000020027161,2|0,0:0|0:0,0:0:0:0:
341,201,29618,5,2,0:0:0:0:
51,324,30709,1,2,0:0:0:0:
85,253,30982,1,0,0:0:0:0:
102,176,31255,1,2,0:0:0:0:
75,102,31527,1,0,0:0:0:0:
52,26,31800,2,0,L|222:31,2,157.500006008148,2|0|2,0:0|0:0|0:0,0:0:0:0:
75,102,33709,1,0,0:0:0:0:
102,176,33982,5,2,0:0:0:0:
102,176,34800,1,0,0:0:0:0:
170,137,35073,2,0,L|323:146,2,140,2|0|2,0:0|0:0|0:0,0:0:0:0:
163,227,36436,1,0,0:0:0:0:
237,280,36709,6,0,L|326:287,1,70
359,368,37255,2,0,L|270:361,2,70,2|0|0,0:0|0:0|0:0,0:0:0:0:
463,353,38073,1,0,0:0:0:0:
414,260,38345,6,0,L|433:105,1,140,2|0,0:0|0:0,0:0:0:0:
379,28,39164,1,0,0:0:0:0:
285,76,39436,1,2,0:0:0:0:
334,168,39709,1,0,0:0:0:0:
230,150,39982,2,0,L|127:143,1,70
72,202,40527,6,0,L|2:197,2,70,2|0|0,0:0|0:0|0:0,0:0:0:0:
168,244,41345,1,0,0:0:0:0:
265,204,41618,2,0,L|355:212,1,70,2|0,0:0|0:0,0:0:0:0:
357,313,42164,1,0,0:0:0:0:
459,290,42436,1,0,0:0:0:0:
475,186,42709,6,0,L|487:110,2,70,2|0|2,0:0|0:0|0:0,0:0:0:0:
290,85,43800,1,2,0:0:0:0:
87,141,44345,1,2,0:0:0:0:
211,310,44891,6,0,L|287:317,1,70,2|0,0:0|0:0,0:0:0:0:
327,222,45436,2,0,L|396:228,1,70,0|0,0:0|0:0,0:0:0:0:
501,241,45982,2,0,L|508:163,2,70,2|0|0,0:0|0:0|0:0,0:0:0:0:
440,327,46800,1,0,0:0:0:0:
347,377,47073,6,0,P|312:372|279:360,1,70,2|0,0:0|0:0,0:0:0:0:
219,273,47618,2,0,P|251:260|286:256,1,70
371,194,48164,2,0,L|375:228,2,35,2|0|0,0:0|0:0|0:0,0:0:0:0:
395,92,48709,1,2,0:0:0:0:
311,28,48982,2,0,L|266:34,1,35,8|8,0:0|0:0,0:0:0:0:
246,75,49255,6,0,L|85:97,1,140,2|0,0:0|0:0,0:0:0:0:
28,163,50073,1,0,0:0:0:0:
108,230,50345,2,0,P|99:297|66:373,1,140,2|0,0:0|0:0,0:0:0:0:
214,297,51436,6,0,P|287:283|381:287,1,157.500006008148,2|0,0:0|0:0,0:0:0:0:
416,308,52527,6,0,L|437:194,1,105,2|0,0:0|0:0,0:0:0:0:
441,179,53482,1,0,0:0:0:0:
445,144,53593,6,0,P|371:169|261:161,1,175,6|0,1:2|1:0,0:0:0:0:
169,87,54411,2,0,P|95:62|-15:70,1,175,2|0,0:0|0:0,0:0:0:0:
16,196,55229,2,0,L|26:294,1,87.5,2|2,1:2|0:0,0:0:0:0:
81,316,55638,1,0,0:0:0:0:
143,334,55774,6,0,B|228:346|228:346|306:321|306:321|405:332,1,262.5,2|2,1:2|0:0,0:0:0:0:
496,242,56865,2,0,P|501:154|479:44,1,175,0|2,1:0|1:2,0:0:0:0:
227,34,57956,6,0,L|52:49,1,175,2|0,1:2|1:0,0:0:0:0:
134,151,58774,2,0,L|308:166,1,175,2|0,0:0|0:0,0:0:0:0:
227,268,59593,2,0,L|111:278,1,87.5,2|0,1:2|0:0,0:0:0:0:
82,308,60002,1,0,0:0:0:0:
18,326,60138,6,0,P|2:235|16:126,1,175,2|0,1:2|1:0,0:0:0:0:
125,92,60956,1,2,0:0:0:0:
231,168,61229,2,0,L|227:69,1,87.5,0|0,1:0|0:0,0:0:0:0:
358,93,61774,2,0,L|354:180,1,87.5,0|2,1:0|3:0,0:0:0:0:
226,254,62320,6,0,P|160:261|105:253,2,97.9999970092774,2|0|2,1:2|0:0|1:2,0:0:0:0:
357,186,63138,1,2,0:0:0:0:
357,186,63411,2,0,L|350:289,1,97.9999970092774,6|0,1:2|0:0,0:0:0:0:
475,205,63956,2,0,L|481:107,1,97.9999970092774,2|0,1:2|0:0,0:0:0:0:
351,39,64502,6,0,P|285:32|230:40,2,97.9999970092774,2|0|2,1:2|0:0|1:2,0:0:0:0:
482,107,65320,1,2,0:0:0:0:
357,186,65593,2,0,L|350:289,1,97.9999970092774,2|0,1:2|0:0,0:0:0:0:
209,328,66138,2,0,L|215:230,1,97.9999970092774,2|0,1:2|0:0,0:0:0:0:
216,83,66683,6,0,P|150:76|95:84,2,97.9999970092774,2|0|2,1:2|0:0|1:2,0:0:0:0:
347,151,67502,1,0,0:0:0:0:
347,151,67774,2,0,L|340:48,1,97.9999970092774,2|0,1:2|0:0,0:0:0:0:
250,169,68320,2,0,L|256:266,1,97.9999970092774,2|2,1:2|0:0,0:0:0:0:
128,340,68865,6,0,P|124:283|138:121,1,195.999994018555,4|0,1:0|0:0,0:0:0:0:
219,25,69683,1,0,0:0:0:0:
302,146,69956,2,0,L|413:133,1,97.9999970092774,4|0,1:0|0:0,0:0:0:0:
478,258,70502,1,4,1:0:0:0:
386,372,70774,1,4,1:0:0:0:
254,375,71047,6,0,L|240:288,2,87.5,6|0|8,1:2|0:0|1:2,0:0:0:0:
127,339,71865,1,2,0:2:0:0:
147,207,72138,2,0,L|160:120,2,87.5,0|0|8,1:2|0:0|1:2,0:0:0:0:
278,213,72956,1,0,0:0:0:0:
302,83,73229,6,0,P|315:41|331:0,1,87.5,2|0,1:2|0:0,0:0:0:0:
463,1,73774,2,0,P|478:41|492:83,1,87.5,8|0,1:2|0:2,0:0:0:0:
393,170,74320,1,0,1:0:0:0:
472,274,74593,1,0,0:0:0:0:
376,364,74865,2,0,L|256:354,1,87.5,10|2,1:2|0:0,0:0:0:0:
168,303,75411,6,0,P|114:312|66:334,2,87.5,2|0|8,1:2|0:0|1:2,0:0:0:0:
275,226,76229,1,2,0:0:0:0:
388,159,76502,2,0,P|442:150|490:128,2,87.5,0|0|10,1:2|0:0|1:2,0:0:0:0:
275,226,77320,1,0,0:2:0:0:
168,303,77593,6,0,L|182:183,1,87.5,2|0,1:2|0:0,0:0:0:0:
290,146,78138,2,0,L|279:59,1,87.5,8|2,1:2|0:0,0:0:0:0:
150,40,78683,1,0,1:0:0:0:
145,171,78956,1,0,0:0:0:0:
30,106,79229,1,8,0:0:0:0:
30,236,79502,1,0,0:0:0:0:
145,171,79774,6,0,P|230:154|316:166,1,175,2|8,1:2|1:2,0:0:0:0:
441,207,80593,1,0,0:0:0:0:
346,297,80865,2,0,L|332:405,2,87.5,0|0|8,1:0|0:0|1:2,0:0:0:0:
441,207,81683,2,0,L|449:140,1,43.75
452,97,81956,6,0,P|385:64|278:62,1,175,2|8,1:2|1:2,0:0:0:0:
159,101,82774,1,0,0:0:0:0:
43,38,83047,2,0,L|153:20,1,87.5,2|0,1:2|0:0,0:0:0:0:
85,147,83593,2,0,L|-25:129,1,87.5,8|0,1:2|0:0,0:0:0:0:
47,255,84138,6,0,P|111:278|221:269,1,175,2|8,1:2|1:2,0:0:0:0:
324,345,84956,1,0,0:0:0:0:
343,215,85229,2,0,P|423:185|526:190,1,175,0|8,1:0|1:2,0:0:0:0:
411,101,86047,2,0,L|344:95,1,43.75
303,112,86320,6,0,L|93:92,1,175,4|8,1:2|0:0,0:0:0:0:
113,226,87138,2,0,L|303:208,1,175,4|8,1:2|0:0,0:0:0:0:
391,289,87956,1,0,0:0:0:0:
294,377,88229,1,0,0:0:0:0:
179,313,88502,6,0,P|106:313|9:371,2,175,6|8|0,1:2|1:2|1:0,0:0:0:0:
291,241,89865,1,0,0:2:0:0:
197,148,90138,1,8,1:2:0:0:
223,19,90411,1,0,0:0:0:0:
103,73,90683,6,0,L|122:253,2,175,0|8|0,1:2|1:2|1:0,0:0:0:0:
12,169,92047,1,0,0:0:0:0:
5,299,92320,1,8,1:2:0:0:
116,368,92593,1,0,0:0:0:0:
220,288,92865,6,0,P|298:297|378:245,2,175,0|8|0,1:2|1:2|1:0,0:0:0:0:
114,208,94229,1,0,0:0:0:0:
114,77,94502,1,8,1:2:0:0:
243,54,94774,1,0,0:2:0:0:
338,143,95047,5,6,1:2:0:0:
338,143,96138,2,0,L|343:196,3,43.75,0|0|0|0,0:2|0:2|3:2|3:2,0:0:0:0:
353,250,96683,2,0,L|358:303,3,43.75,0|0|0|0,0:2|0:2|3:2|3:2,0:0:0:0:
364,359,97229,5,6,0:0:0:0:
41,50,105956,6,0,L|86:47,3,26.2500010013581,2|0|0|0,0:0|0:0|0:0|0:0,0:0:0:0:
104,61,106502,2,0,L|149:58,3,26.2500010013581,2|0|0|0,0:0|0:0|0:0|0:0,0:0:0:0:
166,75,107047,2,0,L|211:72,3,26.2500010013581,2|0|0|0,0:0|0:0|0:0|0:0,0:0:0:0:
228,88,107593,2,0,L|273:85,3,26.2500010013581,2|0|0|0,0:0|0:0|0:0|0:0,0:0:0:0:
289,103,108138,5,2,0:0:0:0:
350,151,108411,1,0,0:0:0:0:
418,111,108683,2,0,L|463:108,3,26.2500010013581,2|0|0|0,0:0|0:0|0:0|0:0,0:0:0:0:
483,108,109229,5,2,0:0:0:0:
480,186,109502,1,0,0:0:0:0:
472,263,109774,2,0,L|469:308,3,26.2500010013581,2|0|0|0,0:0|0:0|0:0|0:0,0:0:0:0:
470,328,110320,6,0,L|425:330,3,26.2500010013581,2|0|0|0,0:0|0:0|0:0|0:0,0:0:0:0:
407,317,110865,2,0,L|362:319,3,26.2500010013581,2|0|0|0,0:0|0:0|0:0|0:0,0:0:0:0:
345,303,111411,2,0,L|300:305,3,26.2500010013581,2|0|0|0,0:0|0:0|0:0|0:0,0:0:0:0:
283,290,111956,2,0,L|238:292,3,26.2500010013581,2|0|0|0,0:0|0:0|0:0|0:0,0:0:0:0:
217,292,112502,5,2,0:0:0:0:
160,236,112774,1,0,0:0:0:0:
203,170,113047,2,0,L|206:134,3,26.2500010013581,2|0|0|0,0:0|0:0|0:0|0:0,0:0:0:0:
215,105,113593,2,0,P|266:111|286:110,1,52.5000020027161,2|2,0:0|0:0,0:0:0:0:
328,62,114138,2,0,P|379:55|399:57,1,52.5000020027161,2|2,0:0|0:0,0:0:0:0:
442,103,114683,5,6,0:0:0:0:
256,192,114828,12,2,119305,0:0:0:0:
256,192,119439,12,0,125761,0:0:0:0:
