osu file format v14

[General]
AudioFilename: audio.mp3
AudioLeadIn: 0
PreviewTime: 60777
Countdown: 0
SampleSet: Soft
StackLeniency: 0.5
Mode: 0
LetterboxInBreaks: 0
WidescreenStoryboard: 1

[Editor]
Bookmarks: 68719
DistanceSpacing: 1
BeatDivisor: 4
GridSize: 4
TimelineZoom: 2.5

[Metadata]
Title:Sayonara no Yukue ~TV size~
TitleUnicode:さよならのゆくえ ~TV size~
Artist:Alisa Takigawa
ArtistUnicode:瀧川ありさ
Creator:Jennglebells
Version:Hard
Source:終物語
Tags:owarimonogatari ending bakemonogatari light novel ed
BeatmapID:1305798
BeatmapSetID:606418

[Difficulty]
HPDrainRate:5
CircleSize:3.8
OverallDifficulty:7
ApproachRate:8
SliderMultiplier:1.4
SliderTickRate:1

[Events]
//Background and Video events
0,0,"Owarimonogatari.jpg",0,0
//Break Periods
//Storyboard Layer 0 (Background)
//Storyboard Layer 1 (Fail)
//Storyboard Layer 2 (Pass)
//Storyboard Layer 3 (Foreground)
//Storyboard Sound Samples

[TimingPoints]
425,352.941176470588,4,2,0,30,1,0
2895,-142.857142857143,4,2,0,30,0,0
15424,-142.857142857143,4,2,0,30,0,0
24424,-142.857142857143,4,2,0,50,0,0
24954,-142.857142857143,4,2,0,55,0,0
25483,-142.857142857143,4,2,0,60,0,0
26013,-142.857142857143,4,2,0,60,0,0
27248,-166.666666666667,4,2,0,30,0,0
38366,-133.333333333333,4,2,0,40,0,0
49836,-133.333333333333,4,2,0,30,0,0
58307,-125,4,2,0,35,0,0
58660,-125,4,2,0,45,0,0
59013,-117.647058823529,4,2,0,50,0,0
59366,-117.647058823529,4,2,0,55,0,0
59895,-117.647058823529,4,2,0,60,0,0
60072,-111.111111111111,4,2,0,60,0,0
60777,-111.111111111111,4,2,0,60,0,0
61130,-100,4,2,0,60,0,1
82307,-125,4,2,0,50,0,0
88660,-125,4,2,0,30,0,0
89013,-125,4,2,0,30,0,0

[Colours]
Combo1 : 74,74,74
Combo2 : 154,16,19
Combo3 : 160,160,160

[HitObjects]
256,192,513,12,0,2895,0:0:0:0:
60,78,3248,6,0,P|50:138|60:189,1,97.9999970092774,2|0,0:0|0:0,0:0:0:0:
133,249,3777,2,0,P|205:235|277:253,1,146.999995513916,0|0,0:0|0:0,0:0:0:0:
249,58,4660,6,0,L|242:106,1,48.9999985046387,2|0,0:0|0:0,0:0:0:0:
335,106,5013,2,0,L|335:155,1,48.9999985046387,0|0,0:0|0:0,0:0:0:0:
423,147,5366,2,0,L|436:254,1,97.9999970092774,0|0,0:0|0:0,0:0:0:0:
310,293,6072,6,0,P|265:309|205:295,1,97.9999970092774,2|0,0:0|0:0,0:0:0:0:
58,246,6777,2,0,P|105:230|158:242,1,97.9999970092774,0|0,0:0|0:0,0:0:0:0:
327,146,7483,6,0,L|329:48,2,97.9999970092774,2|2|2,0:0|0:0|0:0,0:0:0:0:
211,159,8542,1,2,0:0:0:0:
351,320,8895,6,0,P|417:291|459:232,1,146.999995513916,2|2,0:0|0:0,0:0:0:0:
256,288,9954,1,0,0:0:0:0:
160,320,10307,2,0,P|94:291|52:231,1,146.999995513916,2|0,0:0|0:0,0:0:0:0:
256,288,11366,1,0,0:0:0:0:
339,178,11719,6,0,P|370:166|446:178,1,97.9999970092774,2|0,0:0|0:0,0:0:0:0:
509,258,12248,2,0,P|482:272|417:268,1,97.9999970092774,0|0,0:0|0:0,0:0:0:0:
336,348,12777,1,0,0:0:0:0:
336,348,12954,1,0,0:0:0:0:
256,192,13130,12,2,14541,0:0:0:0:
43,175,15601,6,0,P|84:152|144:165,1,97.9999970092774,8|4,0:3|1:0,0:0:0:0:
185,278,16307,1,8,0:3:0:0:
185,278,16483,2,0,P|252:308|338:284,1,146.999995513916,0|4,1:0|0:1,0:0:0:0:
447,213,17366,5,4,0:3:0:0:
375,152,17542,2,0,P|318:151|264:192,1,97.9999970092774,0|0,1:0|0:0,0:0:0:0:
210,237,18072,2,0,P|190:251|159:258,1,48.9999985046387,0|0,1:0|0:0,0:0:0:0:
74,249,18424,1,4,0:3:0:0:
68,117,18777,6,0,P|121:90|169:98,1,97.9999970092774,4|8,1:0|0:3,0:0:0:0:
249,40,19307,2,0,P|299:58|394:32,2,146.999995513916,0|4|0,1:0|0:1|1:0,0:0:0:0:
300,148,20895,2,0,P|308:195|301:244,1,97.9999970092774,0|4,1:0|0:3,0:0:0:0:
123,311,21601,6,0,P|114:263|121:214,1,97.9999970092774,4|8,1:0|0:3,0:0:0:0:
219,186,22130,1,0,1:0:0:0:
302,245,22307,2,0,P|356:257|403:250,1,97.9999970092774,8|4,0:3|0:1,0:0:0:0:
512,91,23189,6,0,P|448:74|356:96,1,146.999995513916,0|0,1:0|1:0,0:0:0:0:
254,143,24072,1,4,0:3:0:0:
384,187,24424,6,0,P|411:205|452:267,1,97.9999970092774,4|0,0:0|0:0,0:0:0:0:
306,253,24954,2,0,P|321:283|325:357,1,97.9999970092774,4|4,0:0|0:3,0:0:0:0:
204,249,25483,2,0,P|201:282|168:348,1,97.9999970092774,4|0,0:0|0:0,0:0:0:0:
132,182,26013,2,0,P|113:209|51:250,1,97.9999970092774,4|0,0:0|1:0,0:0:0:0:
17,103,26542,2,0,P|66:101|112:83,1,97.9999970092774,4|0,0:0|1:0,0:0:0:0:
173,26,27072,1,0,1:0:0:0:
267,31,27248,6,0,P|250:88|265:154,1,125.999996154785,0|0,0:0|0:0,0:0:0:0:
362,295,28130,2,0,P|350:257|317:221,1,83.9999974365235,0|0,0:0|0:0,0:0:0:0:
215,236,28660,2,0,P|172:243|131:229,1,83.9999974365235,2|0,0:0|0:0,0:0:0:0:
21,150,29189,2,0,P|75:123|143:140,1,125.999996154785,0|0,0:0|0:0,0:0:0:0:
361,88,30072,6,0,P|310:76|264:92,1,83.9999974365235,2|0,0:0|0:0,0:0:0:0:
196,160,30601,2,0,P|225:167|261:161,1,41.9999987182618,2|2,0:0|0:0,0:0:0:0:
302,252,30954,2,0,P|273:259|237:253,1,41.9999987182618,2|0,0:0|0:0,0:0:0:0:
153,262,31307,6,0,P|103:269|53:239,2,83.9999974365235,0|0|0,0:0|0:0|0:0,0:0:0:0:
317,176,32366,2,0,P|366:162|404:171,1,83.9999974365235,0|0,0:0|0:0,0:0:0:0:
405,62,32895,6,0,P|347:81|280:53,1,125.999996154785,2|2,0:0|0:0,0:0:0:0:
111,141,33777,2,0,P|134:137|162:141,1,41.9999987182618,0|0,0:0|0:0,0:0:0:0:
244,154,34130,1,0,0:0:0:0:
304,233,34307,6,0,P|364:248|422:225,1,125.999996154785,2|2,0:0|0:0,0:0:0:0:
270,329,35366,2,0,P|249:331|229:327,1,41.9999987182618,2|0,0:0|0:0,0:0:0:0:
181,235,35719,6,0,P|187:194|181:135,1,83.9999974365235,2|0,0:0|0:0,0:0:0:0:
2,98,36248,2,0,P|-5:138|-1:180,1,83.9999974365235,2|0,0:0|0:0,0:0:0:0:
113,53,36954,1,0,0:0:0:0:
113,53,37130,1,0,0:0:0:0:
379,57,38366,5,0,0:0:0:0:
447,122,38542,2,0,P|457:183|447:235,1,105.000004005432,4|0,0:3|1:0,0:0:0:0:
295,352,39248,2,0,P|283:292|292:236,1,105.000004005432,0|0,0:0|1:0,0:0:0:0:
369,190,39777,1,0,0:0:0:0:
276,153,39954,6,0,P|214:137|168:156,1,105.000004005432,4|0,0:3|1:0,0:0:0:0:
11,226,40660,2,0,P|61:245|115:225,1,105.000004005432,0|0,0:0|1:0,0:0:0:0:
176,149,41189,1,0,0:0:0:0:
86,136,41366,6,0,P|83:83|92:28,2,105.000004005432,4|0|0,0:3|1:0|0:0,0:0:0:0:
176,149,42248,2,0,P|179:191|172:224,1,52.5000020027161,0|0,0:0|1:0,0:0:0:0:
247,274,42601,6,0,P|296:289|346:274,1,105.000004005432,0|0,0:0|0:0,0:0:0:0:
439,258,43130,1,0,1:0:0:0:
510,180,43307,2,0,P|456:168|394:188,1,105.000004005432,0|0,0:0|0:0,0:0:0:0:
314,191,43836,2,0,P|284:187|258:175,1,52.5000020027161,0|0,1:0|0:0,0:0:0:0:
107,127,44189,6,0,P|153:138|207:115,1,105.000004005432,4|0,0:3|1:0,0:0:0:0:
265,57,44719,2,0,P|312:35|362:47,1,105.000004005432,0|0,0:0|0:0,0:0:0:0:
437,104,45248,1,0,1:0:0:0:
391,179,45424,1,0,0:0:0:0:
481,267,45601,6,0,P|431:285|378:272,1,105.000004005432,4|0,0:3|1:0,0:0:0:0:
207,217,46130,2,0,P|264:198|315:215,1,105.000004005432,0|0,0:0|0:0,0:0:0:0:
276,298,46660,1,0,1:0:0:0:
189,345,46836,1,0,0:0:0:0:
120,279,47013,6,0,P|89:275|57:283,1,52.5000020027161,4|0,0:3|0:0,0:0:0:0:
19,196,47366,2,0,P|49:201|93:187,1,52.5000020027161,0|0,1:0|0:0,0:0:0:0:
143,94,47719,2,0,P|156:143|139:218,1,105.000004005432,0|0,0:0|1:0,0:0:0:0:
237,163,48248,1,0,0:0:0:0:
306,199,48424,6,0,P|348:219|424:199,1,105.000004005432,4|0,0:3|1:0,0:0:0:0:
480,144,48954,1,0,3:0:0:0:
431,61,49130,2,0,P|404:64|376:60,1,52.5000020027161,4|8,0:3|0:3,0:0:0:0:
289,61,49483,1,0,1:0:0:0:
230,135,49660,1,0,0:0:0:0:
92,46,49836,6,0,P|145:58|201:36,1,105.000004005432,4|0,0:0|3:0,0:0:0:0:
230,135,50542,2,0,P|280:123|329:139,1,105.000004005432,0|0,1:0|3:0,0:0:0:0:
442,176,51248,6,0,P|445:148|460:108,2,52.5000020027161,0|0|0,3:0|3:0|1:0,0:0:0:0:
393,274,51954,2,0,P|342:281|297:256,1,105.000004005432,0|8,1:0|0:3,0:0:0:0:
205,224,52660,6,0,P|154:215|108:239,1,105.000004005432,4|0,0:0|1:0,0:0:0:0:
272,170,53366,2,0,P|277:123|272:52,1,105.000004005432,0|0,1:0|1:0,0:0:0:0:
361,24,53895,6,0,P|357:76|363:128,1,105.000004005432,0|0,1:0|1:0,0:0:0:0:
432,192,54424,1,0,1:0:0:0:
397,278,54601,2,0,P|336:286|287:278,1,105.000004005432,0|8,1:0|0:3,0:0:0:0:
181,228,55130,2,0,P|215:219|248:232,1,52.5000020027161,4|0,0:3|0:0,0:0:0:0:
111,287,55483,5,4,0:0:0:0:
194,147,55836,1,0,3:0:0:0:
293,279,56189,2,0,P|345:302|408:275,1,105.000004005432,0|0,1:0|3:0,0:0:0:0:
512,213,56895,6,0,P|477:206|443:215,1,52.5000020027161,0|0,0:0|0:0,0:0:0:0:
389,162,57248,2,0,P|380:109|403:44,2,105.000004005432,0|0|8,0:0|1:0|0:3,0:0:0:0:
270,143,58307,6,0,P|208:157|153:123,1,112,4|0,0:0|1:0,0:0:0:0:
85,119,58836,1,0,1:0:0:0:
0,214,59013,2,0,P|59:239|122:213,1,119.000002269745,0|0,1:0|1:0,0:0:0:0:
212,251,59542,1,0,1:0:0:0:
303,295,59719,5,0,1:0:0:0:
508,164,60072,2,0,B|388:228|388:100|268:164,1,251.999992309571,4|0,0:0|0:0,0:0:0:0:
163,55,61130,6,0,P|105:39|27:69,1,140,4|0,0:0|1:0,0:0:0:0:
52,167,61660,1,0,0:0:0:0:
137,228,61836,2,0,P|198:255|301:221,1,140,0|0,0:0|1:0,0:0:0:0:
350,302,62366,1,0,0:0:0:0:
426,227,62542,6,0,P|388:215|351:217,1,70,4|0,0:3|0:0,0:0:0:0:
211,136,62895,2,0,P|249:148|286:146,1,70,0|0,1:0|0:0,0:0:0:0:
412,83,63248,2,0,P|374:71|337:73,1,70,0|0,0:0|0:0,0:0:0:0:
252,52,63601,1,0,1:0:0:0:
211,136,63777,1,0,0:0:0:0:
111,114,63954,6,0,L|119:212,1,70,4|0,0:3|0:0,0:0:0:0:
219,306,64307,2,0,L|227:208,1,70,0|0,1:0|0:0,0:0:0:0:
330,174,64660,2,0,P|404:174|466:231,1,140,0|0,0:0|1:0,0:0:0:0:
408,322,65189,1,0,0:0:0:0:
294,352,65367,6,0,P|259:357|224:353,1,70,4|0,0:3|0:0,0:0:0:0:
81,279,65719,2,0,P|116:275|151:279,1,70,0|0,1:0|0:0,0:0:0:0:
241,261,66072,2,0,P|245:228|240:184,1,70,0|0,0:0|0:0,0:0:0:0:
167,49,66424,2,0,P|163:82|168:126,1,70,0|0,1:0|0:0,0:0:0:0:
19,191,66777,6,0,P|101:218|178:183,1,140,4|0,0:0|1:0,0:0:0:0:
258,108,67307,2,0,P|300:106|344:128,1,70,0|0,0:0|0:0,0:0:0:0:
406,161,67660,1,0,0:0:0:0:
493,253,67836,2,0,P|451:255|407:233,1,70,0|0,1:0|0:0,0:0:0:0:
220,188,68189,6,0,P|278:178|345:221,1,140,4|0,0:3|1:0,0:0:0:0:
356,311,68719,1,0,0:0:0:0:
406,161,68896,2,0,P|438:173|473:172,1,70,0|0,0:0|0:0,0:0:0:0:
359,86,69248,2,0,P|325:75|291:79,1,70,0|0,1:0|0:0,0:0:0:0:
75,120,69601,6,0,P|135:152|201:135,1,140,4|0,0:3|1:0,0:0:0:0:
358,218,70130,2,0,P|298:250|232:233,1,140,0|0,0:0|0:0,0:0:0:0:
73,276,70660,2,0,P|109:267|172:285,1,70,0|0,1:0|0:0,0:0:0:0:
219,340,71013,5,4,0:3:0:0:
305,289,71189,1,4,0:3:0:0:
408,327,71366,2,0,L|414:247,1,70,0|0,1:0|1:0,0:0:0:0:
421,146,71719,1,0,1:0:0:0:
335,198,71895,1,8,0:3:0:0:
232,159,72072,2,0,L|226:239,1,70,0|0,1:0|0:0,0:0:0:0:
73,276,72424,6,0,L|80:196,1,70,4|0,0:0|0:0,0:0:0:0:
36,119,72777,1,0,1:0:0:0:
127,76,72954,2,0,P|202:58|254:86,1,140,0|0,0:0|0:0,0:0:0:0:
356,114,73483,1,0,1:0:0:0:
440,197,73660,6,0,P|374:218|313:189,1,140,0|0,0:0|0:0,0:0:0:0:
160,175,74189,2,0,P|200:162|250:173,1,70,0|0,1:0|0:0,0:0:0:0:
334,331,74542,2,0,P|274:342|240:333,1,70,0|0,0:0|0:0,0:0:0:0:
167,272,74895,1,0,1:0:0:0:
58,322,75072,1,0,0:0:0:0:
49,204,75248,6,0,P|53:174|70:126,1,70,4|0,0:3|0:0,0:0:0:0:
151,68,75601,1,0,1:0:0:0:
221,136,75777,2,0,P|284:147|364:102,1,140,0|0,0:0|0:0,0:0:0:0:
402,33,76307,1,0,1:0:0:0:
456,120,76483,6,0,L|450:261,1,140,0|0,0:0|0:0,0:0:0:0:
373,304,77014,2,0,P|333:318|295:311,1,70,0|0,1:0|0:0,0:0:0:0:
144,265,77366,2,0,P|184:251|222:258,1,70,4|0,0:3|3:0,0:0:0:0:
358,198,77719,2,0,P|318:184|280:191,1,70,0|8,1:0|3:0,0:0:0:0:
179,143,78072,6,0,P|184:90|180:38,2,105,4|0|0,0:0|0:0|0:0,0:0:0:0:
78,80,78777,2,0,P|69:149|72:219,1,140,0|0,0:0|1:0,0:0:0:0:
192,304,79483,6,0,P|128:320|71:299,2,105,4|0|0,0:3|0:0|0:0,0:0:0:0:
320,304,80189,2,0,P|384:320|441:299,2,105,0|0|0,0:0|0:0|0:0,0:0:0:0:
368,208,80895,6,0,P|384:128|368:64,1,140,4|0,0:3|1:0,0:0:0:0:
256,15,81424,1,2,0:3:0:0:
140,72,81601,2,0,P|127:140|144:208,1,140,0|0,0:0|1:0,0:0:0:0:
256,144,82307,5,4,0:0:0:0:
423,213,83189,2,0,P|460:224|500:220,1,56,8|0,0:3|3:0,0:0:0:0:
343,88,83719,6,0,P|290:71|226:90,1,112,4|0,0:0|0:0,0:0:0:0:
91,171,84424,2,0,P|144:188|208:169,1,112,0|0,0:0|0:0,0:0:0:0:
298,169,85130,6,0,P|289:252|303:334,2,168,0|0|0,0:0|0:0|0:0,0:0:0:0:
156,313,86542,5,2,0:0:0:0:
110,210,86895,1,0,0:0:0:0:
192,134,87248,1,0,0:0:0:0:
298,169,87601,1,0,0:0:0:0:
372,81,87777,6,0,L|379:149,1,56,0|0,1:0|0:0,0:0:0:0:
465,195,88130,1,0,1:0:0:0:
412,284,88307,2,0,L|344:289,2,56,0|0|0,1:0|1:0|1:0,0:0:0:0:
377,136,88836,1,0,1:0:0:0:
280,193,89013,2,0,P|247:202|204:199,1,56,0|0,1:0|1:0,0:0:0:0:
