osu file format v14

[General]
AudioFilename: audio.mp3
AudioLeadIn: 0
PreviewTime: 60773
Countdown: 0
SampleSet: Soft
StackLeniency: 0.7
Mode: 3
LetterboxInBreaks: 0
SpecialStyle: 0
WidescreenStoryboard: 1

[Editor]
Bookmarks: 40655
DistanceSpacing: 1
BeatDivisor: 4
GridSize: 4
TimelineZoom: 1.3

[Metadata]
Title:Sayonara no Yukue (TV Size)
TitleUnicode:さよならのゆくえ (TV Size)
Artist:Alisa Takigawa
ArtistUnicode:瀧川ありさ
Creator:Paran
Version:Yukarin's Normal
Source:終物語
Tags:ML-ysg Yukari_Sama atian540 Anime jpop j-pop Japanese monogatari series 2nd second season owarimonogatari ending ed Saku NEWCOME Inc. SME Records SECL-1811 SECL-1812~1813 Araragi Koyomi 阿良々木暦 Oikura Sodachi 老倉育 Oshino Ougi 忍野 扇 Kanbaru Suruga 神原 駿河 Oshino Shinobu 忍野 忍 Ononoki Yotsugi 斧乃木 余接 Gaen Izuko 臥煙 伊豆湖
BeatmapID:3117459
BeatmapSetID:1500194

[Difficulty]
HPDrainRate:7.5
CircleSize:4
OverallDifficulty:7.5
ApproachRate:5
SliderMultiplier:1.4
SliderTickRate:1

[Events]
//Background and Video events
0,0,"wallhaven-dgl1m3.jpg",0,0
//Break Periods
//Storyboard Layer 0 (Background)
//Storyboard Layer 1 (Fail)
//Storyboard Layer 2 (Pass)
//Storyboard Layer 3 (Foreground)
//Storyboard Layer 4 (Overlay)
//Storyboard Sound Samples
Sample,15596,0,"Tom3.wav",70
Sample,16655,0,"soft-hitwhistle.wav",70
Sample,25126,0,"soft-hitwhistle.wav",70
Sample,55126,0,"soft-hitwhistle.wav",70
Sample,81596,0,"Tom1.wav",70
Sample,81949,0,"Tom1.wav",70

[TimingPoints]
3244,352.941176470588,4,2,1,70,1,0
60773,-100,4,2,1,70,0,1
82302,-100,4,2,1,70,0,0

[HitObjects]
64,192,3244,5,4,0:0:0:0:
448,192,3244,128,0,4655:0:0:0:0:
64,192,4655,1,0,0:0:0:0:
192,192,4655,1,0,0:0:0:0:
320,192,4832,1,0,0:0:0:0:
448,192,5008,1,0,0:0:0:0:
192,192,5185,1,0,0:0:0:0:
64,192,5361,1,0,0:0:0:0:
320,192,5538,1,0,0:0:0:0:
192,192,5714,1,0,0:0:0:0:
448,192,5891,1,0,0:0:0:0:
320,192,6067,128,0,6773:0:0:0:0:
64,192,6067,1,0,0:0:0:0:
64,192,6773,128,0,7479:0:0:0:0:
320,192,7479,128,0,7832:0:0:0:0:
448,192,7479,1,0,0:0:0:0:
192,192,7832,128,0,8185:0:0:0:0:
448,192,8185,128,0,8538:0:0:0:0:
64,192,8185,1,0,0:0:0:0:
320,192,8538,128,0,8891:0:0:0:0:
448,192,8891,1,0,0:0:0:0:
64,192,8891,128,0,9420:0:0:0:0:
192,192,9420,128,0,10302:0:0:0:0:
320,192,10302,1,0,0:0:0:0:
448,192,10302,1,0,0:0:0:0:
64,192,10479,1,0,0:0:0:0:
192,192,10655,1,0,0:0:0:0:
448,192,10832,128,0,11361:0:0:0:0:
192,192,11361,128,0,11714:0:0:0:0:
64,192,11714,1,0,0:0:0:0:
448,192,11714,1,0,0:0:0:0:
320,192,11891,1,0,0:0:0:0:
192,192,12067,1,0,0:0:0:0:
64,192,12243,128,0,12596:0:0:0:0:
448,192,12596,1,0,0:0:0:0:
320,192,12773,1,0,0:0:0:0:
64,192,12949,1,0,0:0:0:0:
192,192,13126,1,0,0:0:0:0:
320,192,13302,1,0,0:0:0:0:
448,192,13479,1,0,0:0:0:0:
320,192,13655,1,0,0:0:0:0:
192,192,13832,1,0,0:0:0:0:
64,192,14008,1,0,0:0:0:0:
192,192,14185,1,0,0:0:0:0:
320,192,14361,1,0,0:0:0:0:
448,192,14538,128,0,15596:0:0:0:0:
64,192,14538,1,0,0:0:0:0:
64,192,15596,128,2,15773:0:0:0:0:
192,192,15773,128,0,15949:0:0:0:0:
448,192,15949,1,8,0:0:0:0:
320,192,15949,128,4,16302:0:0:0:0:
192,192,16302,1,2,0:0:0:0:
64,192,16479,1,8,0:0:0:0:
448,192,16479,1,0,0:0:0:0:
320,192,16655,1,0,0:0:0:70:Tom1.wav
192,192,16832,1,0,0:0:0:70:Tom2.wav
320,192,17008,1,4,0:0:0:0:
64,192,17008,128,8,17361:0:0:0:0:
448,192,17361,1,2,0:0:0:0:
320,192,17538,1,0,0:0:0:0:
192,192,17538,1,8,0:0:0:0:
64,192,17714,1,2,0:0:0:0:
320,192,18067,1,8,0:0:0:0:
448,192,18067,1,4,0:0:0:0:
64,192,18243,1,0,0:0:0:0:
192,192,18420,1,2,0:0:0:0:
320,192,18596,1,0,0:0:0:0:
448,192,18773,1,4,0:0:0:0:
64,192,18773,128,8,19126:0:0:0:0:
320,192,19126,1,2,0:0:0:0:
448,192,19302,1,4,0:0:0:0:
64,192,19302,1,8,0:0:0:0:
192,192,19479,1,0,0:0:0:70:Tom1.wav
320,192,19655,1,0,0:0:0:70:Tom2.wav
192,192,19832,1,8,0:0:0:0:
448,192,19832,128,4,20185:0:0:0:0:
64,192,20185,1,2,0:0:0:0:
192,192,20361,1,8,0:0:0:0:
320,192,20361,1,0,0:0:0:0:
448,192,20538,1,2,0:0:0:0:
64,192,20891,1,0,0:0:0:0:
320,192,20891,1,8,0:0:0:0:
192,192,21067,1,8,0:0:0:0:
448,192,21243,1,8,0:0:0:0:
320,192,21243,1,0,0:0:0:0:
64,192,21420,1,0,0:0:0:0:
448,192,21596,1,8,0:0:0:0:
192,192,21596,128,4,21949:0:0:0:0:
320,192,21949,1,2,0:0:0:0:
448,192,22126,1,4,0:0:0:0:
64,192,22126,1,8,0:0:0:0:
192,192,22302,1,0,0:0:0:70:Tom1.wav
320,192,22479,1,0,0:0:0:70:Tom2.wav
192,192,22655,1,8,0:0:0:0:
448,192,22655,128,4,23008:0:0:0:0:
64,192,23008,1,2,0:0:0:0:
320,192,23185,1,4,0:0:0:0:
192,192,23185,1,8,0:0:0:0:
448,192,23361,1,2,0:0:0:0:
192,192,23714,1,4,0:0:0:0:
64,192,23714,128,8,24420:0:0:0:0:
320,192,24067,1,2,0:0:0:0:
192,192,24420,1,8,0:0:0:0:
448,192,24420,1,4,0:0:0:0:
320,192,24596,1,0,0:0:0:0:
192,192,24773,1,2,0:0:0:0:
448,192,24949,1,4,0:0:0:0:
64,192,24949,1,8,0:0:0:0:
320,192,25126,1,0,0:0:0:70:Tom1.wav
192,192,25302,1,0,0:0:0:70:Tom3.wav
320,192,25479,1,4,0:0:0:0:
64,192,25479,1,8,0:0:0:0:
448,192,25655,1,0,0:0:0:0:
64,192,25832,1,0,0:0:0:0:
192,192,26008,1,0,0:0:0:0:
320,192,26008,1,8,0:0:0:0:
448,192,26185,1,8,0:0:0:0:
64,192,26361,1,8,0:0:0:0:
320,192,26538,1,8,0:0:0:0:
320,192,26714,1,8,0:0:0:0:
192,192,26891,1,8,0:0:0:0:
192,192,27067,1,8,0:0:0:0:
320,192,27243,128,0,27596:0:0:0:0:
64,192,27596,1,0,0:0:0:0:
448,192,27773,128,0,28126:0:0:0:0:
192,192,28126,128,0,28479:0:0:0:0:
320,192,28479,1,0,0:0:0:0:
64,192,28655,128,0,29008:0:0:0:0:
192,192,29008,1,0,0:0:0:0:
320,192,29185,128,0,29714:0:0:0:0:
448,192,29714,128,0,30067:0:0:0:0:
64,192,30067,128,0,30420:0:0:0:0:
192,192,30420,1,0,0:0:0:0:
448,192,30596,1,0,0:0:0:0:
320,192,30773,1,0,0:0:0:0:
192,192,30949,1,0,0:0:0:0:
64,192,31126,1,0,0:0:0:0:
448,192,31302,1,0,0:0:0:0:
192,192,31479,1,0,0:0:0:0:
320,192,31655,1,0,0:0:0:0:
64,192,31832,1,0,0:0:0:0:
448,192,32008,128,0,32361:0:0:0:0:
320,192,32361,1,0,0:0:0:0:
192,192,32538,128,0,32891:0:0:0:0:
320,192,32891,128,0,33243:0:0:0:0:
192,192,33243,1,0,0:0:0:0:
64,192,33420,128,0,33949:0:0:0:0:
448,192,33949,128,0,34302:0:0:0:0:
192,192,34302,128,0,34655:0:0:0:0:
320,192,34655,1,0,0:0:0:0:
448,192,34832,128,0,35361:0:0:0:0:
64,192,35361,128,0,35714:0:0:0:0:
320,192,35714,128,0,36067:0:0:0:0:
192,192,36067,1,0,0:0:0:0:
64,192,36243,128,0,36773:0:0:0:0:
448,192,36773,128,0,37126:0:0:0:0:
192,192,38008,1,0,0:0:0:0:
448,192,38185,128,0,38538:0:0:0:0:
64,192,38538,1,2,0:0:0:0:
192,192,38538,1,4,0:0:0:0:
64,192,38891,1,2,0:0:0:0:
448,192,38891,1,0,0:0:0:0:
192,192,39243,1,2,0:0:0:0:
448,192,39243,1,0,0:0:0:0:
320,192,39596,1,0,0:0:0:0:
192,192,39596,1,2,0:0:0:0:
64,192,39949,1,2,0:0:0:0:
320,192,39949,1,0,0:0:0:0:
64,192,40302,1,2,0:0:0:0:
448,192,40302,1,0,0:0:0:0:
192,192,40655,1,2,0:0:0:0:
448,192,40655,1,0,0:0:0:0:
192,192,41008,1,0,0:0:0:0:
64,192,41008,1,2,0:0:0:0:
64,192,41361,1,0,0:0:0:0:
320,192,41361,1,2,0:0:0:0:
320,192,41714,1,2,0:0:0:0:
448,192,41714,1,0,0:0:0:0:
64,192,42067,1,0,0:0:0:0:
448,192,42067,1,2,0:0:0:0:
64,192,42420,1,0,0:0:0:0:
320,192,42420,1,2,0:0:0:0:
192,192,42773,1,2,0:0:0:0:
320,192,42773,1,0,0:0:0:0:
192,192,43126,1,2,0:0:0:0:
448,192,43126,1,0,0:0:0:0:
64,192,43479,1,2,0:0:0:0:
448,192,43479,1,0,0:0:0:0:
64,192,43832,1,0,0:0:0:0:
192,192,43832,1,2,0:0:0:0:
192,192,44185,1,2,0:0:0:0:
448,192,44185,1,0,0:0:0:0:
320,192,44538,1,2,0:0:0:0:
448,192,44538,1,0,0:0:0:0:
192,192,44891,1,2,0:0:0:0:
320,192,44891,1,0,0:0:0:0:
64,192,45243,1,0,0:0:0:0:
192,192,45243,1,2,0:0:0:0:
64,192,45596,1,2,0:0:0:0:
448,192,45596,1,0,0:0:0:0:
448,192,45949,1,0,0:0:0:0:
192,192,45949,1,2,0:0:0:0:
192,192,46302,1,2,0:0:0:0:
320,192,46302,1,0,0:0:0:0:
64,192,46655,1,0,0:0:0:0:
320,192,46655,1,2,0:0:0:0:
64,192,47008,1,0,0:0:0:0:
192,192,47008,1,2,0:0:0:0:
192,192,47361,1,2,0:0:0:0:
448,192,47361,1,0,0:0:0:0:
64,192,47714,1,2,0:0:0:0:
448,192,47714,1,0,0:0:0:0:
64,192,48067,1,0,0:0:0:0:
320,192,48067,1,2,0:0:0:0:
320,192,48420,1,2,0:0:0:0:
448,192,48420,1,0,0:0:0:0:
192,192,48596,1,12,0:0:0:0:
64,192,48773,1,2,0:0:0:0:
448,192,48773,1,0,0:0:0:0:
320,192,48949,128,8,49126:0:0:0:0:
192,192,49126,1,8,0:0:0:0:
64,192,49126,1,0,0:0:0:0:
448,192,49302,1,0,0:0:0:70:Tom1.wav
64,192,49479,1,0,0:0:0:70:Tom2.wav
192,192,49655,1,0,0:0:0:70:Tom3.wav
320,192,49832,1,2,0:0:0:0:
448,192,49832,1,4,0:0:0:0:
192,192,50185,1,2,0:0:0:0:
64,192,50538,1,8,0:0:0:0:
448,192,50538,1,0,0:0:0:0:
320,192,50891,1,2,0:0:0:0:
448,192,51243,1,2,0:0:0:0:
192,192,51420,1,0,0:0:0:0:
64,192,51420,1,8,0:0:0:0:
320,192,51596,1,2,0:0:0:0:
64,192,51773,1,0,0:0:0:0:
192,192,51949,1,8,0:0:0:0:
448,192,51949,1,0,0:0:0:0:
320,192,52302,1,2,0:0:0:0:
192,192,52655,1,4,0:0:0:0:
64,192,52655,1,2,0:0:0:0:
448,192,53008,1,2,0:0:0:0:
192,192,53361,1,0,0:0:0:0:
320,192,53361,1,8,0:0:0:0:
64,192,53714,1,2,0:0:0:0:
320,192,53891,1,8,0:0:0:0:
448,192,53891,1,0,0:0:0:0:
192,192,54067,1,2,0:0:0:0:
448,192,54243,1,0,0:0:0:0:
64,192,54243,1,8,0:0:0:0:
320,192,54420,1,2,0:0:0:0:
192,192,54596,128,8,54773:0:0:0:0:
448,192,54773,1,0,0:0:0:70:Tom1.wav
320,192,54773,1,8,0:0:0:0:
64,192,54949,1,0,0:0:0:70:Tom2.wav
192,192,55126,1,0,0:0:0:70:Tom3.wav
320,192,55302,1,4,0:0:0:0:
448,192,55479,1,4,0:0:0:0:
192,192,55479,1,2,0:0:0:0:
64,192,55832,1,2,0:0:0:0:
192,192,56185,1,8,0:0:0:0:
448,192,56185,1,0,0:0:0:0:
64,192,56538,1,2,0:0:0:0:
192,192,56714,1,0,0:0:0:0:
448,192,56891,1,2,0:0:0:0:
320,192,57067,1,0,0:0:0:0:
192,192,57243,1,0,0:0:0:0:
64,192,57243,1,8,0:0:0:0:
448,192,57420,1,2,0:0:0:0:
320,192,57596,1,0,0:0:0:0:
64,192,57596,1,8,0:0:0:0:
192,192,57773,1,0,0:0:0:70:Tom1.wav
320,192,57949,1,0,0:0:0:70:Tom2.wav
448,192,57949,1,0,0:0:0:0:
64,192,58302,1,8,0:0:0:0:
192,192,58302,128,4,58655:0:0:0:0:
320,192,58655,1,8,0:0:0:0:
64,192,58832,1,8,0:0:0:0:
320,192,59008,1,8,0:0:0:0:
192,192,59185,1,8,0:0:0:0:
448,192,59361,1,8,0:0:0:0:
192,192,59538,1,8,0:0:0:0:
320,192,59714,1,8,0:0:0:0:
64,192,60067,1,8,0:0:0:0:
448,192,60067,128,4,60773:0:0:0:0:
192,192,60773,128,2,61126:0:0:0:0:
320,192,61126,1,2,0:0:0:0:
448,192,61126,1,4,0:0:0:0:
64,192,61479,1,8,0:0:0:0:
448,192,61479,1,0,0:0:0:0:
192,192,61655,1,0,0:0:0:0:
320,192,61832,1,2,0:0:0:0:
192,192,62185,1,0,0:0:0:0:
64,192,62185,1,8,0:0:0:0:
320,192,62361,1,0,0:0:0:0:
448,192,62538,1,2,0:0:0:0:
320,192,62891,1,0,0:0:0:0:
192,192,62891,1,8,0:0:0:0:
64,192,63243,1,2,0:0:0:0:
320,192,63596,1,8,0:0:0:0:
448,192,63596,1,0,0:0:0:0:
192,192,63773,1,0,0:0:0:0:
64,192,63949,1,2,0:0:0:0:
192,192,64302,1,8,0:0:0:0:
448,192,64302,1,0,0:0:0:0:
320,192,64479,1,0,0:0:0:0:
192,192,64655,1,2,0:0:0:0:
64,192,65008,1,0,0:0:0:0:
320,192,65008,1,8,0:0:0:0:
192,192,65185,1,0,0:0:0:0:
320,192,65361,1,2,0:0:0:0:
192,192,65714,1,8,0:0:0:0:
448,192,65714,128,0,66067:0:0:0:0:
64,192,66067,128,2,66420:0:0:0:0:
448,192,66420,1,0,0:0:0:0:
320,192,66420,128,8,66773:0:0:0:0:
192,192,66773,128,6,67126:0:0:0:0:
64,192,66773,1,0,0:0:0:0:
448,192,67126,1,0,0:0:0:0:
320,192,67126,1,8,0:0:0:0:
192,192,67302,1,0,0:0:0:0:
64,192,67479,1,2,0:0:0:0:
320,192,67832,128,8,68185:0:0:0:0:
448,192,67832,1,0,0:0:0:0:
64,192,68185,128,2,68538:0:0:0:0:
448,192,68538,1,0,0:0:0:0:
192,192,68538,1,8,0:0:0:0:
320,192,68714,1,0,0:0:0:0:
192,192,68891,1,2,0:0:0:0:
448,192,69243,1,0,0:0:0:0:
64,192,69243,128,8,69596:0:0:0:0:
320,192,69596,128,2,69949:0:0:0:0:
192,192,69949,1,8,0:0:0:0:
64,192,69949,1,0,0:0:0:0:
320,192,70126,1,0,0:0:0:0:
448,192,70302,1,2,0:0:0:0:
64,192,70479,1,0,0:0:0:0:
192,192,70655,1,8,0:0:0:0:
320,192,70655,1,0,0:0:0:0:
448,192,70832,1,0,0:0:0:0:
64,192,71008,1,2,0:0:0:0:
192,192,71185,1,12,0:0:0:0:
192,192,71361,1,12,0:0:0:0:
448,192,71538,128,8,71714:0:0:0:0:
64,192,71714,1,2,0:0:0:0:
320,192,71891,1,0,0:0:0:70:Tom1.wav
192,192,72067,1,4,0:0:0:0:
64,192,72067,1,8,0:0:0:0:
320,192,72420,1,2,0:0:0:0:
448,192,72420,1,4,0:0:0:0:
192,192,72773,1,0,0:0:0:0:
64,192,72773,1,8,0:0:0:0:
320,192,73038,1,8,0:0:0:0:
448,192,73126,1,2,0:0:0:0:
64,192,73479,1,8,0:0:0:0:
320,192,73479,1,0,0:0:0:0:
192,192,73832,1,2,0:0:0:0:
448,192,74185,1,0,0:0:0:0:
320,192,74185,1,8,0:0:0:0:
192,192,74449,1,8,0:0:0:0:
64,192,74538,1,2,0:0:0:0:
448,192,74891,1,0,0:0:0:0:
192,192,74891,1,8,0:0:0:0:
320,192,75243,1,2,0:0:0:0:
192,192,75596,1,8,0:0:0:0:
64,192,75596,1,0,0:0:0:0:
448,192,75861,1,8,0:0:0:0:
320,192,75949,1,2,0:0:0:0:
64,192,76302,1,8,0:0:0:0:
448,192,76302,1,0,0:0:0:0:
192,192,76655,1,2,0:0:0:0:
448,192,77008,1,0,0:0:0:0:
320,192,77008,1,8,0:0:0:0:
64,192,77273,1,8,0:0:0:0:
192,192,77361,1,2,0:0:0:0:
320,192,77538,1,8,0:0:0:0:
64,192,77714,1,2,0:0:0:0:
448,192,77891,128,8,78067:0:0:0:0:
192,192,78067,1,0,0:0:0:0:
64,192,78067,128,2,78420:0:0:0:0:
320,192,78420,1,8,0:0:0:0:
448,192,78420,1,0,0:0:0:0:
192,192,78596,1,0,0:0:0:0:
320,192,78773,128,2,79126:0:0:0:0:
448,192,79126,1,0,0:0:0:0:
64,192,79126,1,8,0:0:0:0:
192,192,79479,128,0,79832:0:0:0:0:
64,192,79479,1,2,0:0:0:0:
448,192,79832,1,0,0:0:0:0:
320,192,79832,1,8,0:0:0:0:
64,192,80008,1,0,0:0:0:0:
448,192,80185,1,2,0:0:0:0:
320,192,80361,1,0,0:0:0:0:
192,192,80538,1,8,0:0:0:0:
64,192,80538,1,0,0:0:0:0:
448,192,80714,1,0,0:0:0:0:
64,192,80891,1,8,0:0:0:0:
320,192,80891,1,4,0:0:0:0:
192,192,81067,1,2,0:0:0:0:
448,192,81243,1,2,0:0:0:0:
64,192,81420,1,0,0:0:0:0:
192,192,81420,1,8,0:0:0:0:
320,192,81596,128,2,81773:0:0:0:0:
192,192,81773,1,8,0:0:0:0:
448,192,81949,128,2,82126:0:0:0:0:
64,192,82126,1,0,0:0:0:70:Tom2.wav
320,192,82302,1,2,0:0:0:0:
448,192,82302,128,4,83714:0:0:0:0:
64,192,83185,1,0,0:0:0:70:Tom1.wav
320,192,83361,1,0,0:0:0:70:Tom3.wav
64,192,83714,128,2,86538:0:0:0:0:
192,192,83714,1,4,0:0:0:0:
448,192,84067,1,2,0:0:0:0:
192,192,84420,1,2,0:0:0:0:
448,192,84773,1,2,0:0:0:0:
320,192,85126,1,2,0:0:0:0:
192,192,85479,1,2,0:0:0:0:
448,192,85832,1,2,0:0:0:0:
192,192,86185,1,2,0:0:0:0:
448,192,86538,128,0,87596:0:0:0:0:
320,192,86538,1,2,0:0:0:0:
64,192,86891,1,2,0:0:0:0:
192,192,87243,1,2,0:0:0:0:
320,192,87596,1,2,0:0:0:0:
64,192,87773,1,8,0:0:0:0:
192,192,87773,1,4,0:0:0:0:
448,192,88126,1,0,0:0:0:70:Tom3.wav
192,192,88302,1,0,0:0:0:70:Tom3.wav
320,192,88479,1,0,0:0:0:70:Tom3.wav
64,192,88655,1,8,0:0:0:0:
320,192,88832,1,8,0:0:0:0:
448,192,88832,1,0,0:0:0:0:
192,192,89008,1,8,0:0:0:0:
64,192,89008,1,0,0:0:0:0:
320,192,89185,1,8,0:0:0:0:
448,192,89185,1,0,0:0:0:0:
