osu file format v14

[General]
AudioFilename: audio.mp3
AudioLeadIn: 0
PreviewTime: 60777
Countdown: 0
SampleSet: Soft
StackLeniency: 0.5
Mode: 0
LetterboxInBreaks: 0
WidescreenStoryboard: 1

[Editor]
Bookmarks: 79130,86189,87777
DistanceSpacing: 1
BeatDivisor: 4
GridSize: 32
TimelineZoom: 2.5

[Metadata]
Title:Sayonara no Yukue ~TV size~
TitleUnicode:さよならのゆくえ ~TV size~
Artist:Alisa Takigawa
ArtistUnicode:瀧川ありさ
Creator:Jennglebells
Version:Normal
Source:終物語
Tags:owarimonogatari ending bakemonogatari light novel ed
BeatmapID:1314832
BeatmapSetID:606418

[Difficulty]
HPDrainRate:3
CircleSize:3
OverallDifficulty:4
ApproachRate:5
SliderMultiplier:1.3
SliderTickRate:1

[Events]
//Background and Video events
0,0,"Owarimonogatari.jpg",0,0
//Break Periods
//Storyboard Layer 0 (Background)
//Storyboard Layer 1 (Fail)
//Storyboard Layer 2 (Pass)
//Storyboard Layer 3 (Foreground)
//Storyboard Sound Samples

[TimingPoints]
425,352.941176470588,4,2,0,30,1,0
2895,-142.857142857143,4,2,0,30,0,0
15424,-142.857142857143,4,2,0,30,0,0
24424,-142.857142857143,4,2,0,50,0,0
24954,-142.857142857143,4,2,0,55,0,0
25483,-142.857142857143,4,2,0,60,0,0
26013,-142.857142857143,4,2,0,60,0,0
27248,-166.666666666667,4,2,0,30,0,0
38366,-133.333333333333,4,2,0,40,0,0
49836,-133.333333333333,4,2,0,30,0,0
58307,-125,4,2,0,35,0,0
58660,-125,4,2,0,45,0,0
59013,-117.647058823529,4,2,0,50,0,0
59366,-117.647058823529,4,2,0,55,0,0
59895,-117.647058823529,4,2,0,60,0,0
60072,-111.111111111111,4,2,0,60,0,0
60777,-111.111111111111,4,2,0,60,0,0
61130,-111.111111111111,4,2,0,60,0,1
82307,-125,4,2,0,50,0,0
88660,-125,4,2,0,30,0,0
89013,-125,4,2,0,30,0,0

[Colours]
Combo1 : 74,74,74
Combo2 : 154,16,19
Combo3 : 160,160,160

[HitObjects]
256,192,513,12,0,2542,0:0:0:0:
12,116,3248,6,0,P|103:146|198:109,1,181.999994445801,2|0,0:0|0:0,0:0:0:0:
265,83,4307,1,0,0:0:0:0:
341,132,4660,2,0,P|336:177|339:222,1,90.9999972229005,2|0,0:0|0:0,0:0:0:0:
253,259,5366,2,0,P|254:213|248:168,1,90.9999972229005,0|0,0:0|0:0,0:0:0:0:
153,169,6072,6,0,P|111:183|52:161,2,90.9999972229005,2|0|0,0:0|0:0|0:0,0:0:0:0:
226,115,7130,1,0,0:0:0:0:
315,129,7483,2,0,P|345:151|355:220,1,90.9999972229005,2|2,0:0|0:0,0:0:0:0:
332,288,8189,2,0,P|299:305|234:289,1,90.9999972229005,2|2,0:0|0:0,0:0:0:0:
166,259,8895,6,0,P|106:243|32:267,1,136.499995834351,2|2,0:0|0:0,0:0:0:0:
57,128,9954,1,0,0:0:0:0:
143,156,10307,2,0,P|203:172|277:148,1,136.499995834351,2|0,0:0|0:0,0:0:0:0:
234,282,11366,1,0,0:0:0:0:
318,249,11719,6,0,P|383:235|457:271,2,136.499995834351,2|0|0,0:0|0:0|0:0,0:0:0:0:
234,278,13130,2,0,B|179:264|115:305|115:305|125:242|100:184|100:184|160:200|210:168,1,363.999988891602,0|2,0:0|0:0,0:0:0:0:
442,72,15601,5,8,0:3:0:0:
380,138,15954,2,0,P|290:156|232:132,1,136.499995834351,4|0,1:0|1:0,0:0:0:0:
118,179,17013,2,0,P|97:245|123:327,1,136.499995834351,4|0,0:1|1:0,0:0:0:0:
247,296,18072,2,0,P|292:286|337:298,1,90.9999972229005,0|4,1:0|0:3,0:0:0:0:
421,265,18777,6,0,P|432:192|416:127,1,136.499995834351,4|0,1:0|1:0,0:0:0:0:
291,51,19836,2,0,P|276:97|279:141,1,90.9999972229005,4|4,0:1|0:3,0:0:0:0:
304,189,20366,1,0,1:0:0:0:
215,292,20895,2,0,P|155:304|110:289,1,90.9999972229005,0|4,1:0|0:3,0:0:0:0:
49,248,21601,6,0,P|27:179|46:114,1,136.499995834351,4|0,1:0|1:0,0:0:0:0:
158,45,22660,1,4,0:1:0:0:
277,111,23189,2,0,P|345:133|408:114,1,136.499995834351,0|0,1:0|1:0,0:0:0:0:
471,178,24072,1,4,0:3:0:0:
447,265,24424,6,0,B|396:280|396:280|362:263|362:263|319:276,1,136.499995834351,4|4,0:0|0:0,0:0:0:0:
193,324,25483,2,0,B|181:272|181:272|197:171,1,136.499995834351,4|4,0:0|0:0,0:0:0:0:
57,196,26542,2,0,L|75:86,1,90.9999972229005,4|0,0:0|1:0,0:0:0:0:
151,56,27248,6,0,P|213:91|270:85,1,116.999996429443,0|0,0:0|0:0,0:0:0:0:
336,53,28130,2,0,P|391:42|423:53,1,77.999997619629,0|0,0:0|0:0,0:0:0:0:
445,74,28660,2,0,P|461:126|443:203,1,116.999996429443,2|0,0:0|0:0,0:0:0:0:
408,261,29542,2,0,L|367:287,1,38.9999988098145,0|0,0:0|0:0,0:0:0:0:
289,293,30072,6,0,P|251:284|202:295,1,77.999997619629,2|0,0:0|0:0,0:0:0:0:
170,296,30601,2,0,P|115:259|101:198,1,116.999996429443,2|0,0:0|0:0,0:0:0:0:
116,173,31307,2,0,P|167:154|206:164,1,77.999997619629,0|0,0:0|0:0,0:0:0:0:
252,98,32013,2,0,P|305:120|373:100,1,116.999996429443,0|0,0:0|0:0,0:0:0:0:
446,122,32895,6,0,L|465:247,1,116.999996429443,2|2,0:0|0:0,0:0:0:0:
386,340,33954,1,0,0:0:0:0:
300,347,34307,2,0,B|236:343|236:343|177:319,1,116.999996429443,2|2,0:0|0:0,0:0:0:0:
97,230,35366,1,2,0:0:0:0:
125,149,35719,6,0,B|110:94|110:94|119:22,2,116.999996429443,2|2|0,0:0|0:0|0:0,0:0:0:0:
187,208,37130,1,0,0:0:0:0:
440,65,38366,5,0,0:0:0:0:
440,65,38542,2,0,P|392:84|345:71,1,97.50000371933,4|0,0:3|1:0,0:0:0:0:
252,58,39248,2,0,P|202:46|156:65,1,97.50000371933,0|0,0:0|1:0,0:0:0:0:
91,131,39954,2,0,P|103:184|80:241,1,97.50000371933,4|0,0:3|1:0,0:0:0:0:
136,311,40660,2,0,P|183:322|244:294,1,97.50000371933,0|0,0:0|1:0,0:0:0:0:
323,332,41366,6,0,P|397:309|470:341,2,146.250005578995,4|0|0,0:3|0:0|1:0,0:0:0:0:
292,239,42777,2,0,L|300:123,1,97.50000371933,4|0,0:3|1:0,0:0:0:0:
344,160,43307,2,0,P|391:170|450:146,1,97.50000371933,0|0,0:0|0:0,0:0:0:0:
473,123,43836,1,0,1:0:0:0:
405,52,44189,6,0,P|333:56|273:16,1,146.250005578995,4|0,0:3|0:0,0:0:0:0:
132,54,45248,1,0,1:0:0:0:
116,150,45601,2,0,L|127:295,1,146.250005578995,4|0,0:3|0:0,0:0:0:0:
236,198,46660,1,0,1:0:0:0:
291,97,47013,6,0,P|337:105|390:91,1,97.50000371933,4|0,0:3|1:0,0:0:0:0:
467,147,47719,2,0,P|479:196|463:262,1,97.50000371933,0|0,0:0|1:0,0:0:0:0:
454,287,48248,1,0,0:0:0:0:
417,319,48424,2,0,P|365:336|308:312,1,97.50000371933,4|0,0:3|1:0,0:0:0:0:
227,323,49130,2,0,P|177:340|126:324,1,97.50000371933,4|0,0:3|1:0,0:0:0:0:
90,309,49660,1,0,0:0:0:0:
57,272,49836,6,0,P|46:168|78:66,1,195.00000743866,4|0,0:0|1:0,0:0:0:0:
264,63,51248,2,0,P|353:98|464:59,1,195.00000743866,0|0,3:0|1:0,0:0:0:0:
490,160,52307,1,8,0:3:0:0:
435,240,52660,6,0,P|394:254|323:237,1,97.50000371933,4|0,0:0|1:0,0:0:0:0:
254,201,53366,2,0,P|232:152|245:91,1,97.50000371933,0|0,1:0|1:0,0:0:0:0:
267,72,53895,2,0,L|332:94,2,48.750001859665,0|4|0,1:0|0:3|1:0,0:0:0:0:
171,50,54601,2,0,B|121:44|121:44|66:56,1,97.50000371933,0|8,1:0|0:3,0:0:0:0:
32,77,55130,1,4,0:3:0:0:
56,171,55483,6,0,B|56:268|42:300|42:300|81:292|114:309,1,195.00000743866,4|0,0:0|1:0,0:0:0:0:
201,287,56542,1,0,3:0:0:0:
290,326,56895,2,0,P|340:324|391:292,1,97.50000371933,0|0,0:0|0:0,0:0:0:0:
420,212,57601,2,0,P|419:158|388:102,1,97.50000371933,0|8,1:0|0:3,0:0:0:0:
321,52,58307,6,0,B|225:39|183:106|183:106|140:96|115:115,1,208,4|0,0:0|1:0,0:0:0:0:
68,195,59366,1,0,1:0:0:0:
128,287,59719,2,0,B|185:303|185:303|247:289,1,110.50000210762,0|4,1:0|0:0,0:0:0:0:
425,156,60777,1,0,0:0:0:0:
343,71,61130,6,0,P|291:44|215:51,1,116.999996429443,4|0,0:0|1:0,0:0:0:0:
180,70,61660,2,0,P|132:98|66:94,1,116.999996429443,0|0,0:0|0:0,0:0:0:0:
36,143,62189,1,0,1:0:0:0:
52,258,62542,2,0,P|124:295|173:291,1,116.999996429443,4|0,0:3|1:0,0:0:0:0:
215,281,63072,2,0,P|287:252|398:288,1,175.499994644165,0|0,0:0|1:0,0:0:0:0:
486,227,63954,6,0,P|504:168|475:95,1,116.999996429443,4|0,0:3|1:0,0:0:0:0:
453,70,64483,1,0,0:0:0:0:
396,85,64660,2,0,P|349:62|261:75,1,116.999996429443,0|0,0:0|1:0,0:0:0:0:
182,119,65366,1,4,0:3:0:0:
57,112,65719,1,0,1:0:0:0:
20,232,66072,1,0,0:0:0:0:
119,308,66424,1,0,1:0:0:0:
211,236,66777,6,0,P|266:218|330:248,1,116.999996429443,4|0,0:0|1:0,0:0:0:0:
378,242,67307,1,0,0:0:0:0:
384,300,67483,2,0,P|334:348|267:355,1,116.999996429443,0|0,0:0|1:0,0:0:0:0:
171,354,68189,2,0,P|110:341|70:297,1,116.999996429443,4|0,0:3|1:0,0:0:0:0:
57,246,68719,2,0,P|59:164|136:88,1,175.499994644165,0|0,0:0|1:0,0:0:0:0:
234,110,69601,6,0,P|289:126|360:98,1,116.999996429443,4|0,0:3|1:0,0:0:0:0:
402,98,70130,2,0,P|429:160|424:234,1,116.999996429443,0|0,0:0|0:0,0:0:0:0:
405,262,70660,1,0,1:0:0:0:
296,305,71013,2,0,B|235:292|235:292|159:315,1,116.999996429443,4|0,0:3|1:0,0:0:0:0:
68,276,71719,2,0,L|59:152,1,116.999996429443,0|0,1:0|1:0,0:0:0:0:
108,53,72424,6,0,P|174:70|243:46,1,116.999996429443,4|0,0:0|1:0,0:0:0:0:
273,84,72954,2,0,P|338:100|408:74,1,116.999996429443,0|0,0:0|0:0,0:0:0:0:
441,105,73483,1,0,1:0:0:0:
413,218,73836,1,4,0:3:0:0:
327,297,74189,2,0,P|261:305|195:277,1,116.999996429443,0|0,1:0|0:0,0:0:0:0:
96,298,74895,1,0,1:0:0:0:
58,186,75248,6,0,P|28:199|-19:202,2,58.4999982147217,4|0|0,0:3|0:0|1:0,0:0:0:0:
94,140,75777,2,0,P|150:121|221:150,1,116.999996429443,0|0,0:0|0:0,0:0:0:0:
235,186,76307,2,0,P|294:209|357:200,1,116.999996429443,0|4,1:0|0:3,0:0:0:0:
444,139,77013,2,0,P|419:123|381:121,1,58.4999982147217,0|0,1:0|0:0,0:0:0:0:
356,72,77366,2,0,P|293:74|240:49,1,116.999996429443,4|0,0:3|1:0,0:0:0:0:
127,49,78072,6,0,B|16:130|28:263|28:263|82:218|149:219|149:219,1,350.99998928833,4|0,0:0|1:0,0:0:0:0:
169,328,79483,2,0,P|243:338|291:298,1,116.999996429443,4|0,0:3|1:0,0:0:0:0:
390,344,80189,2,0,P|418:299|404:219,1,116.999996429443,0|0,0:0|1:0,0:0:0:0:
490,148,80895,6,0,P|430:54|348:41,1,175.499994644165,4|2,0:3|0:3,0:0:0:0:
315,28,81601,1,0,0:0:0:0:
227,105,81954,1,0,1:0:0:0:
280,209,82307,1,4,0:0:0:0:
58,72,83189,2,0,L|69:144,1,52,8|0,0:3|3:0,0:0:0:0:
99,222,83719,6,0,P|143:254|210:243,1,104,4|0,0:0|0:0,0:0:0:0:
294,248,84424,2,0,P|349:248|392:216,1,104,0|0,0:0|0:0,0:0:0:0:
420,122,85130,2,0,B|359:118|315:153|315:153|206:59|114:108,1,312
48,161,86542,6,0,B|97:230|77:329|77:329|179:288|285:327,1,364,2|0,0:0|1:0,0:0:0:0:
359,284,88130,2,0,L|372:220,2,52,0|0|0,1:0|1:0|1:0,0:0:0:0:
324,244,88660,2,0,L|331:182,1,52,0|0,1:0|1:0,0:0:0:0:
282,215,89013,2,0,L|274:142,1,52,0|0,1:0|1:0,0:0:0:0:
