osu file format v14

[General]
AudioFilename: audio.mp3
AudioLeadIn: 0
PreviewTime: 60777
Countdown: 0
SampleSet: Soft
StackLeniency: 0.5
Mode: 0
LetterboxInBreaks: 0
WidescreenStoryboard: 0

[Editor]
Bookmarks: 55307,57601
DistanceSpacing: 3
BeatDivisor: 4
GridSize: 16
TimelineZoom: 2.5

[Metadata]
Title:Sayonara no Yukue ~TV size~
TitleUnicode:さよならのゆくえ ~TV size~
Artist:Alisa Takigawa
ArtistUnicode:瀧川ありさ
Creator:Jennglebells
Version:Insane
Source:終物語
Tags:owarimonogatari ending bakemonogatari light novel ed
BeatmapID:1281114
BeatmapSetID:606418

[Difficulty]
HPDrainRate:6
CircleSize:4
OverallDifficulty:8
ApproachRate:9
SliderMultiplier:1.4
SliderTickRate:1

[Events]
//Background and Video events
0,0,"Owarimonogatari.jpg",0,0
//Break Periods
//Storyboard Layer 0 (Background)
//Storyboard Layer 1 (Fail)
//Storyboard Layer 2 (Pass)
//Storyboard Layer 3 (Foreground)
//Storyboard Sound Samples

[TimingPoints]
425,352.941176470588,4,2,0,30,1,0
2895,-125,4,2,0,30,0,0
15424,-125,4,2,0,30,0,0
18601,-111.111111111111,4,2,0,30,0,0
24424,-100,4,2,0,50,0,0
24954,-100,4,2,0,55,0,0
25483,-100,4,2,0,60,0,0
26013,-100,4,2,0,60,0,0
27248,-166.666666666666,4,2,0,30,0,0
38366,-125,4,2,0,40,0,0
49836,-166.666666666667,4,2,0,30,0,0
55483,-142.857142857143,4,2,0,30,0,0
58307,-125,4,2,0,35,0,0
58660,-111.111111111111,4,2,0,45,0,0
59013,-100,4,2,0,50,0,0
59366,-90.9090909090909,4,2,0,55,0,0
59895,-90.9090909090909,4,2,0,60,0,0
60777,-76.9230769230769,4,2,0,60,0,0
61130,-76.9230769230769,4,2,0,60,0,1
82307,-90.9090909090909,4,2,0,50,0,0
88660,-125,4,2,0,30,0,0
89013,-200,4,2,0,30,0,0

[Colours]
Combo1 : 74,74,74
Combo2 : 154,16,19
Combo3 : 160,160,160

[HitObjects]
256,192,513,12,0,2895,0:0:0:0:
288,245,3248,6,0,P|232:251|181:220,1,112,2|0,0:0|0:0,0:0:0:0:
7,148,3777,2,0,P|82:111|160:135,1,168,0|0,0:0|0:0,0:0:0:0:
404,257,4660,6,0,P|404:207|400:183,1,56,2|0,0:0|0:0,0:0:0:0:
331,119,5013,1,0,0:0:0:0:
220,184,5189,1,0,0:0:0:0:
223,34,5366,1,0,0:0:0:0:
331,119,5542,1,0,0:0:0:0:
130,103,5719,2,0,P|103:101|60:83,1,56,0|0,0:0|0:0,0:0:0:0:
41,246,6072,6,0,P|94:231|145:250,1,112,2|0,0:0|0:0,0:0:0:0:
224,319,6601,1,0,0:0:0:0:
288,238,6777,2,0,P|330:256|399:238,1,112,0|0,0:0|0:0,0:0:0:0:
155,121,7483,6,0,P|98:135|46:114,2,112,2|2|2,0:0|0:0|0:0,0:0:0:0:
256,224,8542,1,2,0:0:0:0:
372,153,8895,6,0,P|390:95|374:40,1,112,2|0,0:0|0:0,0:0:0:0:
256,128,9424,1,2,0:0:0:0:
256,128,9954,1,0,0:0:0:0:
140,231,10307,6,0,P|122:289|138:344,1,112,2|0,0:0|0:0,0:0:0:0:
256,256,10836,1,0,0:0:0:0:
256,256,11366,1,0,0:0:0:0:
424,123,11719,6,0,P|378:101|317:119,1,112,2|0,0:0|0:0,0:0:0:0:
80,188,12248,2,0,P|126:166|187:184,1,112,0|0,0:0|0:0,0:0:0:0:
271,322,12777,2,0,L|263:228,1,56,0|0,0:0|0:0,0:0:0:0:
368,224,13130,5,0,0:0:0:0:
368,224,13307,1,0,0:0:0:0:
368,80,13483,2,0,L|294:63,1,56,0|0,0:0|0:0,0:0:0:0:
144,144,13836,2,0,L|211:131,1,56,0|0,0:0|0:0,0:0:0:0:
368,224,14189,2,0,L|293:202,1,56,0|0,0:0|0:0,0:0:0:0:
186,300,14542,5,2,0:0:0:0:
103,85,15424,1,0,0:0:0:0:
196,113,15601,2,0,L|228:105,3,28,8|0|0|0,0:3|0:0|0:0|0:0,0:0:0:0:
187,320,15954,6,0,P|185:236|152:173,1,112,4|8,1:0|0:3,0:0:0:0:
311,338,16483,1,0,1:0:0:0:
379,264,16660,2,0,P|426:267|454:261,1,56,8|0,0:3|0:0,0:0:0:0:
477,105,17013,6,0,P|422:94|377:61,1,112,4|4,0:1|0:3,0:0:0:0:
322,149,17542,2,0,P|272:114|219:106,1,112,0|0,1:0|0:0,0:0:0:0:
133,183,18072,1,0,1:0:0:0:
221,264,18248,2,0,P|220:314|210:345,1,56,0|4,0:0|0:3,0:0:0:0:
417,185,18601,5,0,0:0:0:0:
417,185,18689,1,0,0:0:0:0:
417,185,18777,2,0,P|357:207|291:184,1,125.999996154785,4|8,1:0|0:3,0:0:0:0:
222,117,19307,1,0,1:0:0:0:
345,92,19483,2,0,P|344:48|332:19,1,62.9999980773926,8|0,0:3|0:0,0:0:0:0:
76,71,19836,6,0,P|70:148|79:210,1,125.999996154785,4|4,0:1|0:3,0:0:0:0:
183,247,20366,2,0,L|265:269,1,62.9999980773926,0|0,1:0|0:0,0:0:0:0:
267,353,20719,1,0,0:0:0:0:
237,168,20895,1,0,1:0:0:0:
97,285,21072,1,0,0:0:0:0:
97,285,21160,1,0,0:0:0:0:
97,285,21248,1,4,0:3:0:0:
25,164,21424,5,0,0:0:0:0:
25,164,21513,1,0,0:0:0:0:
25,164,21601,2,0,P|74:188|147:178,1,125.999996154785,4|8,1:0|0:3,0:0:0:0:
212,95,22130,1,0,1:0:0:0:
244,268,22307,1,8,0:3:0:0:
278,179,22483,5,0,0:0:0:0:
278,179,22572,1,0,0:0:0:0:
278,179,22660,2,0,P|342:172|403:228,1,125.999996154785,4|4,0:1|0:3,0:0:0:0:
435,318,23189,5,0,1:0:0:0:
506,256,23366,2,0,P|508:219|503:172,1,62.9999980773926,0|0,0:0|0:0,0:0:0:0:
278,179,23719,2,0,P|279:210|283:241,1,62.9999980773926,0|0,1:0|0:0,0:0:0:0:
397,141,24072,2,0,P|395:104|387:67,1,62.9999980773926,4|0,0:3|0:0,0:0:0:0:
105,133,24424,6,0,P|143:134|180:114,1,70,4|0,0:0|0:0,0:0:0:0:
235,42,24777,1,0,0:0:0:0:
446,215,24954,6,0,P|408:216|371:196,1,70,4|8,0:0|0:3,0:0:0:0:
316,124,25307,1,4,0:3:0:0:
81,285,25483,6,0,P|119:286|156:266,1,70,4|0,0:0|0:0,0:0:0:0:
211,194,25836,1,0,0:0:0:0:
417,350,26013,6,0,P|379:351|342:331,1,70,4|0,0:0|1:0,0:0:0:0:
287,259,26366,1,0,1:0:0:0:
388,183,26542,2,0,L|382:242,3,35,4|0|0|0,0:0|0:0|1:0|0:0,0:0:0:0:
289,86,26895,2,0,L|295:145,3,35,0|0|0|0,1:0|0:0|1:0|0:0,0:0:0:0:
372,27,27248,6,0,P|420:30|473:91,1,125.999996154785,0|0,0:0|0:0,0:0:0:0:
435,205,27954,1,0,0:0:0:0:
324,171,28130,2,0,P|299:164|274:148,1,41.9999987182618,0|0,0:0|0:0,0:0:0:0:
210,87,28483,1,0,0:0:0:0:
77,174,28660,6,0,P|121:173|170:146,1,83.9999974365235,2|0,0:0|0:0,0:0:0:0:
292,255,29189,2,0,P|241:251|201:220,1,83.9999974365235,0|0,0:0|0:0,0:0:0:0:
284,127,29719,2,0,L|275:175,1,41.9999987182618,0|0,0:0|0:0,0:0:0:0:
367,234,30072,6,0,L|360:183,1,41.9999987182618,2|0,0:0|0:0,0:0:0:0:
454,262,30424,1,0,0:0:0:0:
490,176,30601,2,0,L|488:116,1,41.9999987182618,2|2,0:0|0:0,0:0:0:0:
397,70,30954,1,2,0:0:0:0:
397,70,31130,1,0,0:0:0:0:
278,73,31307,6,0,P|207:89|148:59,1,125.999996154785,0|0,0:0|0:0,0:0:0:0:
0,134,32013,2,0,P|34:148|91:142,1,83.9999974365235,0|0,0:0|0:0,0:0:0:0:
181,191,32542,2,0,P|209:185|237:188,1,41.9999987182618,0|0,0:0|0:0,0:0:0:0:
379,128,32895,6,0,P|407:122|435:125,1,41.9999987182618,2|0,0:0|0:0,0:0:0:0:
414,215,33248,1,0,0:0:0:0:
325,275,33424,2,0,P|308:232|305:190,1,83.9999974365235,2|0,0:0|0:0,0:0:0:0:
216,271,33954,2,0,P|186:280|149:284,1,41.9999987182618,0|0,0:0|0:0,0:0:0:0:
103,186,34307,6,0,P|147:189|196:158,1,83.9999974365235,2|0,0:0|0:0,0:0:0:0:
429,89,34836,2,0,P|385:92|336:61,1,83.9999974365235,2|0,0:0|0:0,0:0:0:0:
138,91,35366,1,2,0:0:0:0:
206,4,35542,1,0,0:0:0:0:
254,119,35719,6,0,P|264:168|257:220,1,83.9999974365235,2|0,0:0|0:0,0:0:0:0:
136,333,36248,2,0,P|134:291|143:250,1,83.9999974365235,2|0,0:0|0:0,0:0:0:0:
261,201,36777,2,0,P|301:210|343:208,1,83.9999974365235,0|0,0:0|0:0,0:0:0:0:
412,247,38366,5,0,0:0:0:0:
317,311,38542,2,0,P|259:331|193:322,1,112,4|0,0:3|1:0,0:0:0:0:
104,260,39072,1,0,0:0:0:0:
142,162,39248,2,0,P|141:135|137:106,1,56,0|0,0:0|0:0,0:0:0:0:
351,118,39601,2,0,P|346:146|346:174,1,56,0|0,1:0|0:0,0:0:0:0:
345,173,39866,1,0,0:0:0:0:
345,173,39954,1,4,0:3:0:0:
256,48,40130,5,0,0:0:0:0:
458,208,40307,2,0,P|501:205|527:191,1,56,0|0,1:0|0:0,0:0:0:0:
476,119,40660,1,0,0:0:0:0:
404,280,40836,2,0,P|377:275|349:275,1,56,0|0,0:0|1:0,0:0:0:0:
252,330,41189,1,0,0:0:0:0:
109,204,41366,6,0,P|161:220|214:205,1,112,4|0,0:3|1:0,0:0:0:0:
283,141,41895,1,0,0:0:0:0:
301,325,42072,2,0,L|293:260,1,56,0|0,0:0|0:0,0:0:0:0:
478,159,42424,2,0,L|471:214,1,56,0|0,1:0|0:0,0:0:0:0:
387,297,42777,6,0,L|379:182,1,112,4|0,0:3|1:0,0:0:0:0:
271,227,43307,2,0,P|221:248|150:240,1,112,0|0,0:0|0:0,0:0:0:0:
70,180,43836,1,0,1:0:0:0:
282,83,44013,5,0,0:0:0:0:
282,83,44101,1,0,0:0:0:0:
282,83,44189,2,0,P|339:91|401:77,2,112,4|0|0,0:3|1:0|0:0,0:0:0:0:
164,136,45072,1,0,0:0:0:0:
270,219,45248,1,0,1:0:0:0:
142,316,45425,5,0,0:0:0:0:
142,316,45513,1,0,0:0:0:0:
142,316,45601,2,0,P|85:308|23:322,1,112,4|0,0:3|1:0,0:0:0:0:
160,221,46130,2,0,P|217:229|279:215,1,112,0|0,0:0|0:0,0:0:0:0:
320,106,46660,2,0,P|353:112|399:103,1,56,0|0,1:0|0:0,0:0:0:0:
423,225,47013,6,0,P|382:219|350:220,1,56,4|0,0:3|0:0,0:0:0:0:
407,315,47366,1,0,1:0:0:0:
497,284,47542,2,0,P|512:239|512:207,1,56,0|0,0:0|0:0,0:0:0:0:
473,102,47895,2,0,P|470:150|457:174,1,56,0|0,0:0|1:0,0:0:0:0:
387,51,48248,1,0,0:0:0:0:
321,150,48424,5,4,0:3:0:0:
233,71,48601,2,0,L|165:64,1,56,8|0,0:3|1:0,0:0:0:0:
65,159,48954,1,0,3:0:0:0:
65,159,49042,1,0,3:0:0:0:
65,159,49130,2,0,L|143:150,1,56,4|8,0:3|0:3,0:0:0:0:
254,309,49483,5,0,1:0:0:0:
171,221,49660,1,0,0:0:0:0:
133,333,49836,1,4,0:0:0:0:
342,349,50189,5,0,3:0:0:0:
473,231,50542,2,0,P|473:191|468:145,1,83.9999974365235,0|0,1:0|3:0,0:0:0:0:
336,99,51248,5,0,3:0:0:0:
265,161,51424,1,0,3:0:0:0:
208,82,51601,2,0,L|217:28,1,41.9999987182618,0|0,1:0|0:0,0:0:0:0:
131,140,51954,2,0,P|108:138|84:142,1,41.9999987182618,0|0,1:0|0:0,0:0:0:0:
39,239,52307,2,0,L|85:233,1,41.9999987182618,8|0,0:3|0:0,0:0:0:0:
130,309,52660,6,0,P|187:325|227:318,1,83.9999974365235,4|0,0:0|1:0,0:0:0:0:
415,226,53366,2,8,P|369:218|319:236,1,83.9999974365235,0|0,1:0|1:0,0:0:0:0:
178,227,53895,6,8,P|137:217|97:226,1,83.9999974365235,0|0,1:0|1:0,0:0:0:0:
47,303,54424,1,0,1:0:0:0:
145,133,54601,1,0,1:0:0:0:
145,133,54689,1,0,0:0:0:0:
145,133,54777,1,0,1:0:0:0:
253,278,54954,2,0,P|284:291|311:292,1,41.9999987182618,8|4,0:3|0:3,0:0:0:0:
384,246,55307,5,0,0:0:0:0:
384,246,55396,1,0,0:0:0:0:
384,246,55484,1,4,0:0:0:0:
203,352,55836,1,0,3:0:0:0:
77,264,56189,2,0,P|74:213|82:164,1,97.9999970092774,0|0,1:0|3:0,0:0:0:0:
182,133,56719,1,0,0:0:0:0:
256,49,56895,6,0,P|286:41|325:48,1,48.9999985046387,0|0,0:0|0:0,0:0:0:0:
431,66,57248,2,0,P|446:122|439:173,1,97.9999970092774,0|0,0:0|1:0,0:0:0:0:
411,260,57777,1,0,3:0:0:0:
310,204,57954,2,0,P|306:167|314:138,1,48.9999985046387,8|0,0:3|3:0,0:0:0:0:
206,143,58307,5,4,0:0:0:0:
206,143,58660,6,0,L|131:135,1,62.9999980773926,0|0,1:0|1:0,0:0:0:0:
232,181,59013,6,0,L|141:173,1,70,0|0,1:0|1:0,0:0:0:0:
266,214,59366,6,0,L|165:205,1,77.0000023498536,0|0,1:0|1:0,0:0:0:0:
234,59,59719,5,0,1:0:0:0:
39,256,60072,2,0,B|156:325|190:246|219:178|354:265,1,308.000009399414,4|0,0:0|0:0,0:0:0:0:
461,183,61130,6,0,P|472:116|410:21,1,181.999991668702,4|0,0:0|1:0,0:0:0:0:
268,49,61660,1,0,0:0:0:0:
268,49,61748,1,0,0:0:0:0:
268,49,61836,2,0,P|207:81|153:86,1,90.9999958343508,0|0,0:0|0:0,0:0:0:0:
75,129,62189,2,0,P|81:84|69:33,1,90.9999958343508,0|0,1:0|0:0,0:0:0:0:
5,229,62542,6,0,P|0:273|18:328,1,90.9999958343508,4|0,0:3|0:0,0:0:0:0:
127,241,62895,2,0,P|171:246|226:228,1,90.9999958343508,0|0,1:0|0:0,0:0:0:0:
378,160,63248,2,0,P|334:165|279:147,1,90.9999958343508,0|0,0:0|0:0,0:0:0:0:
197,95,63601,1,0,1:0:0:0:
215,233,63777,5,0,0:0:0:0:
215,233,63866,1,0,0:0:0:0:
215,233,63954,2,0,P|220:279|203:339,1,90.9999958343508,4|0,0:3|0:0,0:0:0:0:
47,149,64307,2,0,P|42:103|59:43,1,90.9999958343508,0|0,1:0|0:0,0:0:0:0:
303,201,64660,2,0,P|216:231|124:187,1,181.999991668702,0|0,0:0|1:0,0:0:0:0:
47,110,65189,1,0,0:0:0:0:
349,248,65366,6,0,P|398:269|445:269,1,90.9999958343508,4|0,0:3|0:0,0:0:0:0:
257,164,65719,2,0,P|208:143|161:143,1,90.9999958343508,0|0,1:0|0:0,0:0:0:0:
386,126,66072,2,0,P|435:147|482:147,1,90.9999958343508,0|0,0:0|0:0,0:0:0:0:
296,46,66425,2,0,P|247:25|200:25,1,90.9999958343508,0|0,1:0|0:0,0:0:0:0:
25,234,66777,6,0,P|92:267|194:238,1,181.999991668702,4|0,0:0|1:0,0:0:0:0:
267,169,67307,1,0,0:0:0:0:
394,273,67483,1,0,0:0:0:0:
394,273,67572,1,0,0:0:0:0:
394,273,67660,1,0,0:0:0:0:
474,184,67836,2,0,P|474:110|466:83,1,90.9999958343508,0|0,1:0|0:0,0:0:0:0:
306,30,68189,6,0,P|287:98|301:229,1,181.999991668702,4|0,0:3|1:0,0:0:0:0:
221,306,68719,1,0,0:0:0:0:
109,243,68895,2,0,P|54:243|6:257,1,90.9999958343508,0|0,0:0|0:0,0:0:0:0:
192,163,69248,2,0,P|187:109|201:50,1,90.9999958343508,0|0,1:0|0:0,0:0:0:0:
308,125,69601,6,0,B|367:150|433:112|433:112|451:144|475:188,1,181.999991668702,4|0,0:3|1:0,0:0:0:0:
456,281,70130,2,0,P|417:308|280:278,1,181.999991668702,0|0,0:0|0:0,0:0:0:0:
176,260,70660,1,0,1:0:0:0:
67,313,70836,1,0,0:0:0:0:
22,202,71013,6,0,P|25:151|44:107,1,90.9999958343508,4|4,0:3|0:3,0:0:0:0:
138,72,71366,1,0,1:0:0:0:
254,133,71542,1,0,1:0:0:0:
254,133,71630,1,0,1:0:0:0:
254,133,71719,2,0,L|251:87,3,45.4999979171754,0|0|8|0,1:0|0:0|0:3|0:0,0:0:0:0:
377,119,72072,2,0,L|372:169,3,45.4999979171754,0|0|0|0,1:0|0:0|0:0|0:0,0:0:0:0:
481,168,72424,6,0,P|487:211|479:284,1,90.9999958343508,4|0,0:0|0:0,0:0:0:0:
278,322,72777,2,0,P|266:277|269:225,1,90.9999958343508,0|0,1:0|0:0,0:0:0:0:
267,232,73042,1,0,1:0:0:0:
267,232,73130,1,8,0:3:0:0:
396,332,73307,1,0,0:0:0:0:
372,140,73483,1,0,1:0:0:0:
174,319,73660,6,0,P|90:320|16:246,1,181.999991668702,0|0,0:0|0:0,0:0:0:0:
119,89,74189,2,0,P|133:151|126:187,1,90.9999958343508,0|0,1:0|0:0,0:0:0:0:
257,112,74542,2,0,P|245:48|255:8,1,90.9999958343508,0|0,0:0|0:0,0:0:0:0:
376,142,74895,1,0,1:0:0:0:
488,329,75072,1,0,0:0:0:0:
416,256,75248,6,0,P|347:252|295:263,1,90.9999958343508,4|0,0:3|0:0,0:0:0:0:
239,317,75601,1,0,1:0:0:0:
143,235,75777,2,0,P|142:152|173:50,1,181.999991668702,0|0,0:0|0:0,0:0:0:0:
35,135,76307,1,0,1:0:0:0:
143,235,76483,1,0,0:0:0:0:
254,160,76660,6,0,P|308:148|357:157,1,90.9999958343508,4|0,0:3|0:0,0:0:0:0:
468,280,77013,2,0,P|412:260|377:264,1,90.9999958343508,0|0,1:0|0:0,0:0:0:0:
274,316,77366,2,0,L|198:324,3,45.4999979171754,4|0|0|0,0:3|0:0|3:0|3:0,0:0:0:0:
143,235,77719,2,0,L|96:231,3,45.4999979171754,0|0|8|0,1:0|0:0|3:0|3:0,0:0:0:0:
192,128,78072,6,0,P|256:128|352:128,2,136.499993751526,4|0|0,0:0|0:0|0:0,0:0:0:0:
416,32,78777,2,0,P|446:113|425:224,1,181.999991668702,0|0,0:0|1:0,0:0:0:0:
288,168,79307,1,0,0:0:0:0:
180,254,79483,6,0,P|116:254|20:286,2,136.499993751526,4|0|0,0:3|0:0|0:0,0:0:0:0:
332,130,80189,2,0,P|396:130|492:98,2,136.499993751526,0|0|0,0:0|0:0|0:0,0:0:0:0:
160,128,80895,6,0,P|128:224|160:320,1,181.999991668702,4|0,0:3|1:0,0:0:0:0:
256,352,81424,1,2,0:3:0:0:
364,299,81601,2,0,P|383:212|352:128,1,181.999991668702,0|0,0:0|1:0,0:0:0:0:
256,192,82307,5,4,0:0:0:0:
256,192,83189,2,0,P|256:256|256:280,1,77.0000023498536,8|0,0:3|3:0,0:0:0:0:
50,126,83719,6,0,B|37:78|58:30,1,77.0000023498536,4|0,0:0|0:0,0:0:0:0:
117,258,84072,2,0,B|130:306|109:354,1,77.0000023498536,0|0,0:0|0:0,0:0:0:0:
184,153,84424,1,0,0:0:0:0:
184,153,84601,1,0,0:0:0:0:
299,238,84777,1,0,0:0:0:0:
299,238,84954,1,0,0:0:0:0:
455,209,85130,6,0,P|477:140|450:53,1,154.000004699707,0|0,0:0|0:0,0:0:0:0:
326,56,85660,2,0,B|259:39|220:85|220:85|186:40,1,154.000004699707,0|0,0:0|0:0,0:0:0:0:
78,136,86189,2,0,P|75:180|97:243,1,77.0000023498536,0|0,0:0|0:0,0:0:0:0:
154,325,86542,5,2,0:0:0:0:
259,301,86895,1,0,0:0:0:0:
364,280,87248,1,0,0:0:0:0:
469,256,87601,1,0,0:0:0:0:
490,166,87777,2,0,B|494:127|494:127|477:75,1,77.0000023498536,0|0,1:0|0:0,0:0:0:0:
347,46,88130,5,0,1:0:0:0:
257,121,88307,6,0,L|154:147,1,77.0000023498536,0|0,1:0|1:0,0:0:0:0:
256,141,88660,6,0,L|185:162,1,56,0|0,1:0|1:0,0:0:0:0:
259,164,89013,6,0,L|212:179,1,35,0|0,1:0|1:0,0:0:0:0:
