osu file format v14

[General]
AudioFilename: audio.mp3
AudioLeadIn: 0
PreviewTime: 232801
Countdown: 0
SampleSet: Soft
StackLeniency: 0.2
Mode: 0
LetterboxInBreaks: 0
WidescreenStoryboard: 0

[Editor]
Bookmarks: 1297,22535,39527,56518,73509,74438,92624,109615,126606,145721,154217,164836,181827,198819,215810,232801,234925,235456,237314,237580,238774,239969,241297,251916,268907,294373,308975
DistanceSpacing: 0.2
BeatDivisor: 4
GridSize: 16
TimelineZoom: 2

[Metadata]
Title:Iroasenai Hitomi
TitleUnicode:色褪せない瞳
Artist:Alisa Takigawa
ArtistUnicode:瀧川ありさ
Creator:Kalibe
Version:Dearest
Source:七つの大罪 聖戦の予兆
Tags:Nanatsu no Taizai: Seisen no Shirushi ending full version irohas mugiwarasekai
BeatmapID:1503313
BeatmapSetID:711052

[Difficulty]
HPDrainRate:6
CircleSize:4.2
OverallDifficulty:7.7
ApproachRate:9
SliderMultiplier:1.8
SliderTickRate:1

[Events]
//Background and Video events
0,0,"kk.jpg",0,0
//Break Periods
2,232980,240676
//Storyboard Layer 0 (Background)
//Storyboard Layer 1 (Fail)
//Storyboard Layer 2 (Pass)
//Storyboard Layer 3 (Foreground)
//Storyboard Sound Samples

[TimingPoints]
1297,530.973451327434,4,2,4,18,1,0
1297,-125,4,2,4,18,0,0
1562,-125,4,2,4,21,0,0
1827,-125,4,2,4,24,0,0
2093,-125,4,2,4,27,0,0
2358,-125,4,2,4,30,0,0
2624,-250,4,2,1,40,0,0
2757,-250,4,2,2,15,0,0
3420,-250,4,2,1,20,0,0
3951,-250,4,2,2,25,0,0
4482,-250,4,2,1,35,0,0
5013,-250,4,2,2,45,0,0
5544,-125,4,2,1,40,0,0
21473,-100,4,2,1,55,0,0
22535,-90.9090909090909,4,2,2,65,0,0
37137,-111.111111111111,4,2,1,40,0,0
39527,-125,4,2,2,45,0,0
56518,-111.111111111111,4,2,1,50,0,0
72427,530.973451327434,4,2,1,50,1,0
72427,-111.111111111111,4,2,1,50,0,0
75349,-111.111111111111,4,2,2,40,0,0
76942,-111.111111111111,4,2,1,50,0,0
80792,-111.111111111111,4,2,2,50,0,0
80925,-111.111111111111,4,2,1,50,0,0
81588,-111.111111111111,4,2,2,50,0,0
81721,-111.111111111111,4,2,1,50,0,0
81986,-111.111111111111,4,2,1,55,0,0
90748,-111.111111111111,4,2,1,5,0,0
90880,-111.111111111111,4,2,1,55,0,0
91146,-111.111111111111,4,2,1,5,0,0
91279,-111.111111111111,4,2,1,55,0,0
91411,-111.111111111111,4,2,1,5,0,0
91544,-111.111111111111,4,2,1,55,0,0
91942,-111.111111111111,4,2,1,5,0,0
92073,-80,4,2,1,60,0,0
92471,-80,4,2,1,5,0,0
92603,-86.9565217391304,4,2,1,70,0,0
95789,-86.9565217391304,4,2,2,70,0,0
96851,-86.9565217391304,4,2,1,70,0,0
100037,-86.9565217391304,4,2,2,70,0,0
101099,-86.9565217391304,4,2,1,70,0,0
107471,-68.9655172413793,4,2,1,70,0,0
108533,-68.9655172413793,4,2,2,70,0,0
109595,-86.9565217391304,4,2,1,70,0,0
112780,-86.9565217391304,4,2,2,70,0,0
113842,-86.9565217391304,4,2,1,70,0,0
117028,-86.9565217391304,4,2,2,70,0,0
118090,-86.9565217391304,4,2,1,70,0,0
124196,-200,4,2,1,50,0,0
125524,-133.333333333333,4,2,1,45,0,0
126586,530.973451327434,4,2,1,45,1,0
126586,-133.333333333333,4,2,1,45,0,0
145701,-111.111111111111,4,2,1,50,0,0
147559,-111.111111111111,4,2,2,50,0,0
147692,-111.111111111111,4,2,1,50,0,0
148621,-111.111111111111,4,2,2,50,0,0
149550,-111.111111111111,4,2,1,50,0,0
152338,-111.111111111111,4,2,2,50,0,0
152603,-111.111111111111,4,2,1,50,0,0
154196,-111.111111111111,4,2,1,40,0,0
158444,-111.111111111111,4,2,1,55,0,0
164816,-86.9565217391304,4,2,1,70,0,0
168001,-86.9565217391304,4,2,2,70,0,0
169063,-86.9565217391304,4,2,1,70,0,0
172249,-86.9565217391304,4,2,2,70,0,0
173311,-86.9565217391304,4,2,1,70,0,0
179683,-66.6666666666667,4,2,1,70,0,0
181010,-66.6666666666667,4,2,2,70,0,0
181276,-66.6666666666667,4,2,1,70,0,0
181807,-86.9565217391304,4,2,1,70,0,0
184993,-86.9565217391304,4,2,2,70,0,0
186055,-86.9565217391304,4,2,1,70,0,0
189240,-86.9565217391304,4,2,2,70,0,0
190302,-86.9565217391304,4,2,1,70,0,0
196409,-153.846153846154,4,2,1,50,0,0
197205,-117.64705882353,4,2,1,50,0,0
198798,-133.333333333334,4,2,1,45,0,0
207559,-133.333333333334,4,2,2,45,0,0
220037,-111.111111111111,4,2,1,55,0,0
226409,-105.263157894737,4,2,1,60,0,0
232780,-181.818181818181,4,2,1,35,0,0
247647,-133.333333333333,4,2,1,50,0,0
250568,-133.333333333333,4,2,2,50,0,0
251099,-133.333333333333,4,2,1,50,0,0
251364,-100,4,2,1,35,0,0
251895,-86.9565217391304,4,2,1,70,0,0
255081,-86.9565217391304,4,2,2,70,0,0
256143,-86.9565217391304,4,2,1,70,0,0
259329,-86.9565217391304,4,2,2,70,0,0
260391,-86.9565217391304,4,2,1,70,0,0
266762,-66.6666666666667,4,2,1,70,0,0
268090,-66.6666666666667,4,2,2,70,0,0
268223,-66.6666666666667,4,2,1,70,0,0
268886,-86.9565217391304,4,2,1,70,0,0
272072,-86.9565217391304,4,2,2,70,0,0
273134,-86.9565217391304,4,2,1,70,0,0
276320,-86.9565217391304,4,2,2,70,0,0
277382,-86.9565217391304,4,2,1,70,0,0
283488,-117.647058823529,4,2,1,50,0,0
288001,-117.647058823529,4,2,1,65,0,0
291984,-100,4,2,1,60,0,0
294373,-95.2380952380952,4,2,2,65,0,0
308444,-153.846153846154,4,2,1,70,0,0
308975,-250,4,2,1,70,0,0
309240,-250,4,2,2,45,0,0
311364,-250,4,2,1,30,0,0
313223,-250,4,2,1,5,0,0
313488,-250,4,2,4,15,0,0
314019,-250,4,2,4,20,0,0
314550,-250,4,2,4,25,0,0
315081,-250,4,2,4,30,0,0

[Colours]
Combo1 : 98,180,210
Combo2 : 23,180,255
Combo3 : 57,115,136

[HitObjects]
142,146,1297,5,0,0:0:0:0:
219,129,1562,1,0,0:0:0:0:
296,111,1827,1,0,0:0:0:0:
373,93,2093,1,0,0:0:0:0:
450,76,2358,1,0,0:0:0:0:
450,76,2624,6,0,P|348:18|410:164,1,396,0|2,1:0|0:0,0:0:0:0:
157,46,5943,5,2,0:3:0:0:
159,48,6075,1,2,0:3:0:0:
50,117,6341,6,0,P|85:127|131:141,1,72,2|0,0:0|0:0,0:0:0:0:
207,222,6872,2,0,P|172:231|137:242,1,72,0|2,0:0|0:0,0:0:0:0:
0,336,7403,5,2,0:3:0:0:
68,304,7535,1,2,0:3:0:0:
131,345,7668,6,0,P|164:360|207:364,1,72,2|0,0:0|0:0,0:0:0:0:
258,317,8066,2,0,P|291:302|334:298,1,72
400,342,8465,6,0,P|364:337|331:322,1,72,2|0,0:0|0:0,0:0:0:0:
319,184,8996,2,0,P|354:188|387:203,1,72,0|2,0:0|0:0,0:0:0:0:
404,222,9527,5,2,0:3:0:0:
453,165,9659,1,2,0:3:0:0:
416,98,9792,6,0,L|301:79,1,108,2|0,0:0|0:0,0:0:0:0:
292,65,10323,1,0,0:0:0:0:
463,12,10589,5,2,0:0:0:0:
387,203,10854,1,0,0:0:0:0:
274,86,11120,1,0,0:0:0:0:
480,147,11385,5,2,0:0:0:0:
304,256,11650,1,2,0:3:0:0:
372,222,11783,1,2,0:3:0:0:
313,174,11916,6,0,P|280:160|236:153,1,72,2|0,0:0|0:0,0:0:0:0:
176,187,12314,2,0,L|164:135,1,36,2|0,0:0|0:0,0:0:0:0:
47,59,12712,6,0,L|63:132,1,72,2|0,0:0|0:0,0:0:0:0:
78,203,13111,1,0,0:0:0:0:
77,206,13243,1,0,0:0:0:0:
237,28,13509,1,2,0:0:0:0:
139,82,13774,5,2,0:3:0:0:
204,120,13907,1,2,0:3:0:0:
270,155,14040,6,0,P|308:147|347:139,1,72,2|0,0:0|0:0,0:0:0:0:
218,252,14571,1,0,0:0:0:0:
432,317,14836,6,0,P|396:309|361:302,1,72,2|0,0:0|0:0,0:0:0:0:
218,253,15367,2,0,L|226:302,1,36
235,363,15633,5,2,0:0:0:0:
305,229,15898,1,2,0:3:0:0:
243,184,16031,1,2,0:3:0:0:
293,127,16164,6,0,P|289:91|281:56,1,72,2|0,0:0|0:0,0:0:0:0:
213,23,16562,2,0,L|164:34,1,36,2|0,0:0|0:0,0:0:0:0:
56,121,16960,6,0,P|93:126|133:142,1,72,2|0,0:0|0:0,0:0:0:0:
186,183,17358,1,0,0:0:0:0:
188,180,17491,2,0,L|207:136,1,36
80,240,17757,2,0,L|62:190,1,36,2|0,0:0|0:0,0:0:0:0:
176,264,18022,5,2,0:3:0:0:
213,329,18155,1,2,0:3:0:0:
155,378,18288,6,0,P|100:369|31:359,1,108,2|0,0:0|0:0,0:0:0:0:
33,347,18819,1,0,0:0:0:0:
249,263,19084,1,2,0:0:0:0:
186,183,19350,5,0,0:0:0:0:
291,364,19615,1,0,0:0:0:0:
416,262,19881,6,0,L|406:306,1,36,2|0,0:0|0:0,0:0:0:0:
329,185,20146,2,0,L|334:220,1,36,2|0,0:0|0:0,0:0:0:0:
384,125,20412,6,0,B|300:132|335:172|246:180,1,144,2|4,0:0|0:0,0:0:0:0:
175,114,21208,1,2,0:0:0:0:
267,50,21473,6,0,L|257:103,1,45,8|0,0:0|0:0,0:0:0:0:
116,175,21739,2,0,L|128:225,1,45,8|0,0:3|0:0,0:0:0:0:
218,283,22004,5,8,0:1:0:0:
185,366,22137,1,0,3:0:0:0:
126,304,22270,5,2,0:0:0:0:
296,362,22403,1,2,0:0:0:0:
185,366,22535,6,0,P|231:356|297:344,1,99.0000030212403,4|0,0:0|3:0,0:0:0:0:
444,300,22934,1,2,0:0:0:0:
343,288,23066,6,0,P|391:298|440:307,1,99.0000030212403,8|0,0:0|3:0,0:0:0:0:
512,264,23465,1,0,3:0:0:0:
379,178,23597,1,0,0:0:0:0:
476,128,23730,6,0,P|464:174|456:201,1,49.5000015106202,8|0,0:3|3:0,0:0:0:0:
415,70,23996,1,0,0:0:0:0:
285,152,24128,6,0,P|298:207|313:266,1,99.0000030212403,8|0,0:3|3:0,0:0:0:0:
268,373,24527,1,2,0:3:0:0:
424,335,24659,6,0,P|392:317|332:325,1,99.0000030212403,0|0,3:2|0:0,0:0:0:0:
186,381,25058,1,2,0:0:0:0:
130,323,25190,6,0,P|136:299|142:275,1,49.5000015106202,8|0,0:0|0:0,0:0:0:0:
188,167,25456,2,0,P|194:191|201:215,1,49.5000015106202,2|0,3:2|3:0,0:0:0:0:
17,322,25721,1,0,0:0:0:0:
149,275,25854,6,0,P|112:267|33:251,1,99.0000030212403,8|0,0:3|0:0,0:0:0:0:
52,254,26252,2,0,P|80:250|119:245,1,49.5000015106202,8|0,0:3|0:0,0:0:0:0:
248,210,26518,5,2,0:0:0:0:
141,126,26650,1,2,0:0:0:0:
207,63,26783,6,0,P|194:118|179:177,1,99.0000030212403,2|0,3:0|3:0,0:0:0:0:
149,275,27181,1,2,0:3:0:0:
149,275,27314,2,0,P|142:251|136:227,1,49.5000015106202,8|0,0:0|0:0,0:0:0:0:
215,333,27580,6,0,P|279:332|313:300,1,99.0000030212403,2|0,0:0|3:0,0:0:0:0:
406,165,27978,1,8,0:3:0:0:
367,234,28111,6,0,P|373:258|382:294,1,49.5000015106202,0|0,3:0|3:0,0:0:0:0:
435,384,28376,2,0,P|441:359|447:335,1,49.5000015106202,8|0,0:3|0:0,0:0:0:0:
487,266,28642,5,2,0:0:0:0:
344,362,28774,1,2,0:0:0:0:
274,320,28907,6,0,P|258:261|275:221,1,99.0000030212403,2|0,3:0|3:0,0:0:0:0:
352,132,29305,1,2,0:3:0:0:
352,132,29438,2,0,P|345:155|339:179,1,49.5000015106202,8|0,0:0|0:0,0:0:0:0:
300,64,29704,6,0,P|253:50|195:84,1,99.0000030212403,2|0,0:0|0:0,0:0:0:0:
165,149,30102,1,8,3:0:0:0:
35,66,30235,1,4,3:2:0:0:
35,66,30367,1,0,3:0:0:0:
139,20,30500,6,0,P|125:58|113:93,1,49.5000015106202,8|4,0:3|3:0,0:0:0:0:
60,232,30766,1,8,0:0:0:0:
43,148,30898,1,8,3:0:0:0:
21,295,31031,6,0,P|62:285|124:269,1,99.0000030212403,6|0,0:0|3:0,0:0:0:0:
219,199,31429,2,0,L|200:262,1,49.5000015106202,2|8,0:0|0:0,0:0:0:0:
166,138,31695,1,0,0:0:0:0:
270,287,31827,6,0,P|333:287|371:250,1,99.0000030212403,2|0,0:0|0:0,0:0:0:0:
385,185,32226,1,8,0:3:0:0:
512,285,32358,5,0,3:0:0:0:
512,285,32491,1,0,3:0:0:0:
491,160,32624,6,0,L|471:221,1,49.5000015106202,8|0,0:3|0:0,0:0:0:0:
420,349,32889,1,2,3:2:0:0:
395,265,33022,1,2,0:0:0:0:
336,384,33155,6,0,P|295:374|232:358,1,99.0000030212403,2|0,3:0|3:0,0:0:0:0:
166,253,33553,1,2,0:3:0:0:
266,278,33686,6,0,P|216:273|169:307,1,99.0000030212403,8|2,0:0|0:0,0:0:0:0:
45,384,34084,5,0,3:0:0:0:
83,312,34217,2,0,L|69:264,1,49.5000015106202,2|8,0:0|0:3,0:0:0:0:
26,161,34482,2,0,L|12:208,1,49.5000015106202,0|0,3:0|3:0,0:0:0:0:
92,111,34748,6,0,P|83:62|74:13,1,99.0000030212403,8|2,0:3|3:0,0:0:0:0:
171,153,35146,1,2,0:0:0:0:
222,86,35279,6,0,P|266:77|320:113,1,99.0000030212403,2|0,3:0|3:0,0:0:0:0:
365,165,35677,1,2,0:3:0:0:
449,59,35810,6,0,P|442:93|436:123,1,49.5000015106202,12|0,0:0|0:0,0:0:0:0:
493,274,36075,2,0,P|488:249|475:172,1,99.0000030212403,2|0,0:0|3:0,0:0:0:0:
449,59,36606,5,2,0:0:0:0:
348,204,36872,1,2,0:3:0:0:
413,332,37137,1,4,0:0:0:0:
413,332,37668,5,0,3:0:0:0:
343,373,37934,6,0,P|308:365|245:352,1,80.9999975280763,8|0,3:0|0:0,0:0:0:0:
222,298,38332,2,0,P|181:304|141:310,1,80.9999975280763,8|0,3:0|3:0,0:0:0:0:
86,355,38730,5,2,3:2:0:0:
14,201,38996,1,8,0:0:0:0:
14,201,39527,6,0,L|90:190,1,72,4|0,0:0|0:0,0:0:0:0:
137,87,40058,2,0,L|208:76,1,72,2|0,0:3|0:0,0:0:0:0:
288,224,40589,2,0,L|359:213,1,72,2|0,0:3|0:0,0:0:0:0:
448,140,41120,5,2,0:3:0:0:
332,295,41385,2,0,L|366:304,1,36
448,363,41650,6,0,P|412:370|369:385,1,72,0|0,3:2|3:0,0:0:0:0:
246,319,42181,2,0,P|210:312|176:300,1,72,2|0,0:0|0:0,0:0:0:0:
72,366,42712,2,0,P|53:333|55:296,1,72,2|0,0:3|0:0,0:0:0:0:
240,216,43243,5,2,0:3:0:0:
109,112,43509,2,0,L|59:126,1,36
8,195,43774,6,0,P|47:201|88:216,1,72,0|0,3:0|3:0,0:0:0:0:
272,44,44305,2,0,P|237:55|202:60,1,72,2|0,0:3|0:0,0:0:0:0:
119,128,44836,5,2,0:3:0:0:
313,189,45102,1,0,0:0:0:0:
176,300,45367,1,2,0:3:0:0:
224,189,45633,6,0,L|234:237,1,36
254,354,45898,2,0,P|287:341|322:335,1,72,0|0,3:0|3:0,0:0:0:0:
435,377,46429,5,2,0:3:0:0:
302,262,46695,2,0,P|266:256|233:242,1,72,2|2,0:0|0:3,0:0:0:0:
154,311,47226,1,0,0:0:0:0:
297,176,47491,1,2,0:0:0:0:
415,273,47757,2,0,L|405:226,1,36
386,131,48022,6,0,P|399:97|396:50,1,72,0|0,3:0|3:0,0:0:0:0:
226,267,48553,2,0,P|226:302|238:336,1,72,2|0,0:3|0:0,0:0:0:0:
243,342,48951,1,0,0:0:0:0:
248,347,49084,2,0,P|207:340|155:335,1,72,2|0,0:3|0:0,0:0:0:0:
359,214,49615,2,0,P|394:209|430:203,1,72,2|0,0:3|0:0,0:0:0:0:
502,168,50013,1,0,0:0:0:0:
502,168,50146,5,0,3:0:0:0:
304,272,50412,1,0,3:0:0:0:
479,379,50677,1,2,0:3:0:0:
386,289,50943,6,0,B|305:296|333:329|248:342,1,144,2|0,0:0|0:0,0:0:0:0:
100,278,51739,5,2,0:0:0:0:
244,190,52004,1,2,0:0:0:0:
88,99,52270,6,0,P|123:110|160:113,1,72,0|0,3:0|3:0,0:0:0:0:
291,31,52801,2,0,P|326:20|363:17,1,72,2|0,0:3|0:0,0:0:0:0:
431,52,53199,1,0,0:0:0:0:
438,58,53332,2,0,P|427:93|418:133,1,72,2|0,0:3|0:0,0:0:0:0:
259,226,53863,2,0,P|270:261|279:301,1,72,2|0,0:0|0:0,0:0:0:0:
374,220,54394,5,0,3:0:0:0:
245,139,54659,1,0,3:0:0:0:
136,326,54925,1,2,0:3:0:0:
228,379,55190,5,2,0:0:0:0:
35,301,55456,1,4,0:3:0:0:
229,208,55721,1,4,0:3:0:0:
166,136,55854,6,0,L|161:157,1,18,0|0,3:0|3:0,3:0:0:0:
158,174,55987,2,0,L|75:191,1,72,8|0,0:0|3:0,0:0:0:0:
73,209,56385,1,0,0:0:0:0:
22,91,56518,6,0,P|61:98|113:107,1,80.9999975280763,4|0,0:0|0:0,0:0:0:0:
255,41,57049,2,0,P|216:48|164:57,1,80.9999975280763,0|2,3:0|0:0,0:0:0:0:
327,161,57580,2,0,P|342:130|331:84,1,80.9999975280763,0|0,3:0|0:0,0:0:0:0:
238,198,58111,1,2,3:2:0:0:
401,199,58376,6,0,P|392:228|386:249,1,40.4999987640381
396,320,58642,6,0,P|388:280|381:240,1,80.9999975280763,2|0,3:0|0:0,0:0:0:0:
472,383,59173,1,0,3:0:0:0:
291,258,59438,1,2,0:0:0:0:
232,340,59704,5,0,3:0:0:0:
381,240,59969,1,4,0:3:0:0:
248,174,60235,1,8,0:0:0:0:
336,114,60500,6,0,L|329:145,2,20.2499993820191
281,48,60766,6,0,P|255:38|196:56,1,80.9999975280763,2|0,0:0|0:0,0:0:0:0:
74,154,61297,1,0,3:0:0:0:
107,4,61562,2,0,P|114:40|126:95,1,80.9999975280763,2|0,0:0|3:0,0:0:0:0:
189,234,62093,1,0,0:0:0:0:
235,125,62358,5,2,3:2:0:0:
98,236,62624,1,0,0:0:0:0:
293,272,62889,6,0,P|302:233|287:197,1,80.9999975280763,2|0,3:0|0:0,0:0:0:0:
165,331,63420,6,0,P|197:326|228:321,1,40.4999987640381,2|2,0:0|0:0,0:0:0:0:
307,380,63686,2,0,P|286:376|266:373,1,40.4999987640381,2|0,0:0|0:0,0:0:0:0:
364,331,63951,6,0,P|418:323|472:315,1,80.9999975280763,0|0,3:0|0:0,0:0:0:0:
292,263,64482,1,8,0:0:0:0:
459,320,64748,1,0,0:0:0:0:
462,322,64881,1,0,0:0:0:0:
465,323,65013,6,0,B|483:280|483:280|460:244,1,80.9999975280763,2|0,3:2|0:0,0:0:0:0:
384,130,65544,2,0,B|366:169|366:169|389:209,1,80.9999975280763,0|2,3:0|0:0,0:0:0:0:
482,36,66075,2,0,P|475:80|467:130,1,80.9999975280763,0|0,3:0|0:0,0:0:0:0:
342,52,66606,1,2,3:2:0:0:
469,115,66872,1,0,0:0:0:0:
280,218,67137,5,0,3:0:0:0:
378,136,67403,1,2,0:0:0:0:
224,50,67668,1,0,3:0:0:0:
318,12,67934,6,0,P|309:52|295:109,1,80.9999975280763,2|0,0:0|3:0,0:0:0:0:
162,0,68465,1,0,0:0:0:0:
72,153,68730,2,0,B|54:116|54:116|81:65,1,80.9999975280763,8|0,0:0|0:0,0:0:0:0:
78,74,69128,1,0,0:0:0:0:
84,68,69261,6,0,P|131:75|180:83,1,80.9999975280763,0|0,3:0|0:0,0:0:0:0:
290,13,69792,1,0,3:0:0:0:
159,84,70058,6,0,P|198:77|239:71,1,80.9999975280763,2|0,0:0|3:0,0:0:0:0:
375,143,70589,1,0,0:0:0:0:
418,29,70854,5,2,3:0:0:0:
288,155,71120,1,0,0:0:0:0:
290,166,71252,1,0,0:0:0:0:
293,177,71385,5,2,3:0:0:0:
470,262,71650,1,0,0:0:0:0:
384,162,71916,5,0,3:0:0:0:
230,280,72181,2,0,P|226:260|222:229,1,40.4999987640381,2|0,0:0|0:0,0:0:0:0:
316,251,72427,6,0,L|298:342,1,80.9999975280763,0|0,3:0|0:0,0:0:0:0:
137,236,72958,1,8,0:0:0:0:
170,349,73223,1,8,3:0:0:0:
90,313,73489,5,4,0:0:0:0:
218,210,73754,1,0,0:0:0:0:
115,150,74020,1,0,3:0:0:0:
218,210,74285,6,0,B|133:202|151:250|62:245,1,161.999995056153,2|0,0:0|0:0,0:0:0:0:
184,91,75082,1,10,0:0:0:0:
108,109,75347,6,0,L|194:94,1,80.9999975280763,10|0,0:3|0:0,0:0:0:0:
368,18,75878,2,0,B|391:52|391:52|376:97,1,80.9999975280763,10|0,0:3|0:0,0:0:0:0:
228,281,76409,2,0,B|205:247|205:247|217:209,1,80.9999975280763,10|0,0:3|0:0,0:0:0:0:
377,306,76940,2,0,P|366:344|354:402,1,80.9999975280763,8|0,3:0|3:0,0:0:0:0:
470,251,77471,1,0,0:0:0:0:
309,228,77737,6,0,P|391:276|459:259,1,161.999995056153,4|8,0:0|0:0,0:0:0:0:
357,384,78533,1,0,0:0:0:0:
457,268,78799,6,0,L|446:307,1,40.4999987640381,2|2,0:0|0:0,0:0:0:0:
313,235,79064,2,0,L|296:284,1,40.4999987640381,8|0,3:0|0:0,0:0:0:0:
396,191,79330,5,0,3:0:0:0:
191,332,79595,2,0,P|174:297|185:252,1,80.9999975280763,12|0,0:0|0:0,0:0:0:0:
249,183,80126,5,0,3:0:0:0:
62,280,80392,1,8,0:3:0:0:
132,180,80657,5,2,0:0:0:0:
181,257,80790,1,8,0:3:0:0:
253,169,80923,2,0,L|278:92,1,80.9999975280763,2|0,0:0|0:0,0:0:0:0:
176,107,81453,5,0,3:0:0:0:
253,169,81586,1,8,0:3:0:0:
363,80,81719,2,0,L|352:37,1,40.4999987640381,0|0,3:0|0:0,0:0:0:0:
357,45,81984,6,0,P|423:57|481:68,1,121.499996292114,4|0,0:0|0:0,0:0:0:0:
512,133,82515,1,8,0:0:0:0:
512,133,82781,6,0,P|472:143|430:167,1,80.9999975280763,2|0,0:0|3:0,0:0:0:0:
343,238,83179,1,0,3:0:0:0:
340,233,83312,2,0,L|356:178,1,40.4999987640381,8|0,0:0|0:0,0:0:0:0:
414,307,83577,5,0,3:2:0:0:
267,369,83710,1,10,0:0:0:0:
345,384,83843,5,0,0:0:0:0:
237,283,83976,1,8,0:0:0:0:
316,310,84108,6,0,L|343:220,1,80.9999975280763,0|0,3:0|0:0,0:0:0:0:
214,155,84507,1,0,0:0:0:0:
207,160,84639,2,0,L|230:237,1,80.9999975280763,8|2,0:0|0:0,0:0:0:0:
233,243,85038,2,0,L|177:232,1,40.4999987640381,2|0,0:0|3:0,0:0:0:0:
169,324,85303,5,8,3:0:0:0:
174,329,85436,2,0,L|118:318,1,40.4999987640381,8|0,0:0|0:0,0:0:0:0:
30,316,85701,5,0,3:0:0:0:
34,304,85834,1,0,3:0:0:0:
108,217,85967,5,8,3:0:0:0:
104,207,86100,1,8,0:0:0:0:
19,185,86232,6,0,L|100:197,1,80.9999975280763,4|0,0:0|0:0,0:0:0:0:
195,134,86630,2,0,L|140:125,1,40.4999987640381,2|8,0:0|0:0,0:0:0:0:
119,106,87029,6,0,L|165:112,1,40.4999987640381,2|8,3:2|0:0,0:0:0:0:
286,190,87294,2,0,L|233:202,1,40.4999987640381,0|0,3:0|0:0,0:0:0:0:
167,251,87560,1,8,0:0:0:0:
169,254,87692,1,2,0:0:0:0:
219,356,87825,5,4,3:0:0:0:
271,269,87958,1,8,0:0:0:0:
355,328,88091,5,4,3:0:0:0:
357,324,88223,1,8,0:0:0:0:
364,222,88356,6,0,L|242:257,1,121.499996292114,6|0,0:0|3:0,0:0:0:0:
172,278,88887,1,4,0:0:0:0:
256,378,89153,6,0,L|242:331,1,40.4999987640381,2|8,0:0|0:0,0:0:0:0:
205,181,89418,2,0,P|159:174|99:221,1,121.499996292114,0|0,3:0|3:0,0:0:0:0:
218,187,89949,5,10,0:0:0:0:
84,122,90082,1,8,0:0:0:0:
200,43,90215,1,8,3:0:0:0:
204,48,90480,6,0,P|243:54|291:65,1,80.9999975280763,10|0,0:0|0:0,0:0:0:0:
386,120,90878,6,0,P|408:85|396:42,1,80.9999975280763,10|0,0:0|0:0,0:0:0:0:
292,160,91277,6,0,L|306:216,1,40.4999987640381,10|0,0:3|0:0,0:0:0:0:
342,300,91542,6,0,L|312:167,1,121.499996292114,10|0,0:3|0:0,0:0:0:0:
252,310,92073,6,0,B|359:302|326:377|421:359,1,168.75,10|0,0:0|0:0,0:0:0:0:
498,328,92604,6,0,B|450:315|450:315|403:342,1,103.500001974106,4|0,0:0|3:0,0:0:0:0:
278,379,93002,1,2,0:0:0:0:
278,379,93134,2,0,P|287:345|309:261,1,103.500001974106,8|0,0:0|3:0,0:0:0:0:
351,169,93533,1,8,0:0:0:0:
351,169,93665,6,0,P|360:207|370:244,1,51.7500009870529,2|0,0:0|0:0,0:0:0:0:
399,96,93931,1,0,3:0:0:0:
304,278,94196,6,0,P|257:287|201:250,1,103.500001974106,8|2,0:0|0:3,0:0:0:0:
192,186,94595,1,0,0:0:0:0:
71,246,94727,6,0,P|84:296|97:346,1,103.500001974106,2|0,0:0|3:0,0:0:0:0:
97,346,95126,1,0,0:0:0:0:
209,261,95258,6,0,P|200:299|190:336,1,51.7500009870529,8|0,0:0|0:0,0:0:0:0:
253,371,95524,1,2,0:0:0:0:
363,241,95657,1,8,0:0:0:0:
297,290,95789,5,2,0:3:0:0:
410,384,95922,1,0,3:0:0:0:
480,339,96055,6,0,P|493:289|460:229,1,103.500001974106,0|8,3:0|0:0,0:0:0:0:
437,114,96586,2,0,L|423:192,1,51.7500009870529,2|0,0:0|0:0,0:0:0:0:
375,41,96851,6,0,P|320:32|268:66,1,103.500001974106,0|0,3:0|0:0,0:0:0:0:
212,158,97250,5,0,0:0:0:0:
213,158,97382,2,0,P|205:133|207:106,1,51.7500009870529,8|0,0:0|0:0,0:0:0:0:
279,51,97648,1,2,0:0:0:0:
202,105,97780,6,0,P|151:95|95:82,1,103.500001974106,8|0,0:0|3:0,0:0:0:0:
3,53,98179,2,0,P|7:78|14:103,1,51.7500009870529,2|0,0:3|0:0,0:0:0:0:
129,163,98444,2,0,P|122:187|112:217,1,51.7500009870529,8|0,0:0|0:0,0:0:0:0:
60,369,98710,1,0,3:0:0:0:
9,318,98842,1,0,0:0:0:0:
46,256,98975,6,0,P|95:244|152:281,1,103.500001974106,4|2,0:0|0:3,0:0:0:0:
145,273,99373,1,0,0:0:0:0:
225,384,99506,6,0,P|238:333|251:283,1,103.500001974106,8|2,0:0|3:0,0:0:0:0:
218,211,99904,1,8,0:0:0:0:
346,298,100037,6,0,P|341:267|334:227,1,51.7500009870529,2|0,0:3|0:0,0:0:0:0:
290,154,100303,2,0,P|295:123|302:83,1,51.7500009870529,2|0,0:3|0:0,0:0:0:0:
342,15,100568,2,0,L|404:9,1,51.7500009870529,8|0,0:0|0:0,0:0:0:0:
381,158,100834,5,2,0:3:0:0:
240,59,100966,1,0,0:0:0:0:
335,22,101099,6,0,P|321:72|308:122,1,103.500001974106,4|0,0:0|3:0,0:0:0:0:
177,226,101497,1,0,0:0:0:0:
177,226,101630,2,0,P|244:230|282:191,1,103.500001974106,8|2,0:0|3:0,0:0:0:0:
101,167,102028,1,8,0:0:0:0:
191,84,102161,6,0,P|182:117|167:165,1,51.7500009870529,2|0,0:0|0:0,0:0:0:0:
135,17,102427,1,0,3:0:0:0:
278,161,102692,5,8,0:0:0:0:
42,218,102957,1,0,0:0:0:0:
101,167,103090,1,0,0:0:0:0:
172,196,103223,6,0,P|190:236|163:298,1,103.500001974106,0|0,3:0|3:0,0:0:0:0:
168,296,103621,1,0,0:0:0:0:
26,378,103754,2,0,P|77:370|128:361,1,103.500001974106,8|2,0:0|3:0,0:0:0:0:
290,296,104152,1,8,0:0:0:0:
226,352,104285,6,0,P|267:379|322:372,1,103.500001974106,2|0,0:0|3:0,0:0:0:0:
326,369,104683,1,0,0:0:0:0:
417,285,104816,6,0,P|426:319|434:348,1,51.7500009870529,8|0,0:0|0:0,0:0:0:0:
343,238,105081,1,0,0:0:0:0:
407,193,105214,1,0,0:0:0:0:
377,123,105347,6,0,P|364:173|350:223,1,103.500001974106,4|0,0:2|3:0,0:0:0:0:
252,291,105745,1,0,0:0:0:0:
252,291,105878,2,0,P|245:260|238:219,1,51.7500009870529,8|0,0:0|0:0,0:0:0:0:
168,200,106143,5,2,3:0:0:0:
295,103,106276,1,8,0:0:0:0:
204,41,106409,6,0,P|215:96|230:171,1,103.500001974106,2|0,0:0|3:0,0:0:0:0:
224,142,106807,1,0,0:0:0:0:
375,263,106940,5,8,0:0:0:0:
373,259,107073,1,0,3:0:0:0:
301,188,107205,2,0,P|293:211|285:237,1,51.7500009870529
487,281,107471,6,0,P|434:244|372:258,1,130.500003982544,12|0,0:0|0:0,0:0:0:0:
215,345,107869,6,0,P|276:358|329:322,1,130.500003982544,12|0,0:0|0:0,0:0:0:0:
221,187,108267,2,0,P|214:220|204:259,1,65.250001991272,8|0,3:0|0:0,0:0:0:0:
64,384,108533,5,6,0:0:0:0:
114,318,108798,5,2,0:3:0:0:
65,256,109064,5,10,3:2:0:0:
165,384,109196,1,8,0:0:0:0:
228,320,109329,1,8,0:0:0:0:
178,250,109462,1,0,3:0:0:0:
225,167,109595,6,0,P|214:220|196:297,1,103.500001974106,4|0,0:0|3:0,0:0:0:0:
310,366,109993,1,0,0:0:0:0:
315,360,110126,2,0,P|321:332|332:287,1,51.7500009870529,8|0,0:0|0:0,0:0:0:0:
413,160,110391,5,2,0:0:0:0:
481,204,110524,2,0,P|444:240|390:242,1,103.500001974106,8|0,0:0|0:0,0:0:0:0:
309,185,110922,2,0,L|330:106,1,51.7500009870529,0|0,3:0|0:0,0:0:0:0:
407,30,111188,2,0,L|431:130,1,103.500001974106,8|0,0:0|3:0,0:0:0:0:
441,139,111586,1,0,0:0:0:0:
333,98,111719,6,0,P|280:100|238:136,1,103.500001974106,4|0,0:0|3:0,0:0:0:0:
168,220,112117,1,0,0:0:0:0:
159,212,112250,2,0,P|152:187|146:161,1,51.7500009870529,8|0,0:0|0:0,0:0:0:0:
222,116,112515,5,2,0:0:0:0:
77,221,112648,1,8,0:0:0:0:
74,123,112780,6,0,P|98:129|123:138,1,51.7500009870529,2|0,0:3|0:0,0:0:0:0:
242,217,113046,2,0,P|266:210|291:201,1,51.7500009870529,2|0,0:3|0:0,0:0:0:0:
122,278,113311,2,0,P|88:318|102:372,1,103.500001974106,10|2,0:0|0:3,0:0:0:0:
334,309,113842,6,0,L|231:329,1,103.500001974106,2|0,3:0|3:0,0:0:0:0:
217,344,114241,1,0,0:0:0:0:
298,221,114373,1,8,0:0:0:0:
334,309,114639,5,2,0:0:0:0:
203,234,114772,1,8,0:0:0:0:
317,113,114904,2,0,B|333:163|333:163|305:220,1,103.500001974106,2|0,0:0|3:0,0:0:0:0:
298,221,115303,1,0,0:0:0:0:
198,108,115435,6,0,L|219:169,1,51.7500009870529,8|0,0:0|0:0,0:0:0:0:
317,9,115701,2,0,L|264:22,1,51.7500009870529,0|0,3:0|0:0,0:0:0:0:
418,131,115966,6,0,P|362:120|315:112,1,103.500001974106,4|0,0:0|3:0,0:0:0:0:
297,127,116365,1,0,0:0:0:0:
435,51,116497,2,0,P|443:75|447:105,1,51.7500009870529,8|0,0:0|0:0,0:0:0:0:
393,255,116763,5,2,3:0:0:0:
484,300,116896,1,8,0:0:0:0:
459,215,117028,6,0,L|407:226,1,51.7500009870529,2|0,0:3|3:0,0:0:0:0:
375,356,117294,2,0,L|324:366,1,51.7500009870529,2|0,0:3|3:0,0:0:0:0:
227,303,117559,6,0,P|238:279|247:255,1,51.7500009870529,8|0,0:0|0:0,0:0:0:0:
143,161,117825,2,0,P|155:184|164:208,1,51.7500009870529,0|8,3:0|0:0,0:0:0:0:
152,359,118090,6,0,L|46:331,1,103.500001974106,6|0,0:0|3:0,0:0:0:0:
33,320,118488,2,0,L|45:381,1,51.7500009870529,2|8,0:0|0:0,0:0:0:0:
198,118,118887,6,0,L|186:179,1,51.7500009870529,8|0,3:0|3:0,0:0:0:0:
119,58,119152,1,2,0:0:0:0:
10,167,119285,6,0,P|63:152|118:138,1,103.500001974106,8|0,0:0|0:0,0:0:0:0:
193,22,119683,2,0,P|217:31|242:38,1,51.7500009870529,8|0,0:0|0:0,0:0:0:0:
365,117,119949,2,0,P|340:123|315:133,1,51.7500009870529
173,205,120214,6,0,P|225:202|266:238,1,103.500001974106,4|0,3:2|3:0,0:0:0:0:
352,323,120612,1,0,0:0:0:0:
352,323,120745,2,0,L|337:249,1,51.7500009870529,8|0,0:0|0:0,0:0:0:0:
237,381,121011,2,0,L|254:308,1,51.7500009870529,2|0,3:0|3:0,0:0:0:0:
269,241,121276,5,2,0:0:0:0:
430,358,121409,2,0,P|377:346|326:337,1,103.500001974106,8|0,0:0|0:0,0:0:0:0:
237,381,121807,1,8,0:0:0:0:
416,240,122073,5,2,0:0:0:0:
335,174,122205,1,2,0:0:0:0:
449,125,122338,6,0,P|407:151|355:150,1,103.500001974106,4|0,0:0|3:0,0:0:0:0:
246,38,122736,1,0,0:0:0:0:
343,25,122869,6,0,L|329:85,1,51.7500009870529,12|0,0:0|0:0,0:0:0:0:
288,240,123134,5,2,0:0:0:0:
172,314,123267,1,8,0:0:0:0:
146,209,123400,6,0,P|171:216|194:227,1,51.7500009870529,8|0,3:0|0:0,0:0:0:0:
309,346,123665,1,8,3:0:0:0:
107,340,123931,6,0,P|132:332|155:322,1,51.7500009870529,0|0,3:0|0:0,0:0:0:0:
288,240,124196,2,0,B|400:224|370:323|477:303,1,202.5,4|0,0:0|3:0,0:0:0:0:
502,277,125524,6,0,L|484:346,1,67.5000025749208,8|0,3:0|3:0,0:0:0:0:
305,174,126055,2,0,L|287:243,1,67.5000025749208,0|0,3:0|0:0,0:0:0:0:
352,364,126586,6,0,P|364:329|383:276,1,67.5000025749208,4|0,0:0|3:0,0:0:0:0:
260,384,127117,1,0,0:0:0:0:
86,335,127382,5,2,0:0:0:0:
113,330,127514,1,0,0:0:0:0:
140,325,127647,1,0,0:0:0:0:
166,320,127780,1,0,0:0:0:0:
192,317,127913,1,0,3:0:0:0:
24,279,128179,6,0,P|14:248|27:202,1,67.5000025749208,8|0,0:0|0:0,0:0:0:0:
98,163,128577,1,0,0:0:0:0:
93,166,128710,6,0,P|131:170|185:175,1,67.5000025749208,2|0,3:0|3:0,0:0:0:0:
229,151,129108,1,2,0:0:0:0:
235,149,129241,5,0,0:0:0:0:
414,226,129506,1,2,0:0:0:0:
337,137,129772,6,0,L|329:176,1,33.7500012874604
281,237,130037,2,0,L|289:276,1,33.7500012874604,0|0,3:0|0:0,0:0:0:0:
342,343,130303,1,8,0:0:0:0:
240,367,130568,1,0,0:0:0:0:
240,370,130701,1,2,0:0:0:0:
240,373,130834,6,0,P|201:376|155:348,1,67.5000025749208,0|0,3:0|3:0,0:0:0:0:
105,319,131232,1,0,0:0:0:0:
100,314,131365,2,0,P|61:311|15:339,1,67.5000025749208,0|2,0:0|0:0,0:0:0:0:
189,226,131896,6,0,P|193:253|198:281,2,33.7500012874604,0|2|0,0:0|0:0|3:0,0:0:0:0:
269,102,132427,2,0,P|261:141|253:183,1,67.5000025749208,8|0,0:0|0:0,0:0:0:0:
277,244,132825,1,0,0:0:0:0:
283,248,132957,6,0,P|319:252|357:233,1,67.5000025749208,0|0,3:0|3:0,0:0:0:0:
407,172,133356,1,0,0:0:0:0:
409,166,133488,6,0,P|401:131|395:104,1,33.7500012874604
494,213,133754,1,2,3:2:0:0:
429,270,133887,6,0,P|422:310|412:366,1,67.5000025749208,0|2,0:0|0:0,0:0:0:0:
417,336,134285,2,0,P|447:330|478:326,1,33.7500012874604,4|0,3:0|0:0,0:0:0:0:
347,376,134550,6,0,P|316:370|253:360,1,67.5000025749208,8|2,0:0|0:0,0:0:0:0:
162,264,134949,1,0,0:0:0:0:
226,310,135081,6,0,P|193:336|147:333,1,67.5000025749208,0|0,3:0|0:0,0:0:0:0:
67,297,135480,1,0,0:0:0:0:
61,292,135612,2,0,P|67:260|70:243,1,33.7500012874604,2|0,0:0|0:0,0:0:0:0:
101,122,135878,2,0,P|107:156|114:189,1,67.5000025749208,0|0,3:0|0:0,0:0:0:0:
117,194,136276,5,0,0:0:0:0:
121,199,136409,1,0,3:0:0:0:
207,59,136674,1,8,0:0:0:0:
318,187,136940,1,2,0:0:0:0:
320,189,137073,1,0,0:0:0:0:
320,192,137205,6,0,P|291:186|236:175,1,67.5000025749208,0|0,3:0|3:0,0:0:0:0:
161,266,137603,1,2,0:0:0:0:
166,263,137736,2,0,P|195:260|218:255,1,33.7500012874604
337,326,138002,6,0,P|308:320|253:309,1,67.5000025749208,0|0,3:0|0:0,0:0:0:0:
263,311,138400,1,2,0:0:0:0:
255,309,138532,2,0,P|258:325|261:342,1,33.7500012874604,0|0,3:0|0:0,0:0:0:0:
442,352,138798,2,0,P|439:335|429:272,1,67.5000025749208,8|0,0:0|0:0,0:0:0:0:
409,129,139329,6,0,P|403:162|396:201,1,67.5000025749208,0|0,3:0|3:0,0:0:0:0:
348,263,139727,1,2,0:0:0:0:
344,257,139860,2,0,P|308:251|281:251,1,33.7500012874604
120,336,140126,6,0,P|166:340|202:317,1,67.5000025749208,0|0,3:0|0:0,0:0:0:0:
233,261,140524,1,2,0:0:0:0:
235,254,140657,2,0,P|230:224|227:202,1,33.7500012874604,0|0,3:0|0:0,0:0:0:0:
269,140,140922,1,8,0:0:0:0:
340,306,141188,2,0,L|400:296,1,33.7500012874604,2|0,0:0|0:0,0:0:0:0:
401,277,141453,6,0,P|392:315|384:359,1,67.5000025749208,0|0,3:0|3:0,0:0:0:0:
464,218,141851,1,2,0:0:0:0:
462,223,141984,6,0,P|455:189|450:156,1,67.5000025749208,0|2,0:0|3:2,0:0:0:0:
290,91,142515,5,0,0:0:0:0:
294,103,142648,1,0,0:0:0:0:
297,115,142780,1,4,3:0:0:0:
375,12,143046,6,0,L|367:51,1,33.7500012874604,10|0,0:0|0:0,0:0:0:0:
297,115,143311,2,0,L|305:154,1,33.7500012874604,2|0,0:0|0:0,0:0:0:0:
355,220,143577,1,2,3:2:0:0:
219,139,143842,1,4,3:0:0:0:
159,307,144108,5,12,0:0:0:0:
240,245,144373,1,2,0:0:0:0:
155,224,144639,5,8,3:0:0:0:
266,360,144904,1,8,3:0:0:0:
345,272,145170,1,4,3:0:0:0:
431,320,145435,1,4,3:0:0:0:
493,268,145701,5,4,0:0:0:0:
431,320,145966,1,0,0:0:0:0:
345,272,146232,1,0,3:0:0:0:
266,360,146497,2,0,L|209:353,1,40.4999987640381,2|2,0:0|0:3,0:0:0:0:
155,224,146763,1,0,3:0:0:0:
61,330,147028,6,0,P|100:322|139:309,1,80.9999975280763,2|2,3:0|0:0,0:0:0:0:
271,174,147559,2,0,P|310:180|348:194,1,80.9999975280763,8|2,0:3|3:2,0:0:0:0:
484,170,148090,6,0,L|463:253,1,80.9999975280763,0|0,0:0|3:0,0:0:0:0:
335,356,148621,2,0,P|312:350|264:334,1,40.4999987640381,2|2,0:0|0:3,0:0:0:0:
235,297,148886,2,0,P|215:302|195:307,1,40.4999987640381,2|2,0:0|0:3,0:0:0:0:
117,352,149152,1,4,0:3:0:0:
117,352,149418,2,0,P|101:315|116:273,1,80.9999975280763,8|2,0:3|0:0,0:0:0:0:
316,175,149949,5,0,3:0:0:0:
208,230,150214,1,2,0:3:0:0:
287,321,150480,1,2,3:2:0:0:
226,167,150745,6,0,L|212:212,1,40.4999987640381,2|2,3:0|3:0,0:0:0:0:
320,107,151011,2,0,L|334:152,1,40.4999987640381,2|2,0:0|0:0,0:0:0:0:
211,33,151276,1,2,0:3:0:0:
211,33,151409,1,0,0:0:0:0:
211,33,151542,2,0,L|195:82,1,40.4999987640381,0|0,3:0|0:0,0:0:0:0:
208,230,151807,5,8,0:0:0:0:
332,145,152073,1,0,3:0:0:0:
211,33,152338,5,8,0:3:0:0:
305,245,152603,1,8,3:0:0:0:
484,96,152869,1,2,0:0:0:0:
394,38,153134,6,0,L|403:84,1,40.4999987640381,2|0,3:2|0:0,0:0:0:0:
419,167,153400,2,0,L|428:213,1,40.4999987640381,2|0,0:0|0:0,0:0:0:0:
447,328,153665,5,8,0:0:0:0:
449,331,153798,1,8,3:0:0:0:
370,284,153931,5,0,3:0:0:0:
370,287,154064,1,0,3:0:0:0:
426,206,154196,6,0,P|367:250|286:232,1,161.999995056153,4|2,0:0|0:0,0:0:0:0:
228,164,154993,1,2,0:0:0:0:
228,164,155789,2,0,P|221:200|214:226,1,40.4999987640381,2|0,0:3|0:0,0:0:0:0:
169,331,156055,2,0,P|164:311|161:291,1,40.4999987640381,2|0,0:3|0:0,0:0:0:0:
82,234,156320,6,0,B|165:223|141:299|232:283,1,161.999995056153,6|0,0:0|0:0,0:0:0:0:
285,231,157117,1,2,0:0:0:0:
409,352,157781,5,0,3:0:0:0:
405,353,157913,2,0,P|410:321|415:288,1,40.4999987640381,8|0,3:0|3:0,0:0:0:0:
484,263,158179,1,4,3:0:0:0:
387,128,158311,1,4,3:0:0:0:
459,176,158444,6,0,P|400:210|345:198,1,121.499996292114,4|0,0:0|3:0,0:0:0:0:
295,140,158975,2,0,L|303:100,1,40.4999987640381,10|0,0:0|0:0,0:0:0:0:
139,10,159241,1,2,0:0:0:0:
189,70,159373,1,8,3:0:0:0:
129,118,159506,6,0,P|136:162|145:215,1,80.9999975280763,4|8,3:0|0:0,0:0:0:0:
192,359,160037,1,4,3:0:0:0:
194,362,160170,1,8,0:0:0:0:
288,232,160303,1,2,0:0:0:0:
288,235,160435,1,0,0:0:0:0:
224,286,160568,6,0,P|176:277|123:268,1,80.9999975280763,4|0,0:0|0:0,0:0:0:0:
35,216,160966,1,0,0:0:0:0:
29,217,161099,2,0,P|64:210|94:204,1,40.4999987640381,12|0,3:0|0:0,0:0:0:0:
159,145,161365,2,0,P|124:138|94:132,1,40.4999987640381,0|8,3:0|0:0,0:0:0:0:
88,69,161630,5,2,0:0:0:0:
223,204,161896,1,12,3:0:0:0:
279,124,162161,5,4,3:0:0:0:
140,241,162427,2,0,P|144:269|151:305,1,40.4999987640381,2|2,0:0|0:0,0:0:0:0:
192,341,162692,5,2,3:0:0:0:
80,183,162957,1,4,3:0:0:0:
230,226,163223,5,8,3:0:0:0:
108,381,163488,1,8,3:0:0:0:
307,314,163754,5,14,3:0:0:0:
140,241,164019,1,14,3:0:0:0:
338,106,164285,6,0,P|334:138|330:157,1,40.4999987640381,10|8,0:0|0:0,0:0:0:0:
431,308,164550,1,8,0:0:0:0:
471,244,164683,1,8,0:0:0:0:
422,169,164816,6,0,P|373:159|325:187,1,103.500001974106,4|0,0:0|3:0,0:0:0:0:
204,98,165214,1,0,0:0:0:0:
209,103,165347,2,0,P|235:111|269:118,1,51.7500009870529,8|0,0:0|0:0,0:0:0:0:
446,74,165612,5,2,3:0:0:0:
364,17,165745,2,0,P|331:56|340:109,1,103.500001974106,8|0,0:0|0:0,0:0:0:0:
422,169,166143,2,0,P|452:162|500:153,1,51.7500009870529,0|0,3:0|0:0,0:0:0:0:
337,268,166409,2,0,P|286:255|220:242,1,103.500001974106,8|0,0:0|0:0,0:0:0:0:
218,261,166807,1,0,0:0:0:0:
97,227,166940,6,0,B|68:272|68:272|92:321,1,103.500001974106,4|0,0:0|3:0,0:0:0:0:
175,384,167338,1,0,0:0:0:0:
175,384,167471,2,0,L|192:333,1,51.7500009870529,8|0,0:0|0:0,0:0:0:0:
329,235,167736,5,2,3:0:0:0:
354,353,167869,1,8,0:0:0:0:
449,298,168002,6,0,P|424:289|399:284,1,51.7500009870529,2|0,0:3|0:0,0:0:0:0:
304,219,168267,2,0,P|278:224|254:232,1,51.7500009870529,2|0,0:3|0:0,0:0:0:0:
442,148,168533,2,0,P|467:100|442:50,1,103.500001974106,8|2,0:0|0:3,0:0:0:0:
334,20,168931,5,0,0:0:0:0:
326,28,169064,2,0,P|337:79|349:136,1,103.500001974106,4|0,3:0|3:0,0:0:0:0:
296,191,169462,1,0,0:0:0:0:
191,125,169595,2,0,P|165:131|141:139,1,51.7500009870529,8|0,0:0|0:0,0:0:0:0:
31,110,169860,5,2,3:0:0:0:
174,214,169993,2,0,P|203:172|190:123,1,103.500001974106,8|0,0:0|0:0,0:0:0:0:
72,231,170391,2,0,L|87:287,1,51.7500009870529,0|0,3:0|0:0,0:0:0:0:
169,358,170657,2,0,L|273:337,1,103.500001974106,8|0,0:0|0:0,0:0:0:0:
291,358,171055,1,0,0:0:0:0:
171,257,171188,1,4,0:0:0:0:
171,257,171453,6,0,L|236:270,1,51.7500009870529,0|0,3:0|0:0,0:0:0:0:
316,214,171719,2,0,L|381:227,1,51.7500009870529,8|0,0:0|0:0,0:0:0:0:
512,313,171984,1,2,3:0:0:0:
442,352,172117,1,8,0:0:0:0:
366,325,172250,6,0,P|351:289|379:224,1,103.500001974106,2|2,0:3|3:2,0:0:0:0:
469,162,172648,1,0,0:0:0:0:
478,179,172780,6,0,P|469:201|459:240,1,51.7500009870529,10|0,0:0|0:0,0:0:0:0:
320,101,173046,2,0,P|328:123|339:162,1,51.7500009870529,2|0,0:0|0:0,0:0:0:0:
512,28,173311,6,0,P|462:38|399:50,1,103.500001974106,4|0,0:0|3:0,0:0:0:0:
395,71,173710,1,0,0:0:0:0:
269,37,173842,2,0,P|233:76|241:132,1,103.500001974106,8|2,0:0|3:0,0:0:0:0:
346,197,174241,6,0,P|297:204|241:230,1,103.500001974106,8|0,0:0|0:0,0:0:0:0:
128,303,174639,2,0,P|139:276|153:240,1,51.7500009870529,0|0,3:0|0:0,0:0:0:0:
273,356,174904,2,0,P|259:304|245:240,1,103.500001974106,8|0,0:0|3:0,0:0:0:0:
247,225,175303,5,2,0:0:0:0:
174,375,175435,1,2,0:3:0:0:
343,276,175701,5,0,3:0:0:0:
177,181,175966,1,8,0:0:0:0:
343,276,176232,5,2,3:0:0:0:
441,169,176365,2,0,P|433:193|427:218,1,51.7500009870529,8|2,0:0|0:0,0:0:0:0:
324,130,176630,5,0,3:0:0:0:
324,130,176763,2,0,P|331:154|337:179,1,51.7500009870529,0|0,3:0|0:0,0:0:0:0:
480,56,177028,6,0,P|438:28|386:33,1,103.500001974106,8|2,0:0|0:0,0:0:0:0:
317,108,177427,1,2,0:0:0:0:
255,51,177559,6,0,P|225:46|202:40,1,51.7500009870529,2|0,3:0|0:0,0:0:0:0:
56,112,177825,2,0,P|81:116|106:122,1,51.7500009870529,0|0,3:0|0:0,0:0:0:0:
227,212,178090,2,0,P|175:221|127:241,1,103.500001974106,8|2,0:0|0:0,0:0:0:0:
29,327,178488,1,8,0:0:0:0:
93,374,178621,6,0,P|119:365|145:360,1,51.7500009870529,2|0,0:0|0:0,0:0:0:0:
259,288,178887,2,0,P|284:293|308:301,1,51.7500009870529,0|0,3:0|0:0,0:0:0:0:
385,383,179152,5,8,0:0:0:0:
477,305,179285,1,8,0:0:0:0:
398,236,179418,1,8,3:0:0:0:
366,97,179683,6,0,P|380:159|398:240,1,135.000005149842,12|8,0:0|0:0,0:0:0:0:
280,384,180081,6,0,P|265:319|316:274,1,135.000005149842,12|0,0:0|3:0,0:0:0:0:
449,364,180480,2,0,P|417:376|371:384,1,67.5000025749208,8|0,3:0|0:0,0:0:0:0:
309,275,180745,5,6,0:0:0:0:
215,243,181011,5,2,0:3:0:0:
124,279,181276,6,0,B|105:251|105:251|117:211,1,67.5000025749208,8|8,0:0|0:0,0:0:0:0:
264,64,181542,2,0,B|283:92|283:92|271:132,1,67.5000025749208,0|0,3:0|3:0,0:0:0:0:
215,243,181807,6,0,P|198:190|177:126,1,103.500001974106,4|0,0:0|3:0,0:0:0:0:
93,60,182205,1,0,0:0:0:0:
93,60,182338,2,0,P|87:88|76:133,1,51.7500009870529,8|0,0:0|0:0,0:0:0:0:
165,0,182603,1,2,0:0:0:0:
183,144,182736,6,0,P|241:148|286:109,1,103.500001974106,8|0,0:0|0:0,0:0:0:0:
342,12,183134,2,0,P|336:37|330:62,1,51.7500009870529,0|0,3:0|0:0,0:0:0:0:
385,189,183400,2,0,P|378:163|373:138,1,51.7500009870529,8|0,0:0|0:0,0:0:0:0:
468,213,183665,5,2,0:0:0:0:
397,351,183798,1,0,0:0:0:0:
498,296,183931,6,0,P|441:286|374:273,1,103.500001974106,2|0,3:0|3:0,0:0:0:0:
396,277,184329,1,0,0:0:0:0:
287,325,184462,2,0,P|292:350|298:375,1,51.7500009870529,8|0,0:0|0:0,0:0:0:0:
230,257,184727,2,0,P|236:231|241:206,1,51.7500009870529,2|8,3:2|0:0,0:0:0:0:
180,326,184993,5,2,0:3:0:0:
106,350,185125,1,0,0:0:0:0:
48,300,185258,1,2,3:0:0:0:
189,334,185524,5,8,0:0:0:0:
48,300,185789,6,0,B|41:272|41:272|57:236,1,51.7500009870529,2|0,0:3|0:0,0:0:0:0:
144,124,186055,6,0,P|133:174|122:225,1,103.500001974106,4|0,0:0|3:0,0:0:0:0:
122,226,186453,1,0,0:0:0:0:
250,278,186586,2,0,P|244:252|239:227,1,51.7500009870529,8|0,0:0|0:0,0:0:0:0:
315,86,186851,1,2,0:0:0:0:
252,137,186984,6,0,P|295:162|348:157,1,103.500001974106,8|0,0:0|0:0,0:0:0:0:
401,86,187382,2,0,P|393:47|388:23,1,51.7500009870529,0|0,3:0|0:0,0:0:0:0:
252,0,187647,2,0,P|246:25|241:50,1,51.7500009870529,8|0,0:0|0:0,0:0:0:0:
101,216,187913,1,2,0:0:0:0:
55,159,188046,1,0,0:0:0:0:
92,97,188178,6,0,P|158:88|205:120,1,103.500001974106,4|0,0:0|3:0,0:0:0:0:
312,206,188577,1,0,0:0:0:0:
270,134,188709,2,0,P|278:95|283:71,1,51.7500009870529,8|0,0:0|0:0,0:0:0:0:
349,35,188975,5,2,3:2:0:0:
497,139,189108,1,8,0:0:0:0:
440,37,189240,6,0,P|428:86|411:150,1,103.500001974106,2|2,0:3|3:2,0:0:0:0:
337,306,189771,2,0,P|324:255|311:205,1,103.500001974106,8|8,0:0|0:0,0:0:0:0:
345,139,190170,1,8,0:0:0:0:
242,267,190302,6,0,P|189:275|145:250,1,103.500001974106,4|0,0:0|3:0,0:0:0:0:
146,251,190701,1,0,0:0:0:0:
27,332,190833,6,0,P|63:327|100:322,1,51.7500009870529,8|0,0:0|0:0,0:0:0:0:
212,371,191099,2,0,P|186:374|160:378,1,51.7500009870529,0|0,3:0|3:0,0:0:0:0:
242,267,191364,5,2,0:0:0:0:
338,384,191497,1,8,0:0:0:0:
413,345,191630,6,0,P|430:297|414:248,1,103.500001974106,2|8,3:0|0:0,0:0:0:0:
335,146,192028,1,0,0:0:0:0:
335,146,192161,2,0,P|340:171|345:196,1,51.7500009870529,0|0,3:0|0:0,0:0:0:0:
391,86,192426,5,4,0:0:0:0:
243,199,192692,1,0,3:0:0:0:
194,132,192824,1,2,0:0:0:0:
241,62,192957,6,0,P|235:87|218:167,1,103.500001974106,8|2,0:0|3:0,0:0:0:0:
161,273,193355,1,0,0:0:0:0:
165,271,193488,2,0,P|160:246|153:209,2,51.7500009870529,2|8|0,3:2|0:0|3:0,0:0:0:0:
324,364,194019,6,0,P|273:372|228:348,1,103.500001974106,4|0,0:0|3:0,0:0:0:0:
256,274,194417,1,8,0:0:0:0:
134,368,194550,6,0,P|74:357|5:344,1,103.500001974106,4|0,0:0|3:0,0:0:0:0:
24,345,194948,1,0,0:0:0:0:
16,341,195081,6,0,P|50:337|87:333,1,51.7500009870529,8|0,0:0|0:0,0:0:0:0:
133,284,195347,1,2,0:0:0:0:
51,150,195612,1,2,3:2:0:0:
0,226,195878,5,2,0:0:0:0:
142,158,196143,1,0,3:0:0:0:
47,65,196409,6,0,P|60:128|92:259,1,175.499991966248,6|8,0:0|0:0,0:0:0:0:
182,338,197470,1,0,3:0:0:0:
192,258,197603,6,0,P|181:305|167:362,1,76.5000014591217,8|0,3:0|3:0,0:0:0:0:
249,377,198001,2,0,P|280:373|311:368,1,38.2500007295609,0|0,3:0|0:0,0:0:0:0:
441,283,198267,6,0,P|393:273|335:319,1,114.750002188683,8|0,3:0|0:0,0:0:0:0:
342,316,198798,5,4,0:0:0:0:
446,266,199063,1,2,0:0:0:0:
359,190,199329,2,0,P|325:185|278:175,1,67.5000025749208,0|2,3:0|0:0,0:0:0:0:
216,92,199860,5,2,0:0:0:0:
326,62,200125,1,4,0:3:0:0:
179,199,200391,5,2,0:0:0:0:
277,258,200656,1,4,0:3:0:0:
190,364,200922,6,0,L|210:291,1,67.5000025749208,2|0,0:3|0:0,0:0:0:0:
277,258,201320,2,0,L|257:185,1,67.5000025749208,2|0,0:3|0:0,0:0:0:0:
179,199,201718,2,0,L|193:149,1,33.7500012874604,2|0,0:3|0:0,0:0:0:0:
226,44,201984,6,0,P|259:39|296:29,1,67.5000025749208,2|4,0:3|0:3,0:0:0:0:
353,81,202382,1,2,0:3:0:0:
369,71,202515,2,0,P|402:76|434:84,1,67.5000025749208,0|4,1:0|0:3,0:0:0:0:
442,82,203046,6,0,P|477:125|456:203,1,135.000005149842,2|0,1:2|3:0,0:0:0:0:
373,285,203842,1,2,0:3:0:0:
366,175,204108,5,2,0:0:0:0:
452,215,204373,1,4,0:3:0:0:
353,81,204639,5,2,0:0:0:0:
268,122,204904,1,6,0:3:0:0:
183,164,205170,2,0,P|192:204|202:249,1,67.5000025749208,2|0,0:0|0:0,0:0:0:0:
358,350,205701,2,0,P|365:317|372:284,1,67.5000025749208,0|2,3:0|0:3,0:0:0:0:
390,212,206099,1,0,0:0:0:0:
393,206,206232,5,4,3:0:0:0:
347,351,206497,1,0,3:0:0:0:
270,274,206630,6,0,L|264:299,1,16.8750006437302,0|0,3:0|3:0,3:0:0:0:
272,314,206762,2,0,B|226:323|226:323|197:351|197:351|142:363,1,135.000005149842,8|4,0:0|0:0,0:0:0:0:
49,221,207559,6,0,L|86:228,1,33.7500012874604
175,208,207824,2,0,P|168:241|160:280,1,67.5000025749208,4|0,3:0|0:0,0:0:0:0:
27,142,208355,2,0,P|34:175|42:214,1,67.5000025749208,0|2,0:0|0:3,0:0:0:0:
192,96,208886,1,0,3:0:0:0:
48,27,209152,1,0,0:0:0:0:
50,29,209285,1,0,0:0:0:0:
111,89,209417,6,0,L|219:72,1,101.250003862381,2|0,0:0|0:0,0:0:0:0:
275,25,209948,2,0,P|307:33|340:41,1,67.5000025749208,0|2,3:0|0:0,0:0:0:0:
489,152,210479,2,0,P|456:159|423:168,1,67.5000025749208,0|2,3:0|0:3,0:0:0:0:
324,242,211010,1,2,3:2:0:0:
407,251,211276,5,0,0:0:0:0:
327,223,211409,1,2,0:3:0:0:
252,261,211541,2,0,P|261:313|268:361,1,101.250003862381,0|0,3:0|0:0,0:0:0:0:
273,366,212072,5,0,3:0:0:0:
183,208,212338,2,0,P|166:235|162:272,1,67.5000025749208,2|0,0:0|3:0,0:0:0:0:
43,337,212869,2,0,P|76:345|119:361,1,67.5000025749208,2|0,0:3|3:0,0:0:0:0:
174,280,213400,1,2,0:0:0:0:
6,194,213665,2,0,P|54:186|128:171,1,101.250003862381,0|0,3:0|0:0,0:0:0:0:
109,171,214196,5,0,3:0:0:0:
0,77,214462,2,0,L|74:90,1,67.5000025749208,2|0,0:0|3:0,0:0:0:0:
206,116,214993,2,0,L|280:129,1,67.5000025749208,2|2,0:3|0:0,0:0:0:0:
414,47,215524,5,0,0:0:0:0:
339,84,215656,1,2,0:3:0:0:
278,24,215789,2,0,P|256:76|271:130,1,101.250003862381,4|0,0:0|0:0,0:0:0:0:
272,127,216320,5,0,3:0:0:0:
433,209,216586,1,2,0:0:0:0:
354,258,216851,2,0,P|304:251|265:241,1,67.5000025749208,0|2,3:0|0:3,0:0:0:0:
153,334,217382,2,0,P|193:326|219:324,1,67.5000025749208,2|0,0:0|0:0,0:0:0:0:
294,346,217780,1,0,0:0:0:0:
300,349,217913,5,0,3:0:0:0:
143,252,218178,1,0,0:0:0:0:
237,170,218444,6,0,P|229:205|220:246,1,67.5000025749208,0|2,3:0|0:0,0:0:0:0:
81,358,218975,2,0,P|75:329|69:290,1,67.5000025749208,0|2,3:0|0:3,0:0:0:0:
220,384,219506,1,2,0:0:0:0:
365,266,219771,1,0,0:0:0:0:
366,263,219904,1,0,3:0:0:0:
367,259,220037,6,0,P|321:244|254:284,1,121.499996292114,4|0,0:0|3:0,0:0:0:0:
220,384,220568,6,0,L|211:338,1,40.4999987640381,8|0,0:0|0:0,0:0:0:0:
130,196,220833,1,2,0:0:0:0:
166,280,220966,6,0,P|114:272|60:260,1,80.9999975280763,8|0,0:0|0:0,0:0:0:0:
0,196,221364,2,0,P|26:191|63:185,1,40.4999987640381,0|0,3:0|0:0,0:0:0:0:
184,131,221630,1,10,0:0:0:0:
108,62,221762,1,8,0:0:0:0:
196,0,221895,2,0,P|190:25|183:55,1,40.4999987640381,8|8,3:0|0:0,0:0:0:0:
184,131,222161,6,0,P|236:123|292:112,1,80.9999975280763,4|0,0:0|3:0,0:0:0:0:
368,187,222559,1,0,0:0:0:0:
361,188,222692,2,0,L|311:177,1,40.4999987640381,8|0,0:0|0:0,0:0:0:0:
452,170,222957,5,2,0:0:0:0:
452,166,223090,1,8,0:0:0:0:
345,260,223223,1,0,3:0:0:0:
438,315,223355,1,2,0:0:0:0:
388,375,223488,6,0,P|351:379|301:358,1,80.9999975280763,8|2,0:0|3:2,0:0:0:0:
194,220,223886,1,8,0:0:0:0:
239,288,224019,2,0,L|227:338,1,40.4999987640381,0|0,3:0|3:0,0:0:0:0:
95,384,224285,6,0,P|90:364|75:288,1,80.9999975280763,4|0,0:0|0:0,0:0:0:0:
137,217,224683,1,2,0:0:0:0:
51,217,224816,2,0,P|90:214|127:231,1,80.9999975280763,8|2,0:0|0:0,0:0:0:0:
239,288,225214,1,8,0:0:0:0:
239,288,225347,2,0,P|249:256|256:231,1,40.4999987640381,8|0,3:0|3:0,0:0:0:0:
158,336,225612,2,0,P|163:355|169:374,1,40.4999987640381,2|0,0:0|0:0,0:0:0:0:
382,368,225878,6,0,P|332:359|283:351,1,80.9999975280763,8|4,0:0|3:0,0:0:0:0:
293,352,226276,1,8,0:0:0:0:
453,326,226409,6,0,P|465:301|440:234,1,85.4999977169037,4|0,0:0|0:0,0:0:0:0:
453,246,226807,1,2,0:0:0:0:
371,159,226939,2,0,L|382:214,1,42.7499988584519,8|0,0:0|0:0,0:0:0:0:
419,97,227205,1,4,3:0:0:0:
296,177,227338,6,0,P|246:168|188:156,1,85.4999977169037,2|8,0:0|0:0,0:0:0:0:
211,161,227736,2,0,P|221:198|230:224,1,42.7499988584519,8|0,3:0|3:0,0:0:0:0:
176,281,228001,2,0,P|181:302|187:323,1,42.7499988584519,2|8,0:0|0:0,0:0:0:0:
247,384,228267,5,8,3:0:0:0:
191,332,228400,1,8,0:0:0:0:
267,262,228532,6,0,P|306:244|389:289,1,128.249996575356,4|8,0:0|3:0,0:0:0:0:
429,340,229063,1,8,0:0:0:0:
468,121,229329,6,0,P|480:179|498:257,1,128.249996575356,4|0,0:0|0:0,0:0:0:0:
495,246,229860,2,0,P|462:239|433:233,1,42.7499988584519,0|8,3:0|0:0,0:0:0:0:
323,195,230125,1,2,3:2:0:0:
387,127,230258,1,8,0:0:0:0:
291,57,230391,6,0,P|298:92|307:128,1,42.7499988584519,8|0,3:0|3:0,0:0:0:0:
389,253,230656,5,12,0:0:0:0:
242,177,230922,1,8,3:0:0:0:
232,365,231187,5,8,3:0:0:0:
284,271,231453,1,8,3:0:0:0:
415,384,231718,5,12,3:0:0:0:
197,289,231984,1,12,3:0:0:0:
320,149,232249,5,8,3:0:0:0:
345,217,232382,1,0,3:0:0:0:
368,287,232515,1,8,3:0:0:0:
374,297,232780,5,6,0:0:0:0:
132,80,241276,5,2,0:0:0:0:
141,89,241541,1,0,0:0:0:0:
129,95,241807,1,0,0:0:0:0:
121,84,242072,2,0,P|182:93|233:101,1,99.0000030212403,2|0,0:0|0:0,0:0:0:0:
297,46,242869,5,2,0:0:0:0:
308,124,243134,1,0,0:0:0:0:
494,75,243400,5,2,0:0:0:0:
415,70,243665,1,0,0:0:0:0:
342,102,243931,1,0,0:0:0:0:
296,166,244196,1,2,0:0:0:0:
317,242,244462,2,0,P|353:250|396:262,1,74.2500022659302
394,265,244993,5,2,0:0:0:0:
192,336,245258,1,0,0:0:0:0:
288,320,245524,6,0,L|275:369,1,49.5000015106202,2|0,0:0|0:0,0:0:0:0:
185,200,246055,2,0,L|172:249,1,49.5000015106202
72,250,246586,6,0,L|85:299,1,49.5000015106202,2|0,0:0|0:0,0:0:0:0:
236,89,247117,2,0,L|249:138,1,49.5000015106202
252,151,247647,5,2,0:0:0:0:
67,233,249771,5,8,3:0:0:0:
244,371,250037,1,12,0:0:0:0:
242,365,250302,1,8,0:0:0:0:
386,199,250568,5,8,3:0:0:0:
390,204,250701,2,0,L|373:282,1,67.5000025749208,8|8,3:0|3:0,0:0:0:0:
289,145,251099,5,8,3:0:0:0:
286,144,251232,1,0,3:0:0:0:
282,142,251364,2,0,P|287:166|295:207,1,45,8|8,0:0|0:0,0:0:0:0:
420,75,251630,2,0,P|415:97|410:119,1,45,2|2,0:0|0:0,0:0:0:0:
370,297,251895,6,0,P|318:264|226:291,1,155.250002961159,4|0,0:0|0:0,0:0:0:0:
167,344,252426,1,8,0:0:0:0:
31,237,252692,5,2,3:0:0:0:
29,235,252824,1,8,0:0:0:0:
129,194,252957,6,0,P|121:230|113:263,1,51.7500009870529,2|8,0:0|0:0,0:0:0:0:
71,384,253223,1,0,3:0:0:0:
231,214,253488,2,0,P|240:265|255:347,1,103.500001974106,8|0,0:0|0:0,0:0:0:0:
256,330,253886,1,0,0:0:0:0:
421,253,254019,6,0,P|441:285|404:354,1,103.500001974106,4|0,0:0|3:0,0:0:0:0:
328,384,254417,1,2,0:0:0:0:
328,384,254550,2,0,P|338:343|344:317,1,51.7500009870529,8|0,0:0|0:0,0:0:0:0:
423,210,254816,2,0,P|428:235|435:260,1,51.7500009870529,2|8,3:0|0:0,0:0:0:0:
321,205,255081,5,2,0:3:0:0:
445,84,255214,1,0,0:0:0:0:
368,127,255347,6,0,P|312:112|246:96,1,103.500001974106,2|8,0:3|0:0,0:0:0:0:
72,96,255878,1,2,0:3:0:0:
70,98,256010,1,0,0:0:0:0:
140,33,256143,6,0,P|161:56|144:141,1,103.500001974106,0|0,3:0|3:0,0:0:0:0:
80,226,256541,5,2,0:0:0:0:
81,226,256674,2,0,P|73:201|65:157,1,51.7500009870529,8|0,0:0|0:0,0:0:0:0:
238,286,256939,1,2,3:0:0:0:
176,209,257072,6,0,P|169:234|146:329,1,103.500001974106,8|0,0:0|0:0,0:0:0:0:
204,376,257470,2,0,P|238:371|276:365,1,51.7500009870529,0|0,3:0|0:0,0:0:0:0:
394,290,257736,2,0,P|364:284|324:276,1,51.7500009870529,8|0,0:0|0:0,0:0:0:0:
260,207,258001,1,0,0:0:0:0:
336,142,258134,1,8,0:0:0:0:
287,65,258267,6,0,P|300:123|320:201,1,103.500001974106,0|0,3:0|3:0,0:0:0:0:
432,143,258665,1,2,0:0:0:0:
432,143,258798,2,0,P|425:168|417:192,1,51.7500009870529,8|0,0:0|0:0,0:0:0:0:
343,279,259063,1,2,3:0:0:0:
345,277,259196,1,8,0:0:0:0:
416,218,259329,5,2,0:3:0:0:
341,364,259462,1,0,3:0:0:0:
258,299,259594,5,2,0:3:0:0:
97,384,259860,6,0,P|73:352|94:284,1,103.500001974106,14|2,0:0|0:3,0:0:0:0:
220,220,260258,1,8,0:0:0:0:
123,143,260391,6,0,P|136:204|151:268,1,103.500001974106,4|0,0:0|3:0,0:0:0:0:
293,343,260789,1,2,0:0:0:0:
293,343,260922,2,0,P|226:347|188:308,1,103.500001974106,8|2,0:0|3:0,0:0:0:0:
386,219,261320,1,8,0:0:0:0:
304,210,261453,6,0,P|311:240|323:276,1,51.7500009870529,2|0,0:0|0:0,0:0:0:0:
431,343,261718,2,0,P|438:318|444:293,1,51.7500009870529,0|0,3:0|0:0,0:0:0:0:
512,133,261984,2,0,P|445:129|407:168,1,103.500001974106,8|0,0:0|3:0,0:0:0:0:
386,219,262382,1,0,0:0:0:0:
278,109,262515,6,0,P|292:167|303:209,1,103.500001974106,2|0,3:2|3:0,0:0:0:0:
279,279,262913,1,0,0:0:0:0:
278,285,263046,5,8,0:0:0:0:
103,206,263311,1,2,3:0:0:0:
198,209,263444,5,8,0:0:0:0:
196,207,263577,2,0,P|185:241|178:274,1,51.7500009870529,2|0,0:0|0:0,0:0:0:0:
103,360,263842,2,0,P|96:334|88:310,1,51.7500009870529,0|0,3:0|0:0,0:0:0:0:
211,379,264108,6,0,P|266:372|336:362,1,103.500001974106,8|8,0:0|0:0,0:0:0:0:
320,361,264506,1,8,0:0:0:0:
448,268,264639,6,0,B|479:314|479:314|447:367,1,103.500001974106,4|2,0:0|3:0,0:0:0:0:
443,361,265037,1,0,0:0:0:0:
343,268,265170,6,0,P|356:217|368:167,1,103.500001974106,12|0,0:0|3:0,0:0:0:0:
365,158,265568,1,8,0:0:0:0:
430,52,265701,2,0,P|441:86|448:119,1,51.7500009870529,2|0,0:0|0:0,0:0:0:0:
274,178,265966,2,0,P|280:152|288:128,1,51.7500009870529,0|0,3:0|0:0,0:0:0:0:
140,31,266232,5,8,0:0:0:0:
221,93,266364,1,8,0:0:0:0:
133,154,266497,5,8,3:0:0:0:
219,99,266630,1,0,3:0:0:0:
133,154,266762,6,0,P|146:214|172:309,1,135.000005149842,6|8,0:0|0:0,0:0:0:0:
351,275,267161,6,0,B|276:273|312:328|214:335,1,135.000005149842,6|0,0:0|0:0,0:0:0:0:
82,364,267559,2,0,P|132:360|168:376,1,67.5000025749208,8|0,3:0|3:0,0:0:0:0:
357,351,267824,5,2,0:0:0:0:
231,256,268090,5,2,0:3:0:0:
307,197,268223,1,8,0:0:0:0:
251,132,268355,5,8,3:0:0:0:
253,137,268488,1,8,3:0:0:0:
378,241,268621,5,0,3:0:0:0:
380,234,268754,1,0,3:0:0:0:
379,148,268886,6,0,P|323:160|268:172,1,103.500001974106,4|0,0:0|3:0,0:0:0:0:
194,241,269285,1,0,0:0:0:0:
186,170,269417,2,0,L|170:226,1,51.7500009870529,8|0,0:0|0:0,0:0:0:0:
119,380,269683,5,2,0:0:0:0:
207,316,269816,2,0,P|257:324|307:356,1,103.500001974106,8|0,0:0|0:0,0:0:0:0:
310,362,270214,2,0,L|254:376,1,51.7500009870529,8|0,3:0|0:0,0:0:0:0:
429,279,270479,2,0,P|375:266|320:249,1,103.500001974106,8|0,0:0|3:0,0:0:0:0:
229,298,270878,1,0,0:0:0:0:
220,288,271010,2,0,P|223:262|236:231,1,51.7500009870529,2|8,0:0|0:0,0:0:0:0:
334,163,271276,5,0,3:0:0:0:
256,113,271409,1,2,0:0:0:0:
336,68,271541,2,0,P|284:77|228:89,1,103.500001974106,8|2,0:0|3:0,0:0:0:0:
125,146,271939,5,8,0:0:0:0:
131,154,272072,2,0,P|157:160|194:170,1,51.7500009870529,2|0,0:3|0:0,0:0:0:0:
310,240,272338,2,0,P|284:245|259:252,1,51.7500009870529,2|0,0:3|0:0,0:0:0:0:
90,357,272603,2,0,P|62:316|73:265,1,103.500001974106,12|2,0:0|0:3,0:0:0:0:
171,182,273001,5,2,0:0:0:0:
184,177,273134,2,0,P|170:228|146:314,1,103.500001974106,4|0,0:0|3:0,0:0:0:0:
370,367,273665,2,0,P|364:337|358:290,1,51.7500009870529,8|0,0:0|0:0,0:0:0:0:
276,358,273931,5,2,3:0:0:0:
450,302,274063,2,0,P|398:289|349:275,1,103.500001974106,8|0,0:0|3:0,0:0:0:0:
271,202,274462,1,8,3:0:0:0:
267,198,274727,6,0,P|261:172|258:141,1,51.7500009870529,8|0,0:0|0:0,0:0:0:0:
383,60,274993,1,0,3:0:0:0:
294,23,275125,1,0,3:0:0:0:
354,157,275258,6,0,L|241:132,1,103.500001974106,4|0,0:0|3:0,0:0:0:0:
125,86,275656,1,0,0:0:0:0:
112,92,275789,2,0,P|117:120|126:160,1,51.7500009870529,8|0,0:0|0:0,0:0:0:0:
203,232,276055,6,0,P|178:239|150:250,1,51.7500009870529,4|0,0:0|0:0,0:0:0:0:
7,332,276320,1,2,0:3:0:0:
82,281,276453,2,0,P|133:288|178:330,1,103.500001974106,8|0,0:0|0:0,0:0:0:0:
243,384,276851,6,0,P|255:358|268:322,1,51.7500009870529,10|0,0:3|0:0,0:0:0:0:
399,264,277116,2,0,P|408:288|419:311,1,51.7500009870529,2|0,0:3|0:0,0:0:0:0:
263,257,277382,6,0,P|278:208|292:152,1,103.500001974106,4|0,0:0|3:0,0:0:0:0:
243,94,277780,1,0,0:0:0:0:
386,167,277913,2,0,L|373:116,1,51.7500009870529,8|0,0:0|0:0,0:0:0:0:
274,14,278178,2,0,L|261:65,1,51.7500009870529,2|8,3:0|0:0,0:0:0:0:
120,145,278444,6,0,P|169:148|209:181,1,103.500001974106,2|0,0:0|3:0,0:0:0:0:
397,288,278975,2,0,P|347:291|307:324,1,103.500001974106,8|0,0:0|3:0,0:0:0:0:
229,384,279373,5,2,0:0:0:0:
215,375,279506,2,0,B|192:329|192:329|218:271,1,103.500001974106,0|0,3:0|3:0,0:0:0:0:
312,212,279904,1,2,0:0:0:0:
218,285,280037,2,0,P|155:294|103:304,1,103.500001974106,8|2,0:0|3:0,0:0:0:0:
15,355,280435,6,0,P|-5:309|18:260,1,103.500001974106,0|8,3:0|0:0,0:0:0:0:
112,173,280833,2,0,P|120:197|126:226,1,51.7500009870529,0|0,3:0|0:0,0:0:0:0:
4,134,281099,6,0,L|115:158,1,103.500001974106,8|8,0:0|3:0,0:0:0:0:
192,283,281497,1,8,0:0:0:0:
218,205,281630,6,0,P|168:204|122:242,1,103.500001974106,4|0,0:0|3:0,0:0:0:0:
79,300,282028,1,2,0:0:0:0:
167,384,282161,2,0,L|195:276,1,103.500001974106,8|2,0:0|3:0,0:0:0:0:
335,104,282692,5,0,3:0:0:0:
208,192,282957,1,2,3:0:0:0:
384,304,283223,1,8,3:0:0:0:
297,366,283488,6,0,B|263:300|324:287|289:210,1,153.000002918243,4|0,0:0|3:0,0:0:0:0:
203,164,284285,5,8,3:0:0:0:
256,304,284550,1,8,3:0:0:0:
336,96,284816,5,8,3:0:0:0:
224,384,285081,1,8,3:0:0:0:
224,32,285347,5,10,0:0:0:0:
326,353,285612,1,8,0:0:0:0:
375,292,285745,1,8,0:0:0:0:
340,221,285878,6,0,B|259:213|278:270|184:257,1,153.000002918243,4|0,0:0|0:0,0:0:0:0:
107,323,286674,2,0,P|74:255|113:194,1,153.000002918243,2|0,0:0|0:0,0:0:0:0:
227,161,287470,2,0,P|264:170|302:179,1,76.5000014591217,2|0,0:0|0:0,0:0:0:0:
404,289,288001,5,4,0:0:0:0:
325,96,288267,1,8,0:0:0:0:
195,258,288532,5,8,0:0:0:0:
416,192,288798,1,0,3:0:0:0:
252,31,289063,1,4,3:0:0:0:
320,320,289329,5,8,3:0:0:0:
464,48,289594,1,8,0:0:0:0:
370,80,289727,1,8,0:0:0:0:
465,157,289860,1,8,0:0:0:0:
368,217,289993,1,8,0:0:0:0:
414,278,290125,6,0,P|419:316|426:360,1,76.5000014591217,4|0,0:0|3:0,0:0:0:0:
204,182,290656,2,0,P|199:220|194:258,1,76.5000014591217,10|2,0:0|0:0,0:0:0:0:
99,313,291055,6,0,B|81:280|81:280|90:237,1,76.5000014591217,0|0,3:0|0:0,0:0:0:0:
150,167,291453,6,0,L|193:178,1,38.2500007295609,8|0,3:0|0:0,0:0:0:0:
273,280,291718,2,0,L|310:270,1,38.2500007295609,8|0,3:0|0:0,0:0:0:0:
405,157,291984,6,0,B|385:223|385:223|400:268|400:268|381:335,1,180,12|0,0:0|3:0,0:0:0:0:
369,343,292780,1,0,3:0:0:0:
478,164,293046,5,0,3:0:0:0:
449,148,293178,2,0,P|424:152|388:162,1,45,8|2,0:0|0:0,0:0:0:0:
297,238,293445,5,0,3:0:0:0:
268,254,293577,2,0,P|243:250|207:240,1,45,8|0,3:0|0:0,0:0:0:0:
77,205,293842,5,10,0:0:0:0:
147,234,293975,1,8,0:0:0:0:
222,219,294108,1,8,0:0:0:0:
271,160,294240,1,8,0:0:0:0:
292,86,294373,6,0,P|251:63|195:71,1,94.499997116089,4|0,0:0|3:0,0:0:0:0:
60,129,294771,1,2,0:0:0:0:
108,66,294904,2,0,P|102:35|96:3,1,47.2499985580445,8|0,0:0|0:0,0:0:0:0:
152,138,295170,2,0,P|147:161|143:184,1,47.2499985580445,4|0,3:0|0:0,0:0:0:0:
80,235,295435,5,0,3:0:0:0:
171,314,295568,1,8,0:0:0:0:
91,367,295701,1,2,0:0:0:0:
247,256,295966,5,8,0:3:0:0:
91,367,296232,2,0,P|158:356|252:341,1,141.749995674133,4|8,0:0|0:0,0:0:0:0:
335,295,296762,2,0,L|326:341,1,47.2499985580445,4|0,3:0|0:0,0:0:0:0:
511,243,297028,6,0,P|462:231|400:274,1,94.499997116089,12|0,0:3|3:0,0:0:0:0:
471,309,297426,1,2,0:0:0:0:
297,211,297692,1,2,0:0:0:0:
356,157,297824,6,0,P|345:120|334:84,1,47.2499985580445,8|0,0:0|0:0,0:0:0:0:
228,27,298090,2,0,P|221:50|215:73,1,47.2499985580445,8|0,3:0|0:0,0:0:0:0:
113,188,298355,5,0,3:0:0:0:
114,192,298488,1,0,3:0:0:0:
264,160,298621,6,0,P|207:146|153:131,1,94.499997116089,6|0,0:0|3:0,0:0:0:0:
74,73,299019,1,2,0:0:0:0:
74,73,299152,2,0,P|80:95|87:118,1,47.2499985580445,8|0,0:0|0:0,0:0:0:0:
195,225,299417,2,0,P|188:247|181:270,1,47.2499985580445,4|0,3:0|0:0,0:0:0:0:
91,360,299683,5,0,3:0:0:0:
258,320,299816,1,0,0:0:0:0:
181,270,299948,1,2,0:0:0:0:
330,379,300214,5,8,0:3:0:0:
457,209,300479,2,0,B|485:300|485:300|457:341,1,141.749995674133,12|8,0:0|0:0,0:0:0:0:
346,298,301010,2,0,P|390:291|421:286,1,47.2499985580445,4|0,3:0|0:0,0:0:0:0:
512,205,301276,2,0,P|467:197|389:181,1,94.499997116089,8|0,0:3|3:0,0:0:0:0:
358,142,301674,1,8,0:3:0:0:
355,142,301807,5,4,3:0:0:0:
509,52,301939,1,2,0:0:0:0:
411,19,302072,6,0,P|417:41|429:72,1,47.2499985580445,0|0,3:0|3:0,0:0:0:0:
340,186,302338,2,0,P|348:164|355:142,1,47.2499985580445,8|0,3:0|0:0,0:0:0:0:
233,0,302603,5,0,3:0:0:0:
279,61,302736,1,2,3:2:0:0:
222,148,302869,6,0,P|166:155|117:119,1,94.499997116089,4|0,0:0|0:0,0:0:0:0:
125,128,303267,1,0,3:0:0:0:
0,77,303400,6,0,P|11:127|27:187,1,94.499997116089,8|2,3:3|0:0,0:0:0:0:
87,261,303798,1,8,0:3:0:0:
87,261,303931,2,0,P|93:238|100:215,1,47.2499985580445,4|0,3:0|0:0,0:0:0:0:
187,327,304196,2,0,P|180:304|173:281,1,47.2499985580445,0|0,3:0|0:0,0:0:0:0:
89,384,304462,1,8,3:0:0:0:
231,205,304727,6,0,P|322:192|368:236,1,141.749995674133,4|8,0:0|0:0,0:0:0:0:
399,285,305258,1,4,3:0:0:0:
248,363,305524,6,0,P|308:354|360:346,1,94.499997116089,8|4,0:3|3:0,0:0:0:0:
507,243,305922,1,0,3:0:0:0:
445,292,306055,6,0,P|399:285|376:278,1,47.2499985580445,2|0,0:0|0:0,0:0:0:0:
264,201,306320,1,4,3:0:0:0:
264,201,306453,1,0,3:0:0:0:
238,283,306586,5,8,0:3:0:0:
354,174,306718,1,0,3:0:0:0:
261,122,306851,6,0,P|270:162|281:199,1,47.2499985580445,4|0,3:0|0:0,0:0:0:0:
155,362,307116,5,0,3:0:0:0:
337,274,307382,1,0,3:0:0:0:
101,204,307647,5,4,3:0:0:0:
237,267,307913,1,4,3:0:0:0:
4,350,308178,5,8,3:0:0:0:
144,298,308444,6,0,P|120:293|60:282,1,58.4999973220826,4|0,0:0|3:0,0:0:0:0:
86,286,308975,6,0,B|108:289|130:302|130:302|166:282|166:282|212:302|212:302|258:264|258:264|295:289|295:289|311:259|343:245|343:245|304:205|318:154|318:154|284:153|260:126|260:126|217:143|217:143|235:167|231:201,1,576,4|0,0:0|0:0,0:0:0:0:
225,198,313488,5,0,0:0:0:0:
302,183,313754,1,0,0:0:0:0:
376,208,314019,1,0,0:0:0:0:
428,267,314285,1,0,0:0:0:0:
448,343,314550,5,0,0:0:0:0:
406,275,314816,1,0,0:0:0:0:
420,197,315081,1,0,0:0:0:0:
486,153,315347,2,0,L|513:160,1,18
