osu file format v14

[General]
AudioFilename: audio.mp3
AudioLeadIn: 0
PreviewTime: 38187
Countdown: 0
SampleSet: Soft
StackLeniency: 0.3
Mode: 0
LetterboxInBreaks: 0
WidescreenStoryboard: 0

[Editor]
Bookmarks: 16783,22092,22935,24873,29676,43328,70294,78805,81081,84114,117991,119423,128440,129452,140407,154058,158609,165772
DistanceSpacing: 1
BeatDivisor: 4
GridSize: 16
TimelineZoom: 0.9999999

[Metadata]
Title:Gravity - Zero
TitleUnicode:Гравитация - ноль
Artist:Alisa Kozhikina
ArtistUnicode:Алиса Кожикина
Creator:Testo
Version:Insane
Source:
Tags:Russian Alice gravitatsiya gravitacia nol' gravitacija
BeatmapID:1644339
BeatmapSetID:694185

[Difficulty]
HPDrainRate:5
CircleSize:3.8
OverallDifficulty:7
ApproachRate:8.3
SliderMultiplier:1.75
SliderTickRate:1

[Events]
//Background and Video events
0,0,"ZalupaKentavra.png",0,0
//Break Periods
2,17080,18873
2,19777,21570
2,27867,29070
2,30563,31766
2,57530,62019
2,108766,113255
//Storyboard Layer 0 (Background)
//Storyboard Layer 1 (Fail)
//Storyboard Layer 2 (Pass)
//Storyboard Layer 3 (Foreground)
//Storyboard Sound Samples

[TimingPoints]
701,337.078651685393,4,2,1,60,1,0
5420,-166.666666666667,4,2,1,50,0,0
6094,-100,4,2,1,60,0,0
16880,-1000,4,2,1,45,0,0
22274,-100,4,2,1,45,0,0
27667,-1000,4,2,1,45,0,0
33060,-100,4,2,1,45,0,0
38453,-100,4,2,1,60,0,0
41150,-100,4,2,1,60,0,1
48734,-100,4,2,1,60,0,0
49240,-100,4,2,1,60,0,1
51431,-100,4,2,1,60,0,0
51936,-83.3333333333333,4,2,1,65,0,1
55981,-83.3333333333333,4,2,1,65,0,1
57330,-100,4,2,1,60,0,0
68116,-125,4,2,1,50,0,0
68453,-125,4,2,1,50,0,0
73509,-100,4,2,1,55,0,0
78903,-125,4,2,1,55,0,0
79240,-125,4,2,1,50,0,0
81599,-100,4,2,1,50,0,0
81936,-125,4,2,1,50,0,0
84296,-100,4,2,1,55,0,0
89689,-100,4,2,1,55,0,0
92386,-100,4,2,1,60,0,1
99970,-100,4,2,1,60,0,0
100476,-100,4,2,1,60,0,1
102667,-100,4,2,1,60,0,0
103172,-83.3333333333333,4,2,1,65,0,1
107217,-83.3333333333333,4,2,1,65,0,1
108566,-100,4,2,1,60,0,0
119352,-83.3333333333333,4,2,1,60,0,0
119605,-83.3333333333333,4,2,1,10,0,0
119689,-83.3333333333333,4,2,1,60,0,0
122302,-83.3333333333333,4,2,1,10,0,0
122386,-83.3333333333333,4,2,1,60,0,0
127695,-83.3333333333333,4,2,1,10,0,0
127779,-83.3333333333333,4,2,1,60,0,0
132835,-100,4,2,1,60,0,1
140420,-100,4,2,1,60,0,0
140925,-100,4,2,1,60,0,1
143116,-100,4,2,1,60,0,0
143622,-83.3333333333333,4,2,1,65,0,1
153060,-83.3333333333333,4,2,1,65,0,1
154408,-100,4,2,1,60,0,0

[Colours]
Combo1 : 0,97,193
Combo2 : 0,125,63
Combo3 : 67,99,118
Combo4 : 187,0,126
Combo5 : 105,0,210
Combo6 : 164,0,33

[HitObjects]
224,96,5420,5,8,0:0:0:0:
215,179,5588,1,0,3:0:0:0:
298,188,5757,1,8,0:0:0:0:
307,105,5925,1,0,3:0:0:0:
215,179,6094,6,0,P|173:189|66:111,2,175,4|8|0,3:2|3:2|1:2,0:0:0:0:
298,188,6936,1,0,3:0:0:0:
334,264,7105,1,8,3:2:0:0:
272,326,7274,6,0,P|230:327|178:303,1,87.5,0|0,3:0|0:0,0:0:0:0:
334,264,7611,2,0,P|374:247|417:248,1,87.5,0|8,3:0|0:0,0:0:0:0:
272,326,7948,2,0,P|230:327|137:234,1,175,0|0,1:0|3:0,0:0:0:0:
136,154,8453,1,8,3:2:0:0:
286,62,8790,6,0,B|382:42|367:103|455:78,2,175,4|8|0,3:2|3:2|1:0,0:0:0:0:
201,83,9633,1,0,3:0:0:0:
122,44,9802,1,8,3:2:0:0:
126,130,9970,6,0,P|123:174|98:214,1,87.5,0|0,3:0|0:0,0:0:0:0:
240,265,10307,2,0,P|217:228|214:184,1,87.5,0|8,3:0|0:0,0:0:0:0:
125,129,10644,2,0,P|102:211|23:241,1,175,0|0,1:0|3:0,0:0:0:0:
36,142,11150,1,8,0:0:0:0:
123,108,11318,1,0,3:0:0:0:
207,158,11487,6,0,P|292:170|359:118,2,175,4|8|0,3:2|3:2|1:0,0:0:0:0:
140,111,12330,1,0,3:0:0:0:
99,188,12498,1,8,3:2:0:0:
20,148,12667,6,0,P|18:114|43:56,1,87.5,0|0,3:0|0:0,0:0:0:0:
99,188,13004,2,0,P|115:228|115:271,1,87.5,0|8,3:0|0:0,0:0:0:0:
20,148,13341,2,0,P|30:74|118:5,1,175,0|0,1:0|3:0,0:0:0:0:
189,3,13847,1,8,0:0:0:0:
320,118,14184,6,0,B|411:84|405:143|490:101,2,175,0|8|0,1:0|3:2|3:0,0:0:0:0:
282,196,15026,1,0,3:0:0:0:
238,119,15195,1,8,3:2:0:0:
193,194,15363,6,0,B|102:160|108:219|22:177,1,175,0|8,3:0|3:2,0:0:0:0:
22,178,15785,1,8,3:2:0:0:
22,178,15869,1,8,3:2:0:0:
22,178,15953,1,8,3:2:0:0:
22,178,16038,1,8,3:2:0:0:
22,178,16122,1,8,3:2:0:0:
22,178,16206,1,2,3:2:0:0:
166,334,16375,5,10,3:2:0:0:
166,334,16459,1,10,3:2:0:0:
166,334,16543,1,10,3:2:0:0:
166,334,16628,1,10,3:2:0:0:
166,334,16712,1,10,3:2:0:0:
165,333,16796,1,10,3:2:0:0:
165,333,16880,1,4,3:2:0:0:
348,140,19577,5,4,3:2:0:0:
449,162,22274,6,0,B|484:233|420:254|453:332,2,175,4|8|0,3:2|3:2|3:0,0:0:0:0:
390,97,23116,1,0,3:0:0:0:
303,81,23285,1,8,3:2:0:0:
232,131,23453,6,0,P|182:141|68:76,1,175,0|0,1:2|3:0,0:0:0:0:
30,189,23959,2,0,P|50:219|59:277,1,87.5,8|0,3:2|0:0,0:0:0:0:
116,375,24296,2,0,P|122:332|145:295,1,87.5,0|0,3:0|3:0,0:0:0:0:
216,263,24633,1,8,3:2:0:0:
329,323,24802,5,0,1:0:0:0:
405,351,24970,2,0,P|408:298|394:169,1,175,0|8,3:0|3:2,0:0:0:0:
155,65,25644,1,0,3:0:0:0:
138,151,25813,1,0,3:0:0:0:
220,121,25981,1,8,3:2:0:0:
242,36,26150,1,0,3:0:0:0:
155,65,26318,5,0,3:0:0:0:
220,121,26487,2,0,L|311:135,2,87.5,8|8|0,3:2|3:2|3:2,0:0:0:0:
138,151,26993,2,0,L|47:165,1,87.5,8|2,3:2|3:2,0:0:0:0:
132,232,27330,2,0,L|41:246,1,87.5,2|2,3:2|3:2,0:0:0:0:
126,313,27667,5,4,3:2:0:0:
194,142,29774,5,0,3:0:0:0:
194,142,29858,1,0,3:0:0:0:
277,151,30026,1,8,3:2:0:0:
344,100,30195,1,0,3:0:0:0:
256,35,30363,1,4,3:2:0:0:
151,153,32470,5,0,3:0:0:0:
151,153,32554,1,0,3:0:0:0:
181,225,32723,1,8,3:2:0:0:
233,163,32892,1,0,3:0:0:0:
340,275,33060,6,0,P|325:222|367:103,2,175,4|8|0,3:2|0:0|3:0,0:0:0:0:
288,346,33903,1,0,3:0:0:0:
204,371,34071,1,8,3:2:0:0:
146,304,34240,6,0,P|161:251|119:132,1,175,0|0,1:0|3:0,0:0:0:0:
138,53,34745,2,0,P|180:68|236:62,1,87.5,8|0,3:2|0:0,0:0:0:0:
312,137,35083,2,0,P|268:135|227:150,1,87.5,0|0,3:0|3:0,0:0:0:0:
368,209,35420,1,8,3:2:0:0:
484,151,35588,5,0,1:0:0:0:
410,134,35757,2,0,P|402:198|399:320,1,175,0|8,3:0|3:2,0:0:0:0:
127,345,36431,1,0,3:0:0:0:
168,267,36599,1,0,3:0:0:0:
83,263,36768,1,8,3:2:0:0:
216,339,36936,1,0,3:0:0:0:
131,187,37105,5,4,3:2:0:0:
204,129,37274,2,0,P|229:172|243:212,2,87.5,8|0|0,3:2|3:2|3:0,0:0:0:0:
75,112,37779,2,0,P|90:71|112:33,1,87.5,0|8,3:0|3:2,0:0:0:0:
48,215,38116,2,0,P|87:196|130:186,1,87.5,8|0,3:2|3:0,0:0:0:0:
241,207,38453,5,4,1:2:0:0:
43,337,40644,5,0,3:0:0:0:
43,337,40813,1,8,3:2:0:0:
100,101,41150,6,0,P|147:102|191:110,1,87.5,4|0,3:2|0:0,0:0:0:0:
236,191,41487,2,0,P|220:154|279:36,1,175,8|2,3:2|3:0,0:0:0:0:
359,32,41993,1,2,3:0:0:0:
449,153,42161,5,8,3:2:0:0:
411,223,42330,2,0,P|371:231|304:209,1,87.5,2|0,3:0|0:0,0:0:0:0:
183,287,42667,2,0,P|225:277|268:285,1,87.5,2|8,3:0|3:2,0:0:0:0:
81,258,43004,2,0,P|116:220|221:155,1,175,2|2,3:0|3:0,0:0:0:0:
359,124,43509,2,0,P|309:108|259:78,1,87.5,8|0,3:2|0:0,0:0:0:0:
464,57,43847,5,4,3:2:0:0:
464,57,44015,2,0,L|468:147,1,87.5,2|8,3:0|3:2,0:0:0:0:
355,36,44352,2,0,L|359:126,1,87.5,2|0,3:0|0:0,0:0:0:0:
200,190,44689,6,0,P|252:168|301:177,1,87.5,2|8,3:0|3:2,0:0:0:0:
340,272,45026,2,0,P|296:271|258:252,1,87.5,2|0,3:0|0:0,0:0:0:0:
371,190,45363,6,0,P|423:168|472:177,1,87.5,2|8,3:0|3:2,0:0:0:0:
511,272,45700,2,0,P|467:271|429:252,1,87.5,2|0,3:0|0:0,0:0:0:0:
295,154,46038,5,0,3:0:0:0:
220,194,46206,1,8,3:2:0:0:
126,99,46375,5,0,3:0:0:0:
62,149,46543,2,0,P|58:199|71:267,1,87.5,4|0,3:2|0:0,0:0:0:0:
136,290,46880,2,0,P|66:265|-11:337,1,175,8|2,3:2|3:0,0:0:0:0:
94,363,47386,1,2,3:0:0:0:
237,261,47554,5,8,3:2:0:0:
316,279,47723,2,0,P|325:315|329:375,1,87.5,2|0,3:0|0:0,0:0:0:0:
183,198,48060,2,0,P|186:154|196:111,1,87.5,2|8,3:0|0:0,0:0:0:0:
362,182,48397,6,0,L|261:188,1,87.5,0|0,3:0|3:0,0:0:0:0:
153,275,48734,1,8,3:2:0:0:
139,274,48818,1,8,3:2:0:0:
126,273,48902,1,8,1:2:0:0:
113,272,48986,1,8,3:2:0:0:
100,271,49071,1,8,3:2:0:0:
87,271,49155,1,8,3:2:0:0:
74,270,49240,5,4,1:2:0:0:
12,215,49408,1,0,3:0:0:0:
50,145,49577,2,0,P|96:131|161:141,1,87.5,8|0,3:2|0:0,0:0:0:0:
225,224,49914,2,0,P|181:225|140:211,1,87.5,0|0,3:0|3:0,0:0:0:0:
294,78,50251,6,0,L|288:166,1,87.5,8|0,3:2|0:0,0:0:0:0:
399,200,50588,2,0,L|393:112,1,87.5,0|0,3:0|3:0,0:0:0:0:
313,293,50925,6,0,P|356:296|398:285,1,87.5,8|0,3:2|0:0,0:0:0:0:
151,216,51262,1,0,3:0:0:0:
132,310,51431,1,0,3:0:0:0:
226,329,51599,1,8,3:2:0:0:
245,235,51768,1,0,3:0:0:0:
44,87,51936,6,0,P|37:141|79:199,1,104.999996795654,12|0,3:2|3:0,0:0:0:0:
151,216,52274,1,0,3:0:0:0:
136,121,52442,2,0,P|92:87|21:95,1,104.999996795654,12|0,3:2|3:0,0:0:0:0:
151,216,52779,1,0,3:0:0:0:
225,150,52948,2,0,P|276:147|317:115,1,104.999996795654,8|0,3:2|3:0,0:0:0:0:
407,249,53285,6,0,L|301:231,1,104.999996795654,12|0,3:2|3:0,0:0:0:0:
478,186,53622,1,0,3:0:0:0:
339,327,53790,2,0,L|233:309,1,104.999996795654,12|0,3:2|3:0,0:0:0:0:
407,249,54127,1,0,3:0:0:0:
303,231,54296,1,0,1:0:0:0:
199,213,54465,1,0,1:0:0:0:
11,288,54633,6,0,P|61:277|96:239,1,104.999996795654,12|0,3:2|3:0,0:0:0:0:
106,125,54970,1,0,3:0:0:0:
11,189,55139,2,0,P|-4:238|10:287,1,104.999996795654,12|0,3:2|3:0,0:0:0:0:
106,125,55476,1,0,3:0:0:0:
181,288,55644,2,0,P|146:249|95:238,1,104.999996795654,8|0,3:2|3:0,0:0:0:0:
240,369,55981,6,0,L|467:341,1,209.999993591309,12|0,1:2|3:0,0:0:0:0:
181,288,56487,2,0,L|408:260,1,209.999993591309,12|0,1:2|3:0,0:0:0:0:
122,207,56993,1,8,3:0:0:0:
242,192,57161,1,8,3:0:0:0:
47,106,57330,5,4,3:2:0:0:
427,49,62723,6,0,P|409:134|407:221,2,175,4|8|0,3:2|3:2|1:0,0:0:0:0:
337,18,63566,1,0,3:0:0:0:
258,55,63734,1,8,3:2:0:0:
184,6,63903,6,0,P|138:2|86:15,1,87.5,0|0,3:0|0:0,0:0:0:0:
111,118,64240,2,0,P|157:122|209:109,1,87.5,0|8,3:0|0:0,0:0:0:0:
184,6,64577,2,0,P|138:2|8:73,1,175,0|0,1:0|3:0,0:0:0:0:
12,141,65083,1,8,0:0:0:0:
90,298,65420,5,0,1:0:0:0:
90,298,65588,1,0,0:0:0:0:
90,298,65757,2,0,L|291:306,1,175,8|0,3:2|3:0,0:0:0:0:
341,263,66262,1,0,3:0:0:0:
427,251,66431,1,8,3:2:0:0:
471,326,66599,6,0,P|456:273|499:160,1,175,0|0,3:0|3:2,0:0:0:0:
374,83,67105,2,0,P|390:118|389:176,1,87.5,8|0,3:2|3:2,0:0:0:0:
335,233,67442,1,10,3:2:0:0:
253,201,67611,1,10,3:2:0:0:
253,201,67695,1,10,3:2:0:0:
253,201,67779,1,10,3:2:0:0:
253,201,67863,1,10,3:2:0:0:
253,201,67948,1,10,3:2:0:0:
253,201,68032,1,10,3:2:0:0:
253,201,68116,6,0,B|194:232|190:182|116:207,2,140,4|8|0,3:2|0:0|3:0,0:0:0:0:
339,224,68959,1,0,3:0:0:0:
339,224,69127,1,8,0:0:0:0:
339,224,69296,2,0,L|417:230,1,70,0|0,3:0|0:0,0:0:0:0:
326,146,69633,2,0,L|404:152,1,70,0|8,3:0|0:0,0:0:0:0:
313,68,69970,2,0,L|469:80,1,140,0|0,3:0|3:0,0:0:0:0:
326,146,70476,5,8,3:2:0:0:
244,117,70644,1,0,3:0:0:0:
156,187,70813,6,0,P|115:202|26:161,1,140,4|8,3:2|0:0,0:0:0:0:
25,77,71318,2,0,L|98:71,1,70,0|0,3:0|3:0,3:3:0:0:
170,96,71656,2,0,L|243:90,1,70,0|8,3:0|3:2,3:3:0:0:
299,31,71993,2,0,P|268:92|280:159,2,140,0|0|0,3:0|3:0|3:0,0:0:0:0:
384,13,72835,1,0,3:0:0:0:
384,13,73004,1,0,3:0:0:0:
445,87,73172,1,8,3:2:0:0:
445,87,73509,6,0,P|414:167|435:250,2,175,4|8|0,3:2|3:2|3:0,0:0:0:0:
384,13,74352,1,0,3:0:0:0:
309,71,74521,1,8,3:2:0:0:
245,11,74689,6,0,P|276:73|259:186,1,175,0|0,1:2|3:0,0:0:0:0:
202,237,75195,2,0,P|162:241|101:222,1,87.5,8|0,3:2|0:0,0:0:0:0:
283,278,75532,2,0,P|325:267|368:271,1,87.5,0|0,3:0|3:0,0:0:0:0:
211,323,75869,1,8,3:2:0:0:
279,190,76038,5,0,1:0:0:0:
336,130,76206,2,0,P|398:108|510:154,2,175,0|8|0,3:0|3:2|3:0,0:0:0:0:
279,190,77049,1,0,3:0:0:0:
205,232,77217,1,8,3:2:0:0:
202,147,77386,1,0,3:0:0:0:
202,147,77723,6,0,L|197:59,2,87.5,8|8|0,3:2|3:2|3:2,0:0:0:0:
279,190,78229,2,0,L|283:277,1,87.5,8|2,3:2|3:2,0:0:0:0:
360,167,78566,2,0,L|364:254,1,87.5,2|2,3:2|3:2,0:0:0:0:
447,125,78903,6,0,P|382:127|314:65,1,140,4|8,3:2|3:2,0:0:0:0:
238,38,79408,2,0,P|201:38|152:51,1,70,0|0,3:0|3:0,0:0:0:0:
182,130,79745,2,0,P|155:156|130:200,1,70,2|8,3:0|3:2,3:3:0:0:
207,234,80083,2,0,P|208:298|236:381,2,140,2|2|2,3:2|3:0|3:0,0:0:0:0:
274,182,80925,1,0,3:0:0:0:
422,263,81094,5,0,3:0:0:0:
360,202,81262,1,8,3:2:0:0:
436,173,81431,1,0,3:0:0:0:
274,182,81599,6,0,P|202:192|114:133,1,175,4|8,3:2|0:0,0:0:0:0:
133,54,82105,2,0,P|167:43|202:39,1,70,0|0,3:0|3:0,0:0:0:0:
274,79,82442,2,0,P|307:89|342:93,1,70,2|8,3:0|3:2,0:0:0:0:
411,39,82779,6,0,P|386:78|395:181,2,140,2|2|2,3:0|3:2|3:0,0:0:0:0:
495,18,83622,1,0,3:2:0:0:
512,97,83790,1,0,3:0:0:0:
451,226,83959,5,8,3:2:0:0:
434,305,84127,1,0,3:0:0:0:
275,333,84296,6,0,B|189:365|188:314|103:345,2,175,4|8|0,3:2|0:0|3:0,0:0:0:0:
283,243,85139,1,0,3:0:0:0:
205,203,85307,1,8,3:2:0:0:
103,345,85476,6,0,P|112:285|95:167,1,175,0|0,1:0|3:0,0:0:0:0:
51,98,85981,1,8,3:2:0:0:
130,60,86150,6,0,P|173:72|231:56,1,87.5,0|0,3:0|0:0,0:0:0:0:
276,157,86487,2,0,P|233:149|191:161,1,87.5,0|8,3:0|3:2,0:0:0:0:
347,216,86824,1,0,1:0:0:0:
376,51,86993,6,0,P|363:94|353:146,1,87.5,4|0,3:2|3:0,0:0:0:0:
413,276,87330,2,0,P|353:249|249:292,1,175,8|0,3:2|3:0,0:0:0:0:
192,345,87835,1,0,3:0:0:0:
109,315,88004,1,8,3:2:0:0:
175,258,88172,1,0,3:0:0:0:
387,104,88509,5,8,3:2:0:0:
369,189,88678,1,0,3:2:0:0:
303,131,88847,1,0,3:0:0:0:
387,104,89015,5,0,3:0:0:0:
408,100,89099,1,0,3:0:0:0:
430,96,89183,1,8,3:2:0:0:
369,189,89352,5,8,3:2:0:0:
361,209,89436,1,0,3:0:0:0:
354,230,89520,1,0,3:0:0:0:
274,97,89689,5,4,1:2:0:0:
41,347,91712,5,8,3:2:0:0:
61,266,91880,1,0,3:0:0:0:
142,286,92049,1,8,3:2:0:0:
122,367,92217,1,0,3:0:0:0:
41,347,92386,6,0,P|38:289|31:246,1,87.5,4|0,3:2|0:0,0:0:0:0:
147,194,92723,2,0,P|130:274|121:387,1,175,8|2,3:2|3:0,0:0:0:0:
221,325,93229,1,2,3:0:0:0:
352,195,93397,5,8,3:2:0:0:
275,174,93566,2,0,L|270:83,1,87.5,2|0,3:0|0:0,0:0:0:0:
429,218,93903,2,0,L|424:305,1,87.5,2|8,3:0|3:2,0:0:0:0:
275,174,94240,2,0,L|265:-6,1,175,2|2,3:0|3:0,0:0:0:0:
403,37,94745,2,0,L|398:124,1,87.5,8|0,3:2|0:0,0:0:0:0:
396,242,95083,5,4,3:2:0:0:
396,242,95251,2,0,P|435:248|484:226,1,87.5,2|8,3:0|3:2,0:0:0:0:
337,312,95588,2,0,P|297:295|254:300,1,87.5,2|0,3:0|0:0,0:0:0:0:
210,194,95925,6,0,L|311:210,1,87.5,2|8,3:0|3:2,0:0:0:0:
186,105,96262,2,0,L|287:121,1,87.5,2|0,3:0|0:0,0:0:0:0:
120,164,96599,6,0,P|76:169|31:208,1,87.5,2|8,3:0|3:2,0:0:0:0:
122,330,96936,2,0,P|139:289|128:230,1,87.5,2|0,3:0|0:0,0:0:0:0:
296,207,97274,6,0,P|292:250|309:289,1,87.5,0|8,3:0|3:2,0:0:0:0:
362,150,97611,1,0,3:0:0:0:
281,122,97779,6,0,P|238:111|170:119,1,87.5,4|0,3:2|0:0,0:0:0:0:
134,185,98116,2,0,P|159:126|118:22,1,175,8|2,3:2|3:0,0:0:0:0:
38,3,98622,1,2,3:0:0:0:
67,138,98790,5,8,3:2:0:0:
133,184,98959,2,0,P|175:197|219:194,1,87.5,2|0,3:0|0:0,0:0:0:0:
319,278,99296,2,0,P|275:274|233:287,1,87.5,2|8,3:0|0:0,0:0:0:0:
395,146,99633,6,0,L|399:245,1,87.5,0|0,3:0|3:0,0:0:0:0:
274,179,99970,1,8,3:2:0:0:
274,165,100054,1,8,3:2:0:0:
275,152,100138,1,8,1:2:0:0:
275,139,100222,1,8,3:2:0:0:
276,126,100307,1,8,3:2:0:0:
276,113,100391,1,8,3:2:0:0:
277,100,100475,5,4,1:2:0:0:
280,14,100644,1,0,3:0:0:0:
199,54,100813,2,0,P|161:61|107:42,1,87.5,8|0,3:2|0:0,0:0:0:0:
0,125,101150,2,0,P|42:118|84:131,1,87.5,0|0,3:0|3:0,0:0:0:0:
162,267,101487,6,0,L|155:165,1,87.5,8|0,3:2|0:0,0:0:0:0:
245,280,101824,2,0,L|238:178,1,87.5,0|0,3:0|3:0,0:0:0:0:
359,105,102161,6,0,P|317:118|274:111,1,87.5,8|0,3:2|0:0,0:0:0:0:
436,163,102498,1,0,3:0:0:0:
446,250,102667,1,0,3:0:0:0:
391,318,102835,1,8,3:2:0:0:
304,327,103004,1,0,3:0:0:0:
171,188,103172,6,0,P|137:192|76:246,1,104.999996795654,12|0,3:2|3:0,0:0:0:0:
267,207,103509,1,0,3:0:0:0:
166,287,103678,2,0,P|179:255|163:175,1,104.999996795654,12|0,3:2|3:0,0:0:0:0:
184,64,104015,1,0,3:0:0:0:
295,108,104184,2,0,P|315:135|392:161,1,104.999996795654,8|0,3:2|3:0,0:0:0:0:
473,301,104521,6,0,L|356:288,1,104.999996795654,12|0,3:2|3:0,0:0:0:0:
264,276,104858,1,0,3:0:0:0:
74,348,105026,2,0,L|179:337,1,104.999996795654,12|0,3:2|3:0,0:0:0:0:
264,276,105363,1,0,3:0:0:0:
334,206,105532,1,0,1:0:0:0:
240,176,105700,1,0,1:0:0:0:
121,249,105869,6,0,P|148:217|149:147,1,104.999996795654,12|0,3:2|3:0,0:0:0:0:
132,43,106206,1,0,3:0:0:0:
152,155,106375,2,0,P|166:194|226:230,1,104.999996795654,12|0,3:2|3:0,0:0:0:0:
336,255,106712,1,0,3:0:0:0:
216,228,106880,2,0,P|174:220|113:254,1,104.999996795654,8|0,3:2|3:0,0:0:0:0:
289,361,107217,6,0,P|306:258|297:154,1,209.999993591309,12|0,1:2|3:0,0:0:0:0:
78,153,107723,2,0,P|68:257|86:360,1,209.999993591309,12|0,1:2|3:0,0:0:0:0:
160,86,108229,1,8,3:0:0:0:
258,37,108397,1,8,3:0:0:0:
57,47,108566,5,4,3:2:0:0:
291,126,113959,6,0,P|385:112|483:114,2,175,4|8|0,3:2|3:2|1:0,0:0:0:0:
211,183,114802,1,0,3:0:0:0:
190,267,114970,1,8,3:2:0:0:
248,332,115139,6,0,P|299:337|339:326,1,87.5,0|0,3:0|0:0,0:0:0:0:
414,361,115476,2,0,P|465:366|505:355,1,87.5,0|8,3:0|0:0,0:0:0:0:
511,221,115813,2,0,P|445:211|324:235,1,175,0|0,1:0|3:0,0:0:0:0:
271,284,116318,1,8,0:0:0:0:
121,190,116656,6,0,P|142:105|120:22,2,175,0|8|0,1:0|3:2|3:0,0:0:0:0:
71,261,117498,1,0,3:0:0:0:
129,325,117667,1,8,3:2:0:0:
205,282,117835,6,0,P|249:268|303:276,1,87.5,0|0,3:0|1:0,0:0:0:0:
328,291,118088,1,0,3:0:0:0:
328,291,118172,2,0,L|375:286,1,43.75,0|0,3:2|3:2,0:0:0:0:
433,228,118341,2,0,L|476:232,3,43.75,2|0|10|0,3:2|3:2|3:2|3:2,0:0:0:0:
357,205,118678,2,0,L|313:209,3,43.75,2|0|2|0,3:2|3:2|3:2|3:2,0:0:0:0:
418,148,119015,5,10,3:2:0:0:
419,126,119099,1,2,3:2:0:0:
420,104,119183,1,2,3:2:0:0:
421,82,119267,1,2,3:2:0:0:
420,59,119352,6,0,B|313:106|321:37|215:71,1,209.999993591309,4|8,3:2|3:2,0:0:0:0:
141,97,119858,1,0,0:0:0:0:
64,247,120026,5,0,3:0:0:0:
148,267,120195,1,0,3:0:0:0:
124,185,120363,1,8,3:2:0:0:
223,309,120532,2,0,P|285:299|321:259,1,104.999996795654,0|0,1:0|0:0,0:0:0:0:
346,103,120869,5,0,3:0:0:0:
376,232,121038,1,10,3:2:0:0:
372,121,121206,5,0,3:0:0:0:
347,215,121375,1,2,3:2:0:0:
368,136,121543,5,0,3:0:0:0:
394,195,121712,1,10,3:2:0:0:
400,159,121880,5,0,3:0:0:0:
375,187,122049,6,0,P|277:216|184:143,1,209.999993591309,4|8,3:2|0:0,0:0:0:0:
172,73,122554,1,0,0:0:0:0:
25,174,122723,5,0,3:0:0:0:
117,149,122892,1,0,3:0:0:0:
48,88,123060,1,8,3:2:0:0:
92,241,123229,6,0,P|129:257|212:252,1,104.999996795654,0|0,1:0|0:0,0:0:0:0:
308,148,123566,2,0,P|255:146|207:164,1,104.999996795654,0|8,3:0|3:2,0:0:0:0:
419,329,123903,6,0,B|417:313|417:313|399:299|399:299|413:281|413:281|395:267|395:267|409:249|409:249|391:235|391:235|405:217|405:217|387:203|387:203|401:186|401:186|383:172|383:172|381:156,1,209.999993591309,0|0,1:0|3:0,0:0:0:0:
207,164,124408,2,0,B|193:196|193:196|207:221|207:221|196:279,1,104.999996795654,8|0,3:2|0:0,0:0:0:0:
379,85,124745,5,4,3:2:0:0:
352,82,124829,1,0,3:0:0:0:
326,79,124913,1,0,3:0:0:0:
300,76,124997,1,0,3:0:0:0:
274,73,125083,2,0,L|217:66,3,52.4999983978272,10|0|2|0,3:2|3:0|3:2|3:0,3:3:0:0:
151,128,125420,5,0,3:0:0:0:
154,154,125504,1,0,3:0:0:0:
157,180,125588,1,2,3:2:0:0:
160,206,125672,1,0,3:0:0:0:
163,233,125758,2,0,L|170:290,3,52.4999983978272,8|0|0|0,3:2|3:0|3:0|3:0,0:0:0:0:
290,352,126094,2,0,L|296:299,3,52.4999983978272,4|0|0|0,3:2|3:0|3:0|3:0,0:0:0:0:
367,247,126431,5,8,3:2:0:0:
338,220,126515,1,2,3:0:0:0:
300,211,126599,1,2,3:0:0:0:
262,221,126683,1,2,3:0:0:0:
234,247,126768,1,4,3:2:0:0:
206,273,126853,1,2,3:2:0:0:
168,283,126937,1,2,3:2:0:0:
130,274,127021,1,2,3:2:0:0:
101,247,127105,5,12,3:2:0:0:
129,221,127190,1,2,3:2:0:0:
167,211,127274,1,2,3:2:0:0:
205,220,127358,1,2,3:2:0:0:
234,247,127442,6,0,B|332:323|371:240|451:277,2,209.999993591309,4|8|0,3:2|3:2|3:0,0:0:0:0:
50,268,128285,1,0,3:0:0:0:
89,348,128453,1,8,3:2:0:0:
129,221,128622,2,0,P|218:216|319:124,1,209.999993591309,0|0,1:0|1:0,0:0:0:0:
353,22,129127,1,8,3:2:0:0:
270,62,129296,1,0,1:0:0:0:
397,101,129465,5,0,1:0:0:0:
421,234,129633,1,8,3:2:0:0:
286,295,129802,1,8,1:2:0:0:
173,179,129970,1,8,3:2:0:0:
306,183,130139,5,4,1:2:0:0:
196,166,132161,5,8,3:2:0:0:
196,166,132330,1,0,3:0:0:0:
326,226,132498,1,8,3:2:0:0:
326,226,132667,1,0,3:0:0:0:
226,349,132835,6,0,P|225:300|235:258,1,87.5,4|0,3:2|0:0,0:0:0:0:
129,96,133172,2,0,P|143:183|141:286,1,175,8|2,3:2|3:0,0:0:0:0:
114,348,133678,1,2,3:0:0:0:
44,229,133846,5,8,3:2:0:0:
106,181,134015,2,0,P|146:173|213:195,1,87.5,2|0,3:0|0:0,0:0:0:0:
238,273,134352,2,0,P|271:295|303:358,1,87.5,2|8,3:0|3:2,0:0:0:0:
411,357,134689,2,0,P|410:286|466:195,1,175,2|2,3:0|3:0,0:0:0:0:
426,113,135194,2,0,P|374:103|326:67,1,87.5,8|0,3:2|0:0,0:0:0:0:
139,33,135532,5,4,3:2:0:0:
139,33,135700,2,0,L|143:123,1,87.5,2|8,3:0|3:2,0:0:0:0:
248,151,136037,2,0,L|244:63,1,87.5,2|0,3:0|0:0,0:0:0:0:
111,234,136374,6,0,P|163:212|212:221,1,87.5,2|8,3:0|3:2,0:0:0:0:
252,314,136711,2,0,P|208:313|170:294,1,87.5,2|0,3:0|0:0,0:0:0:0:
337,279,137049,6,0,L|346:395,1,87.5,2|8,3:0|3:2,0:0:0:0:
192,214,137386,2,0,L|308:205,1,87.5,2|0,3:0|0:0,0:0:0:0:
401,178,137723,5,0,3:0:0:0:
320,100,137891,1,8,3:2:0:0:
55,150,138060,5,0,3:0:0:0:
105,214,138228,2,0,P|155:218|223:205,1,87.5,4|0,3:2|0:0,0:0:0:0:
300,272,138565,2,0,P|230:247|153:319,1,175,8|2,3:2|3:0,0:0:0:0:
118,383,139071,1,2,3:0:0:0:
17,225,139239,5,8,3:2:0:0:
55,150,139408,2,0,P|50:112|68:54,1,87.5,2|0,3:0|0:0,0:0:0:0:
216,132,139745,2,0,P|227:173|222:217,1,87.5,2|8,3:0|0:0,0:0:0:0:
151,291,140082,6,0,L|50:297,1,87.5,0|0,3:0|3:0,0:0:0:0:
245,314,140419,1,8,3:2:0:0:
259,315,140503,1,8,3:2:0:0:
272,316,140587,1,8,1:2:0:0:
285,317,140671,1,8,3:2:0:0:
298,318,140756,1,8,3:2:0:0:
311,318,140840,1,8,3:2:0:0:
324,319,140925,5,4,1:2:0:0:
399,271,141093,1,0,3:0:0:0:
319,150,141262,2,0,L|327:258,1,87.5,8|0,3:2|0:0,0:0:0:0:
208,275,141599,5,0,3:0:0:0:
218,186,141768,1,0,3:0:0:0:
137,223,141936,2,0,P|94:230|31:203,1,87.5,8|0,3:2|0:0,0:0:0:0:
218,186,142274,5,0,3:0:0:0:
296,243,142442,1,0,3:0:0:0:
299,146,142611,2,0,L|289:56,1,87.5,8|0,3:2|0:0,0:0:0:0:
218,186,142948,5,0,3:0:0:0:
204,280,143116,1,0,3:0:0:0:
395,278,143285,1,8,3:2:0:0:
381,184,143453,1,0,3:0:0:0:
280,348,143622,6,0,P|300:312|295:235,1,104.999996795654,12|0,3:2|3:0,0:0:0:0:
211,144,143959,1,0,3:0:0:0:
204,280,144127,2,0,P|225:315|294:349,1,104.999996795654,12|0,3:2|3:0,0:0:0:0:
299,146,144465,1,0,3:0:0:0:
147,208,144633,2,0,P|105:208|41:251,1,104.999996795654,8|0,3:2|3:0,0:0:0:0:
299,146,144970,6,0,P|300:91|283:24,1,104.999996795654,12|0,3:2|3:0,0:0:0:0:
255,217,145307,1,0,3:0:0:0:
361,240,145476,2,0,P|400:201|435:142,1,104.999996795654,12|0,3:2|3:0,0:0:0:0:
199,281,145813,1,0,3:0:0:0:
275,344,145981,1,0,1:0:0:0:
375,331,146150,1,0,1:0:0:0:
125,201,146318,6,0,L|106:334,1,104.999996795654,12|0,3:2|3:0,0:0:0:0:
191,137,146656,1,0,3:0:0:0:
279,232,146824,2,0,L|298:365,1,104.999996795654,12|0,3:2|3:0,0:0:0:0:
341,117,147161,1,0,3:0:0:0:
205,33,147330,2,0,L|186:166,1,104.999996795654,8|0,3:2|3:0,0:0:0:0:
439,134,147667,6,0,P|376:110|329:122,1,104.999996795654,12|0,1:2|3:0,0:0:0:0:
471,226,148004,1,0,3:0:0:0:
276,193,148172,2,0,P|328:150|341:103,1,104.999996795654,12|0,1:2|3:0,0:0:0:0:
169,127,148509,1,0,3:0:0:0:
306,22,148678,2,0,P|316:88|350:123,1,104.999996795654,0|0,1:0|1:0,0:0:0:0:
471,226,149015,6,0,P|411:207|358:226,1,104.999996795654,12|0,3:2|3:0,0:0:0:0:
273,314,149352,1,0,3:0:0:0:
414,308,149521,2,0,P|460:265|470:210,1,104.999996795654,12|0,3:2|3:0,0:0:0:0:
459,64,149858,1,0,3:0:0:0:
329,127,150026,2,0,P|342:188|385:224,1,104.999996795654,8|0,3:2|3:0,0:0:0:0:
232,125,150363,6,0,L|111:105,1,104.999996795654,12|0,3:2|3:0,0:0:0:0:
20,276,150700,1,0,3:0:0:0:
197,326,150869,2,0,L|177:205,1,104.999996795654,12|0,3:2|3:0,0:0:0:0:
94,363,151206,1,0,3:0:0:0:
197,326,151375,1,0,1:0:0:0:
102,249,151543,1,0,1:0:0:0:
431,310,151712,6,0,P|431:258|404:213,1,104.999996795654,12|0,3:2|3:0,0:0:0:0:
355,373,152049,1,0,3:0:0:0:
335,142,152217,2,0,P|307:186|308:238,1,104.999996795654,12|0,3:2|3:0,0:0:0:0:
425,85,152554,1,0,3:0:0:0:
211,17,152723,2,0,P|232:67|223:133,1,104.999996795654,8|0,3:2|3:0,0:0:0:0:
79,169,153060,6,0,P|170:130|239:201,1,209.999993591309,12|0,1:2|3:0,0:0:0:0:
399,234,153566,2,0,P|307:272|238:201,1,209.999993591309,12|0,1:2|3:0,0:0:0:0:
476,158,154071,1,8,3:0:0:0:
476,158,154156,1,8,3:0:0:0:
476,158,154240,1,8,3:0:0:0:
476,158,154324,1,8,3:0:0:0:
476,158,154408,6,0,P|486:116|408:9,2,175,4|8|0,3:2|3:2|1:2,0:0:0:0:
337,178,155250,1,0,3:0:0:0:
301,254,155419,1,8,3:2:0:0:
363,316,155588,6,0,P|405:317|457:293,1,87.5,0|0,3:0|0:0,0:0:0:0:
301,254,155925,2,0,P|261:237|218:238,1,87.5,0|8,3:0|0:0,0:0:0:0:
363,316,156262,2,0,P|405:317|498:224,1,175,0|0,1:0|3:0,0:0:0:0:
499,144,156767,1,8,3:2:0:0:
217,59,157104,6,0,B|121:39|136:100|48:75,2,175,4|8|0,3:2|3:2|1:0,0:0:0:0:
302,80,157947,1,0,3:0:0:0:
381,41,158116,1,8,3:2:0:0:
377,127,158284,6,0,P|380:171|405:211,1,87.5,0|0,3:0|0:0,0:0:0:0:
263,262,158621,2,0,P|286:225|289:181,1,87.5,0|8,3:0|0:0,0:0:0:0:
378,126,158958,2,0,P|401:208|480:238,1,175,0|0,1:0|3:0,0:0:0:0:
467,139,159464,1,8,0:0:0:0:
380,105,159632,1,0,3:0:0:0:
296,155,159801,6,0,P|211:167|144:115,2,175,4|8|0,3:2|3:2|1:0,0:0:0:0:
363,108,160644,1,0,3:0:0:0:
404,185,160812,1,8,3:2:0:0:
483,145,160981,6,0,P|485:111|460:53,1,87.5,0|0,3:0|0:0,0:0:0:0:
404,185,161318,2,0,P|388:225|388:268,1,87.5,0|8,3:0|0:0,0:0:0:0:
483,145,161655,2,0,P|473:71|385:2,1,175,0|0,1:0|3:0,0:0:0:0:
314,0,162161,1,8,0:0:0:0:
183,115,162498,6,0,B|92:81|98:140|13:98,2,175,0|8|0,1:0|3:2|3:0,0:0:0:0:
221,193,163340,1,0,3:0:0:0:
265,116,163509,1,8,3:2:0:0:
310,191,163678,6,0,L|415:178,1,87.5,0|8,3:0|3:2,0:0:0:0:
472,145,164015,1,0,3:2:0:0:
472,145,164099,1,0,3:2:0:0:
472,145,164183,1,2,3:2:0:0:
472,145,164268,1,0,3:2:0:0:
472,145,164352,1,0,3:2:0:0:
386,89,164521,6,0,L|335:82,2,43.75,0|0|0,3:2|3:0|3:2,0:0:0:0:
351,192,164857,5,8,3:2:0:0:
351,192,164942,1,10,3:2:0:0:
351,192,165026,1,0,3:2:0:0:
352,191,165110,1,0,3:2:0:0:
352,191,165194,1,6,3:2:0:0:
