osu file format v14

[General]
AudioFilename: audio.mp3
AudioLeadIn: 0
PreviewTime: 38187
Countdown: 0
SampleSet: Soft
StackLeniency: 0.3
Mode: 2
LetterboxInBreaks: 0
WidescreenStoryboard: 1

[Editor]
DistanceSpacing: 1.4
BeatDivisor: 4
GridSize: 16
TimelineZoom: 1.8

[Metadata]
Title:Gravity - Zero
TitleUnicode:Гравитация - ноль
Artist:Alisa Kozhikina
ArtistUnicode:Алиса Кожикина
Creator:Nelly
Version:Authorization
Source:
Tags:Russian Alice gravitatsiya gravitacia nol' gravitacija
BeatmapID:1988265
BeatmapSetID:952141

[Difficulty]
HPDrainRate:7
CircleSize:4
OverallDifficulty:9.3
ApproachRate:9.3
SliderMultiplier:1.9
SliderTickRate:2

[Events]
//Background and Video events
0,0,"bg.png",0,0
//Break Periods
//Storyboard Layer 0 (Background)
//Storyboard Layer 1 (Fail)
//Storyboard Layer 2 (Pass)
//Storyboard Layer 3 (Foreground)
//Storyboard Sound Samples

[TimingPoints]
701,337.078651685393,4,2,1,60,1,0
5420,-100,4,2,1,50,0,0
6094,-100,4,2,1,60,0,0
16880,-1000,4,2,1,45,0,0
22274,-100,4,2,1,45,0,0
27667,-1000,4,2,1,45,0,0
33060,-100,4,2,1,45,0,0
38453,-100,4,2,1,60,0,0
41150,-100,4,2,1,60,0,1
48734,-100,4,2,1,60,0,0
49240,-100,4,2,1,60,0,1
51431,-100,4,2,1,60,0,0
51936,-100,4,2,1,65,0,1
57330,-100,4,2,1,60,0,0
68116,-125,4,2,1,50,0,0
73509,-100,4,2,1,55,0,0
78903,-125,4,2,1,55,0,0
79240,-125,4,2,1,50,0,0
81599,-100,4,2,1,50,0,0
81936,-125,4,2,1,50,0,0
84296,-100,4,2,1,55,0,0
89689,-100,4,2,1,55,0,0
92386,-100,4,2,1,60,0,1
99970,-100,4,2,1,60,0,0
100476,-100,4,2,1,60,0,1
102667,-100,4,2,1,60,0,0
103172,-100,4,2,1,65,0,1
107217,-83.3333333333333,4,2,1,65,0,1
108566,-100,4,2,1,60,0,0
119352,-100,4,2,1,60,0,0
132835,-100,4,2,1,60,0,1
140420,-100,4,2,1,60,0,0
140925,-100,4,2,1,60,0,1
143116,-100,4,2,1,60,0,0
143622,-100,4,2,1,65,0,1
153060,-83.3333333333333,4,2,1,65,0,1
154408,-100,4,2,1,60,0,0

[Colours]
Combo1 : 0,97,193
Combo2 : 0,125,63
Combo3 : 67,99,118
Combo4 : 187,0,126
Combo5 : 105,0,210
Combo6 : 164,0,33

[HitObjects]
190,173,5420,5,8,0:0:0:0:
67,167,5588,1,0,3:0:0:0:
321,39,5757,1,8,0:0:0:0:
198,45,5925,1,0,3:0:0:0:
425,309,6094,6,0,P|332:304|235:322,2,190,4|8|0,3:2|3:2|1:2,0:0:0:0:
301,206,6936,1,0,3:0:0:0:
425,200,7105,1,8,3:2:0:0:
147,222,7274,6,0,L|144:128,1,95,0|0,3:0|0:0,0:0:0:0:
298,111,7611,2,0,L|301:205,1,95,0|8,3:0|0:0,0:0:0:0:
39,333,7948,2,0,P|91:334|233:317,1,190,0|0,1:0|3:0,0:0:0:0:
95,233,8453,2,0,L|92:137,1,95,8|0,3:2|3:0,0:0:0:0:
378,59,8790,6,0,P|284:76|190:71,2,190,4|8|0,3:2|3:2|1:0,0:0:0:0:
255,176,9633,1,0,3:0:0:0:
378,181,9802,1,8,3:2:0:0:
80,278,9970,6,0,L|75:178,1,95,0|0,3:0|0:0,0:0:0:0:
198,78,10307,2,0,L|104:76,1,95,0|8,3:0|0:0,0:0:0:0:
368,281,10644,2,0,P|296:290|181:271,1,190,0|0,1:0|3:0,0:0:0:0:
314,175,11150,1,8,0:0:0:0:
181,172,11318,1,0,3:0:0:0:
487,343,11487,6,0,P|394:338|297:356,2,190,4|8|0,3:2|3:2|1:0,0:0:0:0:
363,240,12329,1,0,3:0:0:0:
487,234,12498,1,8,3:2:0:0:
204,172,12667,6,0,L|201:78,1,95,0|0,3:0|0:0,0:0:0:0:
355,61,13004,2,0,L|358:155,1,95,0|8,3:0|0:0,0:0:0:0:
104,343,13341,2,0,P|156:331|295:352,1,190,0|0,1:0|3:0,0:0:0:0:
157,231,13847,2,0,L|62:229,1,95,8|0,0:0|3:0,0:0:0:0:
327,108,14184,6,0,P|234:113|137:95,2,190,0|8|0,1:0|3:2|3:0,0:0:0:0:
203,211,15026,1,0,3:0:0:0:
327,217,15195,1,8,3:2:0:0:
75,340,15363,2,0,L|72:246,1,95,0|0,3:0|0:0,0:0:0:0:
327,217,15700,6,0,L|332:163,1,47.5,8|8,3:2|3:2,0:0:0:0:
134,95,15869,1,8,3:2:0:0:
91,111,15953,1,8,3:2:0:0:
73,153,16037,1,8,3:2:0:0:
92,196,16121,1,8,3:2:0:0:
327,217,16206,6,0,L|423:209,1,95,2|10,3:2|3:2,0:0:0:0:
375,165,16459,1,10,3:2:0:0:
162,295,16543,2,0,L|112:301,1,47.5,10|10,3:2|3:2,0:0:0:0:
316,338,16712,2,0,L|348:302,1,47.5,10|0,3:2|0:0,0:0:0:0:
39,106,16880,6,0,L|37:84,1,19,4|8,3:2|0:0,0:0:0:0:
407,263,17892,5,8,0:0:0:0:
39,286,18566,5,8,0:0:0:0:
407,119,19071,5,0,3:0:0:0:
256,126,19239,1,8,3:2:0:0:
104,131,19408,1,0,3:0:0:0:
473,106,19577,6,0,L|475:84,1,19,4|8,3:2|0:0,0:0:0:0:
105,263,20589,5,8,0:0:0:0:
473,286,21263,5,8,0:0:0:0:
105,119,21768,5,0,3:0:0:0:
256,126,21936,1,8,3:2:0:0:
408,131,22105,1,0,3:0:0:0:
76,331,22274,6,0,P|132:337|270:323,1,190,4|8,3:2|3:2,0:0:0:0:
376,211,22779,1,2,0:0:0:0:
113,207,22948,2,0,L|209:201,2,95,0|0|8,3:0|3:0|3:2,0:0:0:0:
427,59,23453,6,0,P|334:46|239:52,1,190,0|0,1:2|3:0,0:0:0:0:
82,137,23959,2,0,L|77:231,1,95,8|0,3:2|0:0,0:0:0:0:
351,340,24296,2,0,L|356:246,1,95,0|0,3:0|3:0,0:0:0:0:
201,172,24633,2,0,L|295:168,1,95,8|0,3:2|1:0,0:0:0:0:
32,320,24970,6,0,P|82:314|222:326,2,190,0|8|0,3:0|3:2|3:0,0:0:0:0:
168,216,25813,1,0,3:0:0:0:
32,208,25981,1,8,3:2:0:0:
346,138,26150,6,0,L|351:42,1,95,0|0,3:0|3:0,0:0:0:0:
78,93,26487,1,8,3:2:0:0:
212,87,26656,1,8,3:2:0:0:
78,93,26824,1,0,3:2:0:0:
386,330,26993,6,0,L|390:235,1,95,8|2,3:2|3:2,0:0:0:0:
216,181,27330,2,0,L|212:86,1,95,2|2,3:2|3:2,0:0:0:0:
486,46,27667,6,0,L|484:66,1,19,4|8,3:2|0:0,0:0:0:0:
337,94,28172,1,0,3:0:0:0:
485,212,28509,5,2,0:0:0:0:
374,206,28678,1,8,0:0:0:0:
485,212,28847,1,2,0:0:0:0:
187,332,29184,5,2,0:0:0:0:
296,328,29353,1,8,0:0:0:0:
187,332,29522,1,2,0:0:0:0:
485,212,29858,5,0,3:0:0:0:
374,206,30027,1,8,3:2:0:0:
485,212,30196,1,0,3:0:0:0:
26,46,30363,6,0,L|28:66,1,19,4|8,3:2|0:0,0:0:0:0:
175,94,30868,1,0,3:0:0:0:
27,212,31205,5,2,0:0:0:0:
138,206,31374,1,8,0:0:0:0:
27,212,31543,1,2,0:0:0:0:
325,332,31880,5,2,3:2:0:0:
216,328,32049,1,8,0:0:0:0:
325,332,32218,1,2,0:0:0:0:
27,212,32554,5,0,3:0:0:0:
138,206,32723,1,8,3:2:0:0:
27,212,32892,1,0,3:0:0:0:
389,59,33060,6,0,P|333:53|195:67,1,190,4|8,3:2|0:0,0:0:0:0:
328,153,33565,1,2,0:0:0:0:
81,349,33734,2,0,L|177:354,2,95,0|0|8,3:0|3:0|3:2,0:0:0:0:
414,271,34239,6,0,P|320:277|226:264,1,190,0|0,1:0|3:0,0:0:0:0:
359,178,34745,2,0,L|364:85,1,95,8|0,3:2|0:0,0:0:0:0:
81,53,35083,1,0,3:0:0:0:
214,55,35251,1,0,3:0:0:0:
81,53,35420,1,8,3:2:0:0:
329,207,35588,1,0,1:0:0:0:
32,64,35756,6,0,P|82:70|222:58,2,190,0|8|0,3:0|3:2|3:0,0:0:0:0:
168,168,36599,1,0,3:0:0:0:
32,176,36767,1,8,3:2:0:0:
390,222,36936,6,0,L|296:226,1,95,0|4,3:0|3:2,0:0:0:0:
50,288,37273,1,8,3:2:0:0:
184,294,37442,1,0,3:2:0:0:
50,288,37610,1,0,3:0:0:0:
386,54,37779,6,0,L|390:149,1,95,0|8,3:0|3:2,0:0:0:0:
116,192,38116,2,0,L|211:196,1,95,8|0,3:2|3:0,0:0:0:0:
464,301,38453,5,4,1:2:0:0:
76,171,40644,5,0,3:0:0:0:
437,118,40813,2,0,L|442:23,1,95,8|0,3:2|3:0,0:0:0:0:
110,277,41150,6,0,P|159:287|297:272,2,190,4|8|2,3:2|3:2|3:0,0:0:0:0:
242,183,41993,1,2,3:0:0:0:
110,178,42161,1,8,3:2:0:0:
396,99,42330,6,0,L|322:37,1,95,2|0,3:0|0:0,0:0:0:0:
160,117,42667,2,0,L|86:55,1,95,2|8,3:0|3:2,0:0:0:0:
378,299,43004,2,0,P|325:311|184:289,1,190,2|2,3:0|3:0,0:0:0:0:
452,221,43509,2,0,L|457:124,1,95,8|0,3:2|0:0,0:0:0:0:
131,82,43847,5,4,3:2:0:0:
401,192,44015,2,0,L|406:286,1,95,2|8,3:0|3:2,0:0:0:0:
239,310,44352,2,0,L|234:216,1,95,2|0,3:0|0:0,0:0:0:0:
75,215,44689,2,0,L|70:121,1,95,2|8,3:0|3:2,0:0:0:0:
234,214,45026,6,0,L|239:120,1,95,2|0,3:0|0:0,0:0:0:0:
401,192,45363,2,0,L|406:286,1,95,2|8,3:0|3:2,0:0:0:0:
239,310,45700,2,0,L|234:216,1,95,2|0,3:0|0:0,0:0:0:0:
401,192,46038,1,0,3:0:0:0:
152,103,46206,1,8,3:2:0:0:
286,96,46375,1,0,3:0:0:0:
28,279,46543,6,0,P|82:290|218:277,2,190,4|8|2,3:2|3:2|3:0,0:0:0:0:
162,184,47386,1,2,3:0:0:0:
30,183,47554,1,8,3:2:0:0:
312,173,47723,2,0,L|315:77,1,95,2|0,3:0|0:0,0:0:0:0:
144,282,48060,2,0,L|142:187,1,95,2|8,3:0|0:0,0:0:0:0:
412,340,48397,2,0,L|414:245,1,95,0|0,3:0|3:0,0:0:0:0:
153,144,48734,2,0,L|204:140,1,47.5,8|8,3:2|3:2,0:0:0:0:
367,119,48903,2,0,L|370:67,1,47.5,8|0,1:2|0:0,0:0:0:0:
282,67,49071,2,0,L|277:18,1,47.5,8|8,3:2|3:2,0:0:0:0:
462,238,49240,5,4,1:2:0:0:
213,319,49408,2,0,L|210:221,1,95,0|8,3:0|3:2,0:0:0:0:
450,143,49745,2,0,L|453:45,1,95,0|0,0:0|3:0,0:0:0:0:
311,39,50083,2,0,L|411:32,1,95,0|8,3:0|3:2,0:0:0:0:
164,284,50420,6,0,L|68:279,1,95,0|0,0:0|3:0,0:0:0:0:
221,200,50757,2,0,L|125:194,1,95,0|8,3:0|3:2,0:0:0:0:
409,178,51094,2,0,L|414:81,1,95,0|0,0:0|3:0,0:0:0:0:
188,158,51431,6,0,L|185:64,1,95,0|8,3:0|3:2,0:0:0:0:
335,51,51768,1,0,3:0:0:0:
71,247,51936,5,12,3:2:0:0:
204,239,52105,1,0,3:0:0:0:
71,247,52274,1,0,3:0:0:0:
354,106,52442,1,12,3:2:0:0:
221,98,52611,1,0,3:0:0:0:
354,106,52780,1,0,3:0:0:0:
71,247,52948,1,8,3:2:0:0:
204,239,53117,1,0,3:0:0:0:
441,247,53285,5,12,3:2:0:0:
308,239,53454,1,0,3:0:0:0:
441,247,53623,1,0,0:0:0:0:
158,106,53791,1,12,3:2:0:0:
291,98,53960,1,0,3:0:0:0:
158,106,54127,1,0,3:0:0:0:
441,247,54297,1,0,1:0:0:0:
308,239,54466,1,0,1:0:0:0:
71,247,54633,5,12,3:2:0:0:
204,239,54802,1,0,3:0:0:0:
71,247,54971,1,0,3:0:0:0:
354,106,55139,1,12,3:2:0:0:
221,98,55308,1,0,3:0:0:0:
354,106,55477,1,0,3:0:0:0:
71,247,55645,1,8,3:2:0:0:
204,239,55814,1,0,3:0:0:0:
490,44,55981,6,0,P|396:35|298:43,1,190,12|0,1:2|3:0,0:0:0:0:
23,181,56487,2,0,P|116:172|215:180,1,190,12|0,1:2|3:0,0:0:0:0:
473,332,56993,1,8,3:0:0:0:
214,346,57161,1,8,3:0:0:0:
481,199,57330,6,0,P|424:187|292:197,2,190,4|8|0,3:2|3:2|1:2,0:0:0:0:
349,307,58172,1,0,3:0:0:0:
481,298,58341,1,8,3:2:0:0:
196,246,58509,6,0,L|193:149,1,95,0|0,3:0|0:0,0:0:0:0:
348,191,58847,2,0,L|351:94,1,95,0|8,3:0|0:0,0:0:0:0:
79,47,59184,2,0,P|132:59|269:49,1,190,0|0,1:0|3:0,0:0:0:0:
127,157,59689,2,0,L|121:251,1,95,8|0,3:2|3:0,0:0:0:0:
481,199,60026,6,0,P|424:187|292:197,2,190,4|8|0,3:2|3:2|1:0,0:0:0:0:
349,307,60868,1,0,3:0:0:0:
481,298,61037,1,8,3:2:0:0:
199,41,61206,6,0,L|127:103,1,95,0|0,3:0|0:0,0:0:0:0:
293,170,61543,2,0,L|367:108,1,95,0|8,3:0|0:0,0:0:0:0:
79,289,61880,2,0,P|172:276|266:291,1,190,0|0,1:0|3:0,0:0:0:0:
417,355,62386,2,0,L|424:259,1,95,8|0,0:0|3:0,0:0:0:0:
31,199,62723,6,0,P|88:187|220:197,2,190,4|8|0,3:2|3:2|1:0,0:0:0:0:
163,307,63565,1,0,3:0:0:0:
31,298,63734,1,8,3:2:0:0:
316,246,63902,6,0,L|319:149,1,95,0|0,3:0|0:0,0:0:0:0:
164,191,64240,2,0,L|161:94,1,95,0|8,3:0|0:0,0:0:0:0:
433,47,64577,2,0,P|380:59|243:49,1,190,0|0,1:0|3:0,0:0:0:0:
385,157,65082,2,0,L|391:251,1,95,8|0,0:0|3:0,0:0:0:0:
121,325,65420,6,0,L|216:317,1,95,0|0,1:0|0:0,0:0:0:0:
468,285,65757,2,0,L|474:191,1,95,8|0,3:2|0:0,0:0:0:0:
327,178,66094,2,0,L|321:84,1,95,0|0,3:0|3:0,0:0:0:0:
477,59,66431,1,8,3:2:0:0:
184,200,66599,6,0,P|241:188|373:198,1,190,0|0,3:0|3:2,0:0:0:0:
239,288,67105,1,8,3:2:0:0:
371,297,67274,1,0,3:2:0:0:
127,340,67442,1,10,3:2:0:0:
405,208,67611,6,0,L|407:158,1,47.5,10|10,3:2|3:2,0:0:0:0:
224,72,67779,2,0,L|176:76,1,47.5,10|10,3:2|3:2,0:0:0:0:
268,185,67948,2,0,L|272:138,1,47.5,10|10,3:2|3:2,0:0:0:0:
57,94,68116,6,0,L|50:181,1,76,4|0,3:2|0:0,0:0:0:0:
172,179,68453,2,0,L|179:266,1,76,8|0,0:0|3:0,0:0:0:0:
315,265,68790,2,0,L|308:352,1,76,0|0,3:0|3:0,0:0:0:0:
178,254,69127,2,0,L|172:179,1,76,8|0,0:0|3:0,0:0:0:0:
315,265,69465,6,0,L|319:185,1,76,0|0,0:0|3:0,0:0:0:0:
440,183,69802,2,0,L|436:103,1,76,8|0,0:0|3:0,0:0:0:0:
270,72,70139,1,0,3:0:0:0:
505,289,70307,1,0,3:0:0:0:
367,293,70476,1,8,3:2:0:0:
505,289,70644,1,0,3:0:0:0:
226,284,70813,6,0,L|146:280,1,76,4|0,3:2|0:0,0:0:0:0:
48,170,71150,2,0,L|128:166,1,76,8|0,0:0|3:0,0:0:0:0:
245,156,71487,2,0,L|251:81,1,76,0|0,3:0|3:0,0:0:0:0:
372,71,71824,2,0,L|378:146,1,76,8|0,3:2|3:0,0:0:0:0:
245,156,72161,2,0,L|239:231,1,76,0|0,0:0|3:0,0:0:0:0:
117,239,72498,2,0,L|123:314,1,76,8|0,0:0|3:0,0:0:0:0:
244,322,72835,1,0,3:0:0:0:
123,314,73004,1,0,3:0:0:0:
369,237,73172,1,8,3:2:0:0:
123,147,73341,1,0,3:0:0:0:
387,77,73509,6,0,P|306:69|196:83,2,190,4|8|0,3:2|3:2|3:0,0:0:0:0:
253,177,74352,1,0,3:0:0:0:
386,176,74521,1,8,3:2:0:0:
116,326,74689,6,0,L|111:228,1,95,0|0,1:2|0:0,0:0:0:0:
261,208,75026,2,0,L|256:110,1,95,0|8,3:0|3:2,0:0:0:0:
116,326,75363,2,0,L|111:228,1,95,0|0,0:0|3:0,0:0:0:0:
261,208,75700,1,0,3:0:0:0:
19,149,75869,2,0,L|22:54,1,95,8|0,3:2|1:0,0:0:0:0:
343,56,76206,6,0,P|287:61|144:55,2,190,0|8|0,3:0|3:2|3:0,0:0:0:0:
495,45,77049,1,0,3:0:0:0:
245,256,77217,2,0,L|150:260,2,95,8|0|0,3:2|3:0|0:0,0:0:0:0:
498,197,77723,5,8,3:2:0:0:
247,158,77892,1,8,3:2:0:0:
377,150,78060,1,0,3:2:0:0:
247,158,78229,1,8,3:2:0:0:
498,197,78397,1,2,3:2:0:0:
242,299,78566,1,2,3:2:0:0:
475,318,78734,1,2,3:2:0:0:
158,352,78903,6,0,P|119:334|160:259,1,152,4|8,3:2|3:2,0:0:0:0:
295,259,79408,2,0,L|302:179,1,76,0|0,3:0|3:0,0:0:0:0:
151,159,79745,2,0,L|144:79,1,76,2|8,3:0|3:2,0:0:0:0:
296,66,80083,6,0,L|302:141,1,76,2|0,3:2|0:0,0:0:0:0:
454,150,80420,2,0,L|447:225,1,76,2|8,3:0|0:0,0:0:0:0:
296,66,80757,2,0,L|302:141,1,76,2|0,3:0|3:0,0:0:0:0:
454,150,81094,1,0,3:0:0:0:
208,294,81262,1,8,3:2:0:0:
348,293,81431,1,0,3:0:0:0:
101,201,81599,6,0,L|98:105,1,95,4|0,3:2|0:0,0:0:0:0:
233,83,81936,2,0,L|235:177,1,76,8|0,0:0|3:0,0:0:0:0:
372,163,82274,2,0,L|374:257,1,76,0|2,3:0|3:0,0:0:0:0:
237,251,82611,1,8,3:2:0:0:
423,290,82779,6,0,L|428:209,1,76,2|0,3:0|0:0,0:0:0:0:
291,200,83116,2,0,L|286:119,1,76,2|8,3:2|0:0,0:0:0:0:
150,290,83453,2,0,L|155:209,1,76,2|0,3:0|3:2,0:0:0:0:
291,200,83790,1,0,3:0:0:0:
57,164,83959,2,0,L|53:88,1,76,8|0,3:2|3:0,0:0:0:0:
347,63,84296,6,0,P|297:66|157:58,2,190,4|8|0,3:2|0:0|3:0,0:0:0:0:
214,151,85139,1,0,3:0:0:0:
346,162,85307,1,8,3:2:0:0:
89,319,85476,6,0,L|184:312,1,95,0|0,1:0|0:0,0:0:0:0:
343,297,85813,2,0,L|345:202,1,95,0|8,3:0|3:2,0:0:0:0:
195,193,86150,2,0,L|193:98,1,95,0|0,3:0|0:0,0:0:0:0:
343,297,86487,2,0,L|440:300,2,95,0|8|0,3:0|3:2|1:0,0:0:0:0:
52,293,86993,6,0,P|103:278|241:275,2,190,4|8|0,3:2|3:2|3:0,0:0:0:0:
181,193,87835,1,0,3:0:0:0:
49,182,88003,1,8,3:2:0:0:
320,153,88172,2,0,L|325:56,1,95,0|0,3:0|0:0,0:0:0:0:
48,51,88509,5,8,3:2:0:0:
185,47,88678,1,0,3:2:0:0:
48,51,88847,1,0,3:0:0:0:
344,274,89015,6,0,L|350:219,1,47.5,0|0,3:0|3:0,0:0:0:0:
275,201,89184,1,8,3:2:0:0:
35,209,89352,2,0,L|29:154,1,47.5,8|0,3:2|3:0,0:0:0:0:
104,136,89521,1,0,3:0:0:0:
401,109,89689,5,4,1:2:0:0:
135,316,91712,5,8,3:2:0:0:
125,165,91880,1,0,3:0:0:0:
391,260,92049,5,8,3:2:0:0:
401,109,92217,1,0,3:0:0:0:
78,114,92386,6,0,P|127:104|265:119,2,190,4|8|2,3:2|3:2|3:0,0:0:0:0:
209,216,93229,1,2,3:0:0:0:
77,211,93397,1,8,3:2:0:0:
321,209,93566,6,0,L|395:147,1,95,2|0,3:0|0:0,0:0:0:0:
211,129,93903,2,0,L|137:67,1,95,2|8,3:0|3:2,0:0:0:0:
378,299,94240,2,0,P|325:311|184:289,1,190,2|2,3:0|3:0,0:0:0:0:
452,221,94745,2,0,L|457:124,1,95,8|0,3:2|0:0,0:0:0:0:
131,82,95083,5,4,3:2:0:0:
401,192,95251,2,0,L|305:200,1,95,2|8,3:0|3:2,0:0:0:0:
154,207,95588,2,0,L|149:113,1,95,2|0,3:0|0:0,0:0:0:0:
303,119,95925,2,0,L|308:25,1,95,2|8,3:0|3:2,0:0:0:0:
458,44,96262,6,0,L|463:138,1,95,2|0,3:0|0:0,0:0:0:0:
303,119,96599,2,0,L|308:213,1,95,2|8,3:0|3:2,0:0:0:0:
159,301,96936,2,0,L|61:300,2,95,2|0|0,3:0|0:0|3:0,0:0:0:0:
396,218,97442,1,8,3:2:0:0:
262,211,97611,1,0,3:0:0:0:
498,304,97779,6,0,P|444:315|308:302,2,190,4|8|2,3:2|3:2|3:0,0:0:0:0:
365,205,98622,1,2,3:0:0:0:
497,204,98790,1,8,3:2:0:0:
225,166,98959,2,0,L|228:70,1,95,2|0,3:0|0:0,0:0:0:0:
57,275,99296,2,0,L|55:180,1,95,2|8,3:0|0:0,0:0:0:0:
325,333,99633,2,0,L|327:238,1,95,0|0,3:0|3:0,0:0:0:0:
79,92,99970,2,0,L|130:88,1,47.5,8|8,3:2|3:2,0:0:0:0:
317,118,100139,2,0,L|257:115,1,47.5,8|0,1:2|0:0,0:0:0:0:
180,183,100307,2,0,L|229:178,1,47.5,8|8,3:2|3:2,0:0:0:0:
442,244,100476,6,0,L|341:243,2,95,4|0|8,1:2|3:0|3:2,0:0:0:0:
180,183,100981,2,0,L|177:85,1,95,0|0,0:0|3:0,0:0:0:0:
319,79,101319,2,0,L|219:72,1,95,0|8,3:0|3:2,0:0:0:0:
479,305,101656,6,0,L|385:310,1,95,0|0,0:0|3:0,0:0:0:0:
242,230,101993,2,0,L|338:224,1,95,0|8,3:0|3:2,0:0:0:0:
103,178,102330,2,0,L|98:81,1,95,0|0,0:0|3:0,0:0:0:0:
324,158,102667,6,0,L|327:64,1,95,0|8,3:0|3:2,0:0:0:0:
177,51,103004,1,0,3:0:0:0:
482,298,103172,5,12,3:2:0:0:
358,294,103341,1,0,3:0:0:0:
234,290,103509,1,0,3:0:0:0:
481,178,103678,1,12,3:2:0:0:
358,169,103847,1,0,3:0:0:0:
481,178,104015,1,0,3:0:0:0:
197,85,104184,1,8,3:2:0:0:
320,76,104352,1,0,3:0:0:0:
30,298,104521,5,12,3:2:0:0:
154,294,104690,1,0,3:0:0:0:
278,290,104858,1,0,3:0:0:0:
31,178,105027,1,12,3:2:0:0:
154,169,105196,1,0,3:0:0:0:
31,178,105364,1,0,3:0:0:0:
315,85,105533,1,0,1:0:0:0:
192,76,105701,1,0,1:0:0:0:
481,178,105869,5,12,3:2:0:0:
358,169,106038,1,0,3:0:0:0:
481,178,106206,1,0,3:0:0:0:
132,297,106375,1,12,3:2:0:0:
256,293,106544,1,0,3:0:0:0:
380,289,106712,1,0,3:0:0:0:
133,108,106880,1,8,3:2:0:0:
256,117,107048,1,0,3:0:0:0:
19,271,107217,6,0,P|30:219|167:130,1,227.999993041992,12|0,1:2|3:0,0:0:0:0:
493,271,107723,2,0,P|482:219|345:130,1,227.999993041992,12|0,1:2|3:0,0:0:0:0:
113,338,108229,1,8,3:0:0:0:
399,338,108397,1,8,3:0:0:0:
25,162,108566,6,0,P|81:151|222:162,2,190,4|8|0,3:2|3:2|1:2,0:0:0:0:
146,60,109408,1,0,3:0:0:0:
22,62,109577,1,8,3:2:0:0:
296,255,109745,6,0,L|300:161,1,95,0|0,3:0|0:0,0:0:0:0:
150,154,110083,2,0,L|146:60,1,95,0|8,3:0|0:0,0:0:0:0:
423,27,110420,2,0,P|362:20|234:33,1,190,0|0,1:0|3:0,0:0:0:0:
484,228,110925,2,0,L|489:133,1,95,8|0,3:2|3:0,0:0:0:0:
171,228,111262,6,0,P|227:217|368:228,2,190,4|8|0,3:2|3:2|1:0,0:0:0:0:
292,126,112104,1,0,3:0:0:0:
168,128,112273,1,8,3:2:0:0:
432,123,112442,6,0,L|435:28,1,95,0|0,3:0|0:0,0:0:0:0:
299,258,112779,2,0,L|395:260,1,95,0|8,3:0|0:0,0:0:0:0:
147,56,113116,2,0,P|208:49|336:62,1,190,0|0,1:0|3:0,0:0:0:0:
86,257,113621,2,0,L|81:162,1,95,8|0,0:0|3:0,0:0:0:0:
424,221,113959,6,0,P|368:210|227:221,2,190,4|8|0,3:2|3:2|1:0,0:0:0:0:
303,119,114801,1,0,3:0:0:0:
427,121,114970,1,8,3:2:0:0:
145,35,115139,6,0,L|242:41,1,95,0|0,3:0|0:0,0:0:0:0:
388,306,115476,2,0,L|291:312,1,95,0|8,3:0|0:0,0:0:0:0:
60,178,115813,2,0,P|114:170|251:185,1,190,0|0,1:0|3:0,0:0:0:0:
17,349,116318,2,0,L|14:253,1,95,8|0,0:0|3:0,0:0:0:0:
328,177,116656,6,0,P|235:172|138:190,2,190,0|8|0,1:0|3:2|3:0,0:0:0:0:
204,74,117498,1,0,3:0:0:0:
328,68,117667,1,8,3:2:0:0:
48,63,117835,2,0,L|45:157,1,95,0|0,3:0|1:0,0:0:0:0:
119,172,118088,1,0,3:0:0:0:
335,166,118172,6,0,L|339:110,1,47.5,0|0,3:2|3:2,0:0:0:0:
250,226,118341,2,0,L|192:217,1,47.5,2|0,3:2|3:2,0:0:0:0:
302,291,118509,2,0,L|305:338,1,47.5,10|0,3:2|3:2,0:0:0:0:
113,95,118678,2,0,L|172:91,1,47.5,2|0,3:2|3:2,0:0:0:0:
240,84,118847,2,0,L|291:79,1,47.5,2|0,3:2|3:2,0:0:0:0:
115,315,119015,2,0,L|17:317,1,95,10|2,3:2|3:2,0:0:0:0:
76,241,119268,1,2,3:2:0:0:
312,160,119352,6,0,P|249:146|124:159,2,190,4|8|0,3:2|3:2|3:0,0:0:0:0:
179,256,120195,1,0,3:0:0:0:
311,250,120363,1,8,3:2:0:0:
48,61,120532,6,0,L|239:59,1,190,0|0,1:0|3:0,0:0:0:0:
99,160,121038,2,0,L|92:259,1,95,10|0,3:2|3:0,0:0:0:0:
327,322,121375,1,2,3:2:0:0:
180,316,121543,1,0,3:0:0:0:
321,240,121712,1,10,3:2:0:0:
188,233,121880,1,0,3:0:0:0:
465,79,122049,6,0,P|402:65|277:78,2,190,4|8|0,3:2|0:0|3:0,0:0:0:0:
332,175,122892,1,0,3:0:0:0:
464,169,123060,1,8,3:2:0:0:
160,313,123229,6,0,L|351:311,1,190,0|0,1:0|3:0,0:0:0:0:
211,219,123734,1,8,3:2:0:0:
443,125,123903,2,0,L|252:123,1,190,0|0,1:0|3:0,0:0:0:0:
490,329,124408,2,0,L|496:235,1,95,8|0,3:2|0:0,0:0:0:0:
175,68,124745,5,4,3:2:0:0:
149,122,124829,1,0,3:0:0:0:
177,179,124913,1,0,3:0:0:0:
234,193,124998,1,0,3:0:0:0:
405,143,125083,2,0,L|353:140,1,47.5,10|0,3:2|3:0,0:0:0:0:
175,68,125251,5,2,3:2:0:0:
149,122,125335,1,0,3:0:0:0:
177,179,125419,1,0,3:0:0:0:
234,193,125504,1,0,3:0:0:0:
405,143,125589,2,0,L|353:140,1,47.5,2|0,3:2|3:0,0:0:0:0:
135,342,125757,6,0,L|129:281,1,47.5,8|0,3:2|3:0,0:0:0:0:
216,279,125925,2,0,L|220:224,1,47.5,0|0,3:0|3:0,0:0:0:0:
45,200,126094,5,4,3:2:0:0:
19,146,126178,1,0,3:0:0:0:
47,89,126262,1,0,3:0:0:0:
104,75,126347,1,0,3:0:0:0:
282,80,126431,6,0,L|331:85,1,47.5,8|2,3:2|3:0,0:0:0:0:
237,151,126599,2,0,L|190:152,1,47.5,2|2,3:0|3:0,0:0:0:0:
393,184,126768,2,0,L|402:239,1,47.5,4|2,3:2|3:2,0:0:0:0:
216,279,126936,2,0,L|210:326,1,47.5,2|2,3:2|3:2,0:0:0:0:
456,311,127105,2,0,L|408:306,1,47.5,12|2,3:2|3:2,0:0:0:0:
210,345,127273,2,0,L|257:344,1,47.5,2|2,3:2|3:2,0:0:0:0:
485,130,127442,6,0,P|426:123|288:145,2,190,4|8|0,3:2|3:2|3:0,0:0:0:0:
345,235,128285,1,0,3:0:0:0:
481,228,128453,1,8,3:2:0:0:
223,171,128622,6,0,L|127:169,1,95,0|0,1:0|0:0,0:0:0:0:
375,61,128959,1,0,1:0:0:0:
242,62,129127,1,8,3:2:0:0:
375,61,129296,1,0,1:0:0:0:
97,314,129465,1,0,1:0:0:0:
392,283,129633,1,8,3:2:0:0:
164,233,129802,1,8,1:2:0:0:
392,283,129970,1,8,3:2:0:0:
47,103,130139,5,4,1:2:0:0:
398,317,132161,5,8,3:2:0:0:
408,166,132329,1,0,3:0:0:0:
142,261,132498,5,8,3:2:0:0:
132,110,132666,1,0,3:0:0:0:
434,114,132835,6,0,P|385:104|247:119,2,190,4|8|2,3:2|3:2|3:0,0:0:0:0:
303,216,133678,1,2,3:0:0:0:
435,211,133846,1,8,3:2:0:0:
152,148,134015,6,0,L|225:210,1,95,2|0,3:0|0:0,0:0:0:0:
380,291,134352,2,0,L|307:352,1,95,2|8,3:0|3:2,0:0:0:0:
81,293,134689,2,0,P|134:305|275:283,1,190,2|2,3:0|3:0,0:0:0:0:
32,218,135194,2,0,L|27:121,1,95,8|0,3:2|0:0,0:0:0:0:
381,82,135532,5,4,3:2:0:0:
111,192,135700,2,0,L|207:200,1,95,2|8,3:0|3:2,0:0:0:0:
358,207,136037,2,0,L|363:113,1,95,2|0,3:0|0:0,0:0:0:0:
209,119,136374,2,0,L|204:25,1,95,2|8,3:0|3:2,0:0:0:0:
54,44,136711,6,0,L|49:138,1,95,2|0,3:0|0:0,0:0:0:0:
209,119,137048,2,0,L|204:213,1,95,2|8,3:0|3:2,0:0:0:0:
361,273,137385,2,0,L|259:284,1,95,2|0,3:0|0:0,0:0:0:0:
103,307,137723,1,0,3:0:0:0:
332,123,137891,1,8,3:2:0:0:
207,120,138060,1,0,3:0:0:0:
471,303,138228,6,0,P|417:314|281:301,2,190,4|8|2,3:2|3:2|3:0,0:0:0:0:
338,204,139071,1,2,3:0:0:0:
470,203,139239,1,8,3:2:0:0:
176,175,139408,2,0,L|179:79,1,95,2|0,3:0|0:0,0:0:0:0:
346,296,139745,2,0,L|251:294,1,95,2|8,3:0|0:0,0:0:0:0:
81,176,140082,2,0,L|176:174,1,95,0|0,3:0|3:0,0:0:0:0:
450,238,140419,2,0,L|399:234,1,47.5,8|8,3:2|3:2,0:0:0:0:
222,213,140588,2,0,L|162:210,1,47.5,8|8,1:2|3:2,0:0:0:0:
273,141,140756,2,0,L|322:136,1,47.5,8|8,3:2|3:2,0:0:0:0:
70,244,140925,6,0,L|171:243,2,95,4|0|8,1:2|3:0|3:2,0:0:0:0:
332,183,141430,2,0,L|335:85,1,95,0|0,0:0|3:0,0:0:0:0:
213,52,141768,2,0,L|118:58,1,95,0|8,3:0|3:2,0:0:0:0:
380,359,142105,6,0,L|385:265,1,95,0|0,0:0|3:0,0:0:0:0:
243,231,142442,2,0,L|237:135,1,95,0|8,3:0|3:2,0:0:0:0:
495,66,142779,2,0,L|398:71,1,95,0|0,0:0|3:0,0:0:0:0:
173,161,143116,6,0,L|170:67,1,95,0|8,3:0|3:2,0:0:0:0:
320,54,143453,1,0,3:0:0:0:
21,308,143622,5,12,3:2:0:0:
144,299,143791,1,0,3:0:0:0:
21,308,143959,1,0,3:0:0:0:
256,207,144127,1,12,3:2:0:0:
21,94,144296,1,0,3:0:0:0:
156,84,144464,1,0,3:0:0:0:
291,74,144633,1,8,3:2:0:0:
156,84,144801,1,0,3:0:0:0:
491,308,144970,5,12,3:2:0:0:
368,299,145139,1,0,3:0:0:0:
491,308,145307,1,0,3:0:0:0:
256,207,145475,1,12,3:2:0:0:
491,94,145644,1,0,3:0:0:0:
356,84,145812,1,0,3:0:0:0:
221,74,145981,1,0,1:0:0:0:
356,84,146149,1,0,1:0:0:0:
85,248,146318,5,12,3:2:0:0:
208,239,146487,1,0,3:0:0:0:
85,248,146655,1,0,3:0:0:0:
427,248,146824,1,12,3:2:0:0:
304,239,146993,1,0,3:0:0:0:
427,248,147161,1,0,3:0:0:0:
191,119,147330,1,8,3:2:0:0:
314,110,147498,1,0,3:0:0:0:
85,248,147667,5,12,1:2:0:0:
208,239,147836,1,0,3:0:0:0:
85,248,148004,1,0,3:0:0:0:
314,110,148172,1,12,1:2:0:0:
191,119,148340,1,0,3:0:0:0:
427,248,148509,1,0,3:0:0:0:
304,239,148678,1,0,1:0:0:0:
427,248,148846,1,0,1:0:0:0:
30,298,149015,5,12,3:2:0:0:
154,294,149184,1,0,3:0:0:0:
278,290,149352,1,0,3:0:0:0:
31,178,149521,1,12,3:2:0:0:
154,169,149690,1,0,3:0:0:0:
31,178,149858,1,0,3:0:0:0:
315,85,150027,1,8,3:2:0:0:
192,76,150195,1,0,3:0:0:0:
482,298,150364,5,12,3:2:0:0:
358,294,150533,1,0,3:0:0:0:
234,290,150701,1,0,3:0:0:0:
481,178,150870,1,12,3:2:0:0:
358,169,151039,1,0,3:0:0:0:
481,178,151207,1,0,3:0:0:0:
197,85,151376,1,0,1:0:0:0:
320,76,151544,1,0,1:0:0:0:
31,178,151712,5,12,3:2:0:0:
154,169,151881,1,0,3:0:0:0:
31,178,152049,1,0,3:0:0:0:
320,76,152217,1,12,3:2:0:0:
197,85,152385,1,0,3:0:0:0:
481,178,152554,1,0,3:0:0:0:
358,169,152723,1,8,3:2:0:0:
481,178,152891,1,0,3:0:0:0:
132,312,153060,5,12,1:2:0:0:
256,308,153229,1,0,0:0:0:0:
380,304,153397,1,0,3:0:0:0:
99,213,153566,1,12,1:2:0:0:
256,209,153735,1,0,0:0:0:0:
411,203,153903,1,0,3:0:0:0:
57,129,154071,2,0,L|118:117,1,56.9999982604981,8|8,3:0|3:0,0:0:0:0:
455,129,154240,2,0,L|394:117,1,56.9999982604981,8|8,3:0|3:0,0:0:0:0:
87,309,154408,6,0,P|180:304|277:322,2,190,4|8|0,3:2|3:2|1:2,0:0:0:0:
211,206,155250,1,0,3:0:0:0:
87,200,155419,1,8,3:2:0:0:
365,222,155588,6,0,L|368:128,1,95,0|0,3:0|0:0,0:0:0:0:
214,111,155925,2,0,L|211:205,1,95,0|8,3:0|0:0,0:0:0:0:
473,333,156262,2,0,P|421:334|279:317,1,190,0|0,1:0|3:0,0:0:0:0:
417,233,156767,2,0,L|420:137,1,95,8|0,3:2|3:0,0:0:0:0:
134,59,157104,6,0,P|228:76|322:71,2,190,4|8|0,3:2|3:2|1:0,0:0:0:0:
257,176,157947,1,0,3:0:0:0:
134,181,158116,1,8,3:2:0:0:
432,278,158284,6,0,L|437:178,1,95,0|0,3:0|0:0,0:0:0:0:
314,78,158621,2,0,L|408:76,1,95,0|8,3:0|0:0,0:0:0:0:
144,281,158958,2,0,P|216:290|331:271,1,190,0|0,1:0|3:0,0:0:0:0:
198,175,159464,1,8,0:0:0:0:
331,172,159632,1,0,3:0:0:0:
25,343,159801,6,0,P|118:338|215:356,2,190,4|8|0,3:2|3:2|1:0,0:0:0:0:
149,240,160643,1,0,0:0:0:0:
25,234,160812,1,8,3:2:0:0:
308,172,160981,6,0,L|311:78,1,95,0|0,3:0|0:0,0:0:0:0:
157,61,161318,2,0,L|154:155,1,95,0|8,3:0|0:0,0:0:0:0:
408,343,161655,2,0,P|356:331|217:352,1,190,0|0,1:0|3:0,0:0:0:0:
355,231,162161,2,0,L|450:229,1,95,8|0,0:0|3:0,0:0:0:0:
185,108,162498,6,0,P|278:113|375:95,2,190,0|8|0,1:0|3:2|3:0,0:0:0:0:
309,211,163340,1,0,3:0:0:0:
185,217,163509,1,8,3:2:0:0:
437,340,163678,2,0,L|440:246,1,95,0|8,3:0|3:2,0:0:0:0:
185,217,164014,6,0,L|180:163,1,47.5,0|0,3:2|3:2,0:0:0:0:
421,207,164183,1,2,3:2:0:0:
443,155,164267,1,0,3:2:0:0:
422,105,164351,1,0,3:2:0:0:
370,86,164435,1,0,0:0:0:0:
185,217,164520,6,0,L|89:209,1,95,0|0,3:2|3:2,0:0:0:0:
137,165,164773,1,0,0:0:0:0:
337,335,164858,2,0,L|433:327,1,95,8|0,3:2|3:2,0:0:0:0:
385,283,165111,1,0,3:2:0:0:
78,307,165195,1,6,3:2:0:0:
