osu file format v14

[General]
AudioFilename: piraaaaaanhaaaaaaaaaaaaaaaaaaaa.mp3
AudioLeadIn: 0
PreviewTime: 169011
Countdown: 0
SampleSet: None
StackLeniency: 0.7
Mode: 0
LetterboxInBreaks: 0
WidescreenStoryboard: 0

[Editor]
DistanceSpacing: 1
BeatDivisor: 4
GridSize: 32
TimelineZoom: 1.9

[Metadata]
Title:Piranha (Maffalda Reloaded Trap Mix)
TitleUnicode:Piranha (Maffalda Reloaded Trap Mix)
Artist:Alipio Martins
ArtistUnicode:AlĂ­pio Martins
Creator:Tarrasky
Version:Hard
Source:
Tags:sunosz irreversible asphyxia spectator nhawak brazil alarido blue dragon drum and bass dnb dubstep dubstrap
BeatmapID:649752
BeatmapSetID:287873

[Difficulty]
HPDrainRate:5
CircleSize:3.5
OverallDifficulty:5
ApproachRate:7
SliderMultiplier:1.6
SliderTickRate:1

[Events]
//Background and Video events
0,0,"piranha.jpg",0,0
//Break Periods
2,25503,40041
2,55877,57585
2,103597,110918
2,147106,165655
2,222896,225304
//Storyboard Layer 0 (Background)
//Storyboard Layer 1 (Fail)
//Storyboard Layer 2 (Pass)
//Storyboard Layer 3 (Foreground)
//Storyboard Sound Samples

[TimingPoints]
240,350.877192982456,4,1,0,60,1,0
11117,-100,4,1,0,40,0,0
11468,-100,4,1,0,60,0,0
40941,-100,4,3,0,30,0,0
58485,350.877192982456,4,3,0,60,1,1
80941,-100,4,3,0,60,0,0
111818,-100,4,2,0,50,0,0
114625,-100,4,3,0,60,0,0
169362,-100,4,2,0,60,0,1
198835,-100,4,2,0,60,0,0
199889,-100,4,3,0,30,0,0
200239,-100,4,2,0,60,0,1
222695,-100,4,2,0,60,0,0
226204,350.877192982456,4,2,0,60,1,1
248660,-100,4,2,0,60,0,0

[Colours]
Combo1 : 96,159,159
Combo2 : 192,192,192
Combo3 : 128,255,255
Combo4 : 139,191,222
SliderBorder : 139,191,222

[HitObjects]
40,103,8661,6,0,P|114:79|189:104,1,160
208,264,9362,2,0,L|384:192,1,160,8|0,0:0|0:0,0:0:0:0:
416,56,10064,6,0,L|338:36,1,80
312,112,10415,2,0,L|233:127,1,80
216,208,10766,2,0,L|176:232,2,40,8|0|0,0:0|0:0|0:0,0:0:0:0:
296,200,11117,2,0,P|344:208|288:248,1,160,0|4,0:0|0:0,0:0:0:0:
144,56,11994,6,0,P|144:112|168:168,2,80,0|8|0,0:0|0:0|0:0,0:0:0:0:
216,24,12520,2,0,P|272:16|384:64,1,160
376,128,13047,2,0,P|400:192|424:216,1,80
399,360,13573,2,0,P|360:366|322:357,1,80,8|0,0:0|0:0,0:0:0:0:
248,320,13924,2,0,P|209:310|170:317,1,80
88,336,14275,1,4,0:0:0:0:
96,96,14801,6,0,L|48:24,2,80,0|8|0,0:0|0:0|0:0,0:0:0:0:
152,152,15327,2,0,P|216:184|304:184,1,160
377,153,15854,2,0,P|416:129|466:120,1,80
474,348,16380,2,0,L|424:285,1,80,8|0,0:0|0:0,0:0:0:0:
354,324,16731,2,0,L|304:261,1,80
231,227,17082,1,4,0:0:0:0:
101,54,17608,6,0,P|103:93|96:133,1,80,0|8,0:0|0:0,0:0:0:0:
84,215,17959,1,0,0:0:0:0:
108,290,18134,2,0,P|134:337|250:369,1,160
304,343,18661,2,0,P|343:337|382:342,1,80
243,292,19011,2,0,P|217:261|203:223,1,80,0|8,0:0|0:0,0:0:0:0:
133,184,19362,2,0,L|52:150,2,80
202,142,19889,6,0,P|205:89|178:22,2,120,4|0|0,0:0|0:0|0:0,0:0:0:0:
275,172,20590,1,8,0:0:0:0:
285,92,20766,2,0,B|290:53|290:53|336:23,1,80
402,48,21117,1,0,0:0:0:0:
450,111,21292,6,0,L|445:190,1,80
369,162,21643,2,0,L|324:228,1,80
256,271,21994,2,0,L|220:199,1,80,8|0,0:0|0:0,0:0:0:0:
165,258,22345,2,0,L|129:186,1,80,8|0,0:0|0:0,0:0:0:0:
71,242,22696,5,8,0:0:0:0:
103,53,40941,6,0,P|78:123|114:294,1,240,4|8,0:0|0:0,0:0:0:0:
124,360,41643,6,0,L|342:262,1,240,4|8,0:0|0:0,0:0:0:0:
412,300,42345,6,0,L|454:59,1,240,4|8,0:0|0:0,0:0:0:0:
373,51,43047,2,0,P|299:62|243:129,1,160,4|8,0:0|0:0,0:0:0:0:
110,36,43748,6,0,P|79:87|102:264,1,240,4|8,0:0|0:0,0:0:0:0:
157,312,44450,5,4,0:0:0:0:
231,283,44625,1,0,0:0:0:0:
167,234,44801,1,8,0:0:0:0:
242,206,44976,1,0,0:0:0:0:
306,253,45152,6,0,P|331:178|312:21,1,240,4|8,0:0|0:0,0:0:0:0:
233,38,45854,6,0,L|155:59,1,80,4|0,0:0|0:0,0:0:0:0:
165,138,46204,2,0,L|87:159,1,80,8|0,0:0|0:0,0:0:0:0:
33,218,46555,6,0,P|98:246|200:385,1,240,4|8,0:0|0:0,0:0:0:0:
271,346,47257,5,4,0:0:0:0:
297,270,47432,1,0,0:0:0:0:
352,327,47608,1,8,0:0:0:0:
378,251,47783,1,0,0:0:0:0:
450,286,47959,2,0,P|457:247|445:207,1,80,4|0,0:0|0:0,0:0:0:0:
449,128,48310,2,0,P|444:88|453:49,1,80,8|0,0:0|0:0,0:0:0:0:
377,24,48661,6,0,P|314:68|139:109,1,240,4|8,0:0|0:0,0:0:0:0:
92,63,49362,6,0,P|69:130|100:310,1,240,4|8,0:0|0:0,0:0:0:0:
167,321,50064,6,0,P|246:316|324:334,2,160,4|8|4,0:0|0:0|0:0,0:0:0:0:
325,41,51468,1,2,0:0:0:0:
31,167,52169,5,0,0:0:0:0:
344,232,52871,1,2,0:0:0:0:
39,330,53573,6,0,B|37:291|37:291|24:253,1,80,0|2,0:0|0:0,0:0:0:0:
103,238,53924,2,0,B|118:201|118:201|122:161,1,80,0|2,0:0|0:0,0:0:0:0:
198,186,54275,2,0,B|227:159|227:159|247:125,1,80,0|2,0:0|0:0,0:0:0:0:
312,171,54625,2,0,B|350:159|350:159|382:136,1,80,0|2,0:0|0:0,0:0:0:0:
428,202,54976,6,0,L|432:229,16,20
94,45,58485,6,0,P|73:118|94:294,1,240,4|0,1:0|0:0,0:0:0:0:
156,322,59187,2,0,L|248:346,1,80,8|0,2:0|0:0,0:0:0:0:
305,377,59538,2,0,L|424:243,1,160
416,177,60064,5,0,0:0:0:0:
464,113,60239,1,0,0:0:0:0:
329,26,60590,2,0,P|316:93|338:202,1,160,8|0,2:0|0:0,0:0:0:0:
269,331,61292,6,0,L|114:109,1,240,8|0,0:0|0:0,0:0:0:0:
105,58,61994,2,0,P|72:79|54:114,1,80,8|0,2:0|0:0,0:0:0:0:
74,192,62345,1,0,0:0:0:0:
299,75,62871,6,0,L|358:90,2,40
246,14,63222,1,0,0:0:0:0:
221,89,63397,2,0,P|252:160|321:201,1,160,8|0,2:0|0:0,0:0:0:0:
463,279,64099,6,0,P|348:306|233:275,1,240,4|0,0:0|0:0,0:0:0:0:
166,319,64801,2,0,L|64:335,1,80,8|0,2:0|0:0,0:0:0:0:
25,279,65152,2,0,P|42:206|102:123,1,160
159,98,65678,5,0,0:0:0:0:
180,20,65854,1,0,0:0:0:0:
338,37,66204,2,0,P|343:76|341:116,1,80,8|0,2:0|0:0,0:0:0:0:
332,194,66555,2,0,P|330:233|335:273,1,80
396,328,66906,6,2,P|454:341|513:332,2,120,2|2|2,2:0|2:0|2:0,2:0:0:0:
336,274,67608,2,2,P|318:217|287:184,2,80,8|2|2,2:0|2:0|2:0,2:0:0:0:
321,352,68134,6,2,P|300:367|278:401,2,40,2|2|2,2:0|2:0|2:0,2:0:0:0:
397,328,68485,2,2,P|420:337|461:339,2,40,2|2|2,2:0|2:0|2:0,2:0:0:0:
336,275,68836,1,0,0:0:0:0:
411,246,69011,2,0,P|417:207|410:168,1,80,8|0,2:0|0:0,0:0:0:0:
376,96,69362,1,8,2:0:0:0:
134,31,69713,6,0,P|119:109|149:290,1,240,4|0,1:0|0:0,0:0:0:0:
94,332,70415,2,0,L|179:362,1,80,8|0,2:0|0:0,0:0:0:0:
249,358,70766,2,0,P|293:293|388:240,1,160
440,248,71292,5,0,0:0:0:0:
501,197,71468,1,0,0:0:0:0:
455,43,71818,2,0,P|385:39|291:64,1,160,8|0,2:0|0:0,0:0:0:0:
139,38,72520,6,0,P|135:108|160:202,1,160,8|0,0:0|0:0,0:0:0:0:
205,258,73047,1,0,0:0:0:0:
125,265,73222,1,8,2:0:0:0:
79,330,73397,2,0,L|173:366,2,80
341,305,74099,6,0,L|398:291,2,40
260,299,74450,1,0,0:0:0:0:
304,232,74625,2,0,P|334:164|238:206,1,240,8|0,2:0|0:0,0:0:0:0:
170,244,75327,6,0,P|158:157|271:52,1,240,4|0,0:0|0:0,0:0:0:0:
336,67,76029,2,0,L|417:112,1,80,8|0,2:0|0:0,0:0:0:0:
360,171,76380,2,0,L|506:256,1,160,0|0,2:0|0:0,0:0:0:0:
495,331,76906,5,0,0:0:0:0:
421,362,77082,1,0,0:0:0:0:
261,356,77432,2,0,P|253:288|266:169,1,160,8|0,2:0|0:0,0:0:0:0:
385,97,78134,6,2,P|444:79|483:29,2,120,2|2|2,2:0|2:0|2:0,2:0:0:0:
306,113,78836,2,0,L|249:184,1,80,8|2,2:0|2:0,0:0:0:0:
175,171,79187,1,2,2:0:0:0:
105,209,79362,6,2,L|57:232,2,40,2|2|2,2:0|2:0|2:0,2:0:0:0:
175,247,79713,2,2,L|174:295,2,40,2|2|2,2:0|2:0|2:0,2:0:0:0:
242,204,80064,1,0,0:0:0:0:
321,198,80239,2,0,P|386:218|457:291,1,160,8|0,2:0|0:0,0:0:0:0:
321,198,81292,6,0,P|252:249|146:240,1,160,4|8,1:0|2:0,0:0:0:0:
107,217,81818,1,0,0:0:0:0:
53,157,81994,1,0,0:0:0:0:
65,77,82169,2,0,P|142:60|221:72,1,160
296,43,82696,2,0,P|313:120|301:199,1,160,0|8,0:0|2:0,0:0:0:0:
257,266,83222,2,0,L|171:313,2,80
335,280,83748,1,4,0:0:0:0:
434,154,84099,6,0,P|399:137|359:137,1,80
279,143,84450,2,0,P|239:142|203:125,1,80,8|0,2:0|0:0,0:0:0:0:
136,81,84801,1,0,0:0:0:0:
82,20,84976,2,0,P|47:91|39:170,1,160
4,243,85503,2,0,P|75:278|154:286,1,160,0|8,0:0|2:0,0:0:0:0:
232,304,86029,2,0,P|257:343|263:396,2,80
227,223,86555,1,4,0:0:0:0:
274,70,86906,6,0,P|287:107|314:136,1,80
374,190,87257,2,0,P|401:219|414:256,1,80,8|0,2:0|0:0,0:0:0:0:
377,327,87608,1,0,0:0:0:0:
303,357,87783,2,0,L|126:306,1,160
124,235,88310,2,0,P|111:177|74:134,1,80
31,118,88661,1,8,2:0:0:0:
75,51,88836,1,2,2:0:0:0:
145,89,89011,1,2,2:0:0:0:
189,22,89186,1,2,2:0:0:0:
263,52,89362,6,0,P|293:106|378:114,2,120,4|2|2,1:0|2:0|2:0,0:0:0:0:
342,44,90064,2,2,L|438:72,2,80,8|2|2,2:0|2:0|2:0,2:0:0:0:
262,53,90590,6,2,L|243:88,2,40,2|2|2,2:0|2:0|2:0,2:0:0:0:
182,46,90941,2,2,L|163:81,2,40,2|2|2,2:0|2:0|2:0,2:0:0:0:
102,33,91292,1,0,0:0:0:0:
64,103,91468,6,0,P|74:141|102:169,1,80,8|0,2:0|0:0,0:0:0:0:
163,220,91818,2,0,P|190:248|200:286,1,80,8|0,2:0|0:0,0:0:0:0:
280,291,92169,1,4,1:0:0:0:
449,222,92520,6,0,P|447:183|431:146,1,80
335,87,92871,2,0,P|337:127|353:164,1,80,8|0,2:0|0:0,0:0:0:0:
363,243,93222,1,0,0:0:0:0:
363,243,93397,2,0,L|214:303,1,160
211,222,93924,2,0,L|62:161,1,160,0|8,0:0|2:0,0:0:0:0:
109,96,94450,2,0,L|58:20,2,80
184,123,94976,1,4,0:0:0:0:
325,197,95327,6,0,P|355:160|370:120,1,80
336,56,95678,2,0,L|404:15,1,80,8|0,2:0|0:0,0:0:0:0:
452,79,96029,1,0,0:0:0:0:
484,151,96204,2,0,P|470:229|431:299,1,160
352,283,96731,2,0,P|273:268|203:229,1,160,0|8,0:0|2:0,0:0:0:0:
123,235,97257,2,0,L|45:262,2,80
148,159,97783,1,4,0:0:0:0:
264,49,98134,6,0,P|282:84|292:122,1,80
309,201,98485,2,0,P|318:239|337:274,1,80,8|0,2:0|0:0,0:0:0:0:
384,339,98836,1,0,0:0:0:0:
462,334,99011,2,0,P|457:255|437:177,1,160
390,112,99538,2,0,P|312:131|232:137,1,160,0|8,0:0|2:0,0:0:0:0:
171,86,100064,1,0,0:0:0:0:
136,157,100239,1,0,0:0:0:0:
70,110,100415,1,0,0:0:0:0:
33,180,100590,6,2,L|8:314,2,120,2|2|2,2:0|2:0|2:0,2:0:0:0:
70,110,101292,1,8,2:0:0:0:
136,157,101468,1,0,0:0:0:0:
171,86,101643,1,0,0:0:0:0:
246,60,101818,6,2,L|287:52,2,40,2|2|2,2:0|2:0|2:0,2:0:0:0:
232,142,102169,2,2,L|273:134,2,40,2|2|2,2:0|2:0|2:0,2:0:0:0:
217,221,102520,1,0,0:0:0:0:
169,285,102696,2,0,P|131:298|91:292,1,80,8|0,2:0|0:0,0:0:0:0:
123,219,103047,1,8,2:0:0:0:
89,62,103397,5,4,2:0:0:0:
286,154,111818,6,0,P|323:108|337:50,2,120,2|2|2,0:0|0:0|0:0,0:0:0:0:
216,194,112520,2,0,L|131:136,1,80,8|2,0:0|0:0,0:0:0:0:
119,74,112871,1,0,0:0:0:0:
60,128,113047,6,2,L|24:147,2,40
77,205,113397,2,2,L|41:224,2,40
96,282,113748,1,2,0:0:0:0:
168,316,113924,1,8,0:0:0:0:
168,316,114625,6,0,P|233:266|399:256,2,240,4|8|0,1:0|2:0|0:0,0:0:0:0:
87,319,115854,1,0,0:0:0:0:
51,245,116029,2,0,P|48:206|58:167,1,80
81,91,116380,2,0,P|119:101|159:97,1,80
232,64,116731,1,8,2:0:0:0:
221,143,116906,1,0,0:0:0:0:
298,120,117082,1,0,0:0:0:0:
287,199,117257,1,0,0:0:0:0:
330,265,117432,6,0,P|284:303|105:338,1,240,8|0,0:0|0:0,0:0:0:0:
40,301,118134,1,8,2:0:0:0:
7,227,118310,1,0,0:0:0:0:
86,227,118485,1,0,0:0:0:0:
53,153,118661,1,0,0:0:0:0:
75,76,118836,6,0,P|129:100|241:102,1,160,4|0,0:0|0:0,0:0:0:0:
303,75,119362,2,0,L|395:31,1,80,0|8,0:0|2:0,0:0:0:0:
454,54,119713,2,0,P|433:112|436:142,1,80
462,204,120064,1,0,0:0:0:0:
435,279,120239,1,4,0:0:0:0:
114,271,120941,6,0,L|176:221,1,80,8|0,0:0|0:0,0:0:0:0:
247,182,121292,2,0,L|184:132,1,80,8|0,2:0|0:0,0:0:0:0:
122,80,121643,2,0,L|184:30,1,80,4|0,0:0|0:0,0:0:0:0:
262,50,121994,2,0,L|324:99,2,80,0|0|8,0:0|0:0|2:0,0:0:0:0:
105,86,122696,6,0,L|167:135,2,80,0|0|4,0:0|0:0|0:0,0:0:0:0:
58,239,123397,1,0,0:0:0:0:
17,308,123573,1,0,0:0:0:0:
90,340,123748,2,0,L|262:321,2,160,8|0|0,2:0|0:0|0:0,0:0:0:0:
90,258,124625,2,0,P|96:219|98:179,1,80
212,66,125152,5,8,2:0:0:0:
174,136,125327,1,0,0:0:0:0:
254,142,125503,1,0,0:0:0:0:
216,212,125678,1,0,0:0:0:0:
251,283,125854,2,0,P|329:269|393:223,1,160,8|0,0:0|0:0,0:0:0:0:
473,225,126380,1,0,0:0:0:0:
495,148,126555,6,0,P|448:83|435:5,2,160,8|0|0,2:0|0:0|0:0,0:0:0:0:
473,225,127432,1,0,0:0:0:0:
406,269,127608,1,0,0:0:0:0:
287,161,127959,1,8,2:0:0:0:
102,198,128661,6,0,P|95:236|106:274,1,80,4|0,0:0|0:0,0:0:0:0:
130,122,129011,2,0,P|137:83|126:45,1,80
184,184,129362,2,0,P|235:218|351:221,1,160,8|2,2:0|1:0,0:0:0:0:
427,89,130064,6,2,P|287:60|104:99,2,320,4|10|4,0:0|1:0|0:0,1:0:0:0:
225,337,132169,6,0,L|196:176,2,160,8|0|0,2:0|0:0|0:0,0:0:0:0:
305,341,133047,1,0,0:0:0:0:
327,264,133222,1,0,0:0:0:0:
452,164,133573,2,0,L|433:241,1,80,8|0,2:0|0:0,0:0:0:0:
364,201,133924,2,0,L|382:123,1,80
256,192,134275,12,4,135678,1:0:0:0:
400,53,136380,6,0,P|434:126|418:213,1,160,8|0,2:0|0:0,0:0:0:0:
196,283,137257,1,0,0:0:0:0:
196,283,137432,2,0,L|186:120,1,160,0|8,0:0|2:0,0:0:0:0:
464,280,138485,6,0,P|391:307|316:286,1,160
246,245,139011,2,0,L|237:153,1,80,0|8,0:0|2:0,0:0:0:0:
381,93,139538,1,0,0:0:0:0:
144,50,140064,1,0,0:0:0:0:
144,50,140239,1,0,0:0:0:0:
121,208,140590,1,8,2:0:0:0:
47,280,141292,6,0,P|120:307|195:286,1,160
266,245,141818,2,0,L|275:153,1,80,0|8,0:0|2:0,0:0:0:0:
131,93,142345,1,0,0:0:0:0:
368,50,142871,1,0,0:0:0:0:
368,50,143046,1,0,0:0:0:0:
391,208,143397,1,8,2:0:0:0:
157,61,144099,5,0,0:0:0:0:
123,133,144275,2,2,L|83:140,2,40,2|2|2,2:0|2:0|2:0,2:0:0:0:
171,196,144625,1,0,0:0:0:0:
210,265,144801,2,2,L|249:258,2,40,10|2|2,2:0|2:0|2:0,2:0:0:0:
158,326,145152,1,0,0:0:0:0:
220,375,145327,1,2,2:0:0:0:
287,330,145503,6,0,P|319:308|358:298,1,80,2|0,1:0|0:0,0:0:0:0:
406,188,145854,2,0,P|373:211|335:221,1,80,2|0,1:0|0:0,0:0:0:0:
206,196,146204,2,0,P|239:173|278:164,1,80,2|0,1:0|0:0,0:0:0:0:
322,97,146555,1,2,1:0:0:0:
161,99,146906,5,4,1:0:0:0:
256,192,166555,12,8,169011,0:0:0:0:
149,49,169362,6,0,P|123:164|153:279,1,240,4|0,0:0|0:0,0:0:0:0:
212,334,170064,2,0,L|278:283,1,80,8|0,1:0|0:0,0:0:0:0:
358,279,170415,2,0,P|388:164|362:49,1,240
281,43,171117,2,0,L|215:94,1,80
225,171,171468,6,0,P|201:251|252:337,2,160,8|0|4,1:0|0:0|0:0,0:0:0:0:
364,93,172520,1,0,0:0:0:0:
439,65,172696,1,0,0:0:0:0:
429,144,172871,1,8,1:0:0:0:
466,214,173047,1,0,0:0:0:0:
433,287,173222,6,0,P|363:304|183:270,1,240
146,217,173924,2,0,P|115:162|79:138,1,80
69,78,174275,2,0,L|227:53,1,160,8|4,1:0|3:0,0:0:0:0:
385,28,174976,6,0,P|367:110|381:268,1,240,4|0,0:0|0:0,0:0:0:0:
308,302,175678,2,0,P|270:311|230:305,1,80,8|0,1:0|0:0,0:0:0:0:
170,359,176029,2,0,L|80:116,1,240
76,54,176731,2,0,P|114:44|154:50,1,80
209,108,177082,6,0,P|254:146|361:129,2,160,8|0|4,1:0|0:0|0:0,0:0:0:0:
154,49,177959,2,2,L|117:25,2,40
131,126,178310,1,0,0:0:0:0:
162,199,178485,2,2,P|194:222|219:253,1,80,8|0,1:0|0:0,1:0:0:0:
270,315,178836,2,2,P|293:282|332:158,1,160,2|0,1:0|0:0,1:0:0:0:
368,98,179362,2,2,L|403:79,2,40,2|2|2,1:0|1:0|1:0,1:0:0:0:
292,71,179713,1,0,0:0:0:0:
214,92,179889,6,2,P|128:156|258:144,1,320,2|4,0:0|1:0,1:0:0:0:
473,56,181117,6,0,P|458:93|455:132,1,80,0|8,0:0|1:0,0:0:0:0:
452,213,181468,1,0,0:0:0:0:
488,284,181643,2,0,P|387:351|263:367,1,240
210,316,182345,2,0,P|179:283|134:257,1,80
74,237,182696,5,4,0:0:0:0:
208,149,183047,1,0,0:0:0:0:
310,26,183397,2,0,P|348:98|344:264,1,240,4|0,1:0|0:0,0:0:0:0:
396,317,184099,6,0,P|432:331|472:330,1,80,8|0,1:0|0:0,0:0:0:0:
317,333,184450,2,0,P|280:318|159:344,1,160
88,315,184976,1,0,0:0:0:0:
38,251,185152,1,0,0:0:0:0:
114,229,185327,1,0,0:0:0:0:
63,164,185503,6,2,P|113:76|174:156,1,240,8|0,1:0|0:0,1:0:0:0:
216,224,186204,2,2,P|256:341|305:227,1,320,4|8,1:0|1:0,1:0:0:0:
286,149,187082,1,0,0:0:0:0:
337,87,187257,2,0,P|405:79|406:215,1,240
364,278,187959,2,0,L|289:307,1,80
215,339,188310,5,4,0:0:0:0:
108,219,188661,1,0,0:0:0:0:
106,59,189011,6,0,P|168:86|349:90,1,240,4|8,1:0|0:0,0:0:0:0:
355,170,189713,2,0,L|446:153,2,80,0|0|8,0:0|0:0|2:0,0:0:0:0:
201,216,190415,2,0,L|195:295,1,80,2|2,2:0|2:0,0:0:0:0:
115,299,190766,2,0,L|120:219,1,80,0|8,0:0|2:0,0:0:0:0:
93,143,191117,2,0,L|40:127,4,40,2|0|0|0|8,2:0|0:0|0:0|0:0|2:0,0:0:0:0:
240,79,191818,6,0,P|317:94|393:71,1,160
448,130,192345,1,8,0:0:0:0:
455,209,192520,2,0,P|446:261|430:288,1,80
352,270,192871,2,0,P|313:268|274:276,1,80,8|0,0:0|0:0,0:0:0:0:
215,331,193222,1,2,0:0:0:0:
82,241,193573,2,0,L|93:151,1,80,0|2,0:0|0:0,0:0:0:0:
144,101,193924,2,0,L|146:52,4,40,8|0|0|0|8,0:0|0:0|0:0|0:0|0:0,0:0:0:0:
301,78,194625,6,0,P|290:156|318:230,1,160,2|0,0:0|0:0,0:0:0:0:
391,263,195152,1,8,0:0:0:0:
454,215,195327,2,0,L|470:49,1,160,2|0,0:0|0:0,0:0:0:0:
391,34,195854,1,0,0:0:0:0:
318,68,196029,6,0,P|254:88|165:59,1,160,2|0,0:0|0:0,0:0:0:0:
88,46,196555,1,8,0:0:0:0:
49,116,196731,2,0,P|32:199|59:275,1,160,2|0,0:0|0:0,0:0:0:0:
132,290,197257,1,0,0:0:0:0:
201,251,197432,6,0,P|193:213|172:179,1,80,2|0,0:0|0:0,0:0:0:0:
231,115,197783,2,0,P|268:127|308:126,1,80,2|8,0:0|0:0,0:0:0:0:
334,208,198134,2,0,P|305:235|286:270,1,80,2|0,0:0|0:0,0:0:0:0:
201,251,198485,2,0,P|193:213|172:179,1,80,2|0,0:0|0:0,0:0:0:0:
315,162,199889,5,8,0:0:0:0:
315,162,200239,6,2,P|356:216|453:253,1,160,4|8,1:0|1:0,1:0:0:0:
472,181,200766,2,0,L|454:102,1,80
377,110,201117,1,0,0:0:0:0:
315,162,201293,2,0,P|298:125|301:86,1,80,8|0,1:0|0:0,0:0:0:0:
218,26,201643,6,0,L|139:9,1,80,2|0,1:0|0:0,0:0:0:0:
160,86,201994,2,0,L|79:82,1,80,2|0,1:0|0:0,0:0:0:0:
115,154,202345,2,0,L|34:165,1,80,2|0,1:0|0:0,0:0:0:0:
81,230,202696,2,0,L|4:254,1,80,2|2,1:0|1:0,0:0:0:0:
33,329,203047,6,2,P|83:355|199:353,1,160,4|8,1:0|1:0,1:0:0:0:
207,279,203573,2,0,P|246:273|285:279,1,80
326,347,203924,1,0,0:0:0:0:
404,329,204099,2,0,P|411:290|402:252,1,80,8|0,1:0|0:0,0:0:0:0:
333,213,204450,6,0,L|375:145,1,80,2|2,1:0|1:0,0:0:0:0:
317,89,204801,2,0,L|274:156,1,80,0|2,0:0|1:0,0:0:0:0:
197,133,205152,2,0,L|239:65,1,80,0|2,0:0|1:0,0:0:0:0:
181,9,205503,2,0,L|138:76,1,80,0|2,0:0|1:0,0:0:0:0:
66,40,205854,6,2,P|50:96|65:213,1,160,4|8,1:0|1:0,1:0:0:0:
100,265,206380,2,0,L|64:336,1,80
139,365,206731,2,0,L|174:293,1,80,0|8,0:0|1:0,0:0:0:0:
240,248,207082,1,0,0:0:0:0:
285,181,207257,6,0,P|317:158|355:148,1,80,2|0,1:0|0:0,0:0:0:0:
222,125,207608,2,0,P|237:88|266:60,1,80,2|0,1:0|0:0,0:0:0:0:
143,150,207959,2,0,P|132:190|133:232,1,80,2|0,1:0|0:0,0:0:0:0:
81,90,208310,2,0,P|89:49|90:10,1,80,2|2,1:0|1:0,0:0:0:0:
6,126,208661,6,2,P|-7:185|-2:290,1,160,4|8,1:0|1:0,1:0:0:0:
74,303,209187,2,0,L|149:330,1,80
207,274,209538,2,0,L|282:301,1,80,0|8,0:0|1:0,0:0:0:0:
369,273,209889,1,0,0:0:0:0:
376,192,210064,2,0,P|406:155|443:139,2,80,2|2|2,1:0|1:0|1:0,0:0:0:0:
304,227,210590,2,0,P|256:219|224:195,2,80,2|2|0,1:0|1:0|0:0,0:0:0:0:
369,273,211117,2,0,P|386:317|381:357,1,80,2|2,1:0|1:0,0:0:0:0:
307,325,211468,6,2,L|128:348,1,160,4|8,1:0|1:0,1:0:0:0:
73,315,211994,1,0,0:0:0:0:
26,249,212169,2,0,P|28:210|37:171,1,80
89,109,212520,1,8,1:0:0:0:
148,162,212696,1,0,0:0:0:0:
191,95,212871,6,2,L|177:40,2,40
246,152,213222,2,0,P|243:191|234:230,1,80,2|0,1:0|0:0,0:0:0:0:
197,302,213573,2,2,L|372:361,1,160,2|0,1:0|0:0,1:0:0:0:
347,272,214099,1,2,1:0:0:0:
427,275,214275,6,2,L|375:123,1,160,4|8,1:0|1:0,1:0:0:0:
305,84,214801,1,0,0:0:0:0:
230,114,214976,2,0,P|218:77|214:37,1,80,2|2,0:0|0:0,0:0:0:0:
151,128,215327,2,0,P|163:165|167:205,1,80,8|2,1:0|0:0,0:0:0:0:
89,227,215678,6,2,L|35:249,2,40
145,284,216029,2,2,P|190:307|228:310,1,80,2|2,1:0|0:0,0:0:0:0:
275,366,216380,2,2,L|390:240,1,160,2|0,1:0|0:0,1:0:0:0:
336,182,216906,1,2,1:0:0:0:
387,120,217082,6,2,P|335:80|238:40,1,160,4|8,1:0|1:0,1:0:0:0:
173,68,217608,2,0,L|94:83,1,80,0|2,0:0|0:0,0:0:0:0:
26,126,217959,1,2,0:0:0:0:
65,195,218134,2,0,P|85:228|94:267,1,80,8|2,1:0|0:0,0:0:0:0:
170,288,218485,6,2,L|187:331,2,40
192,210,218836,1,2,1:0:0:0:
248,265,219011,1,0,0:0:0:0:
270,187,219187,2,2,P|336:222|425:236,1,160,2|0,1:0|0:0,1:0:0:0:
479,182,219713,1,2,1:0:0:0:
435,114,219889,6,2,P|369:79|280:65,1,160,4|8,1:0|1:0,1:0:0:0:
241,132,220415,1,0,0:0:0:0:
192,68,220590,1,2,0:0:0:0:
160,141,220766,1,2,0:0:0:0:
111,77,220941,1,8,1:0:0:0:
75,148,221117,1,2,0:0:0:0:
83,227,221292,6,0,L|56:326,2,80,4|0|8,3:0|0:0|3:0,0:0:0:0:
160,248,221818,2,0,L|133:347,2,80,0|8|0,0:0|3:0|0:0,0:0:0:0:
238,267,222345,1,2,3:0:0:0:
295,212,222520,1,0,3:0:0:0:
365,249,222696,1,4,0:0:0:0:
297,232,226204,6,0,L|334:245,2,40,0|0|2,0:0|0:0|0:0,0:0:0:0:
215,232,226555,2,0,L|177:245,2,40
256,160,226906,2,0,L|256:64,1,80,10|2,1:0|0:0,0:0:0:0:
313,23,227257,2,0,L|409:23,1,80,10|2,0:0|0:0,0:0:0:0:
332,102,227608,6,0,L|408:126,1,80,2|0,1:0|0:0,0:0:0:0:
271,155,227959,2,0,L|194:179,1,80,2|0,1:0|0:0,0:0:0:0:
342,191,228310,2,0,L|418:215,1,80,10|0,1:0|0:0,0:0:0:0:
281,244,228661,2,0,L|204:268,1,80,2|0,1:0|0:0,0:0:0:0:
128,245,229011,6,0,L|85:294,2,40,0|2|2,0:0|0:0|0:0,0:0:0:0:
103,168,229362,2,0,P|106:117|90:69,1,80
179,86,229713,1,8,1:0:0:0:
244,39,229889,1,2,0:0:0:0:
314,77,230064,1,2,0:0:0:0:
379,30,230240,1,2,0:0:0:0:
439,82,230415,6,0,L|500:154,2,80,2|2|2,1:0|1:0|1:0,0:0:0:0:
369,121,230941,2,0,L|376:200,1,80,2|8,1:0|1:0,0:0:0:0:
254,189,231292,2,0,L|288:117,1,80,2|0,1:0|0:0,0:0:0:0:
217,78,231643,1,2,1:0:0:0:
138,89,231818,6,0,L|98:84,2,40
110,164,232169,2,0,L|73:180,2,40,8|0|0,1:0|0:0|0:0,0:0:0:0:
189,157,232520,2,0,P|228:161|268:157,1,80
348,157,232871,1,8,1:0:0:0:
351,352,233222,6,0,L|282:313,1,80,2|0,1:0|0:0,0:0:0:0:
318,241,233573,2,0,L|238:234,1,80,2|0,1:0|0:0,0:0:0:0:
242,153,233924,2,0,L|166:180,1,80,10|0,1:0|0:0,0:0:0:0:
134,106,234275,2,0,L|77:162,1,80,2|0,1:0|0:0,0:0:0:0:
73,245,234625,6,0,P|174:272|252:262,1,160,4|8,1:0|1:0,0:0:0:0:
264,195,235152,1,0,0:0:0:0:
304,263,235327,1,0,0:0:0:0:
346,199,235503,1,0,0:0:0:0:
386,267,235678,1,8,1:0:0:0:
425,201,235854,1,0,0:0:0:0:
463,270,236029,6,2,L|493:343,2,80,2|2|8,1:0|1:0|1:0,1:0:0:0:
425,199,236555,2,2,L|394:125,2,80,2|2|0,1:0|1:0|0:0,1:0:0:0:
386,267,237082,2,2,L|355:340,1,80,8|2,1:0|0:0,1:0:0:0:
277,320,237432,6,0,P|188:244|116:222,1,160,4|8,1:0|0:0,0:0:0:0:
69,242,237959,1,0,0:0:0:0:
73,161,238134,2,0,L|93:83,1,80,2|2,0:0|0:0,0:0:0:0:
136,15,238485,1,8,0:0:0:0:
196,67,238661,1,2,0:0:0:0:
253,121,238836,6,2,L|302:159,2,40
182,154,239187,2,0,L|158:243,1,80,8|0,0:0|0:0,0:0:0:0:
97,280,239538,2,2,P|161:326|238:345,1,160,2|0,1:0|0:0,1:0:0:0:
316,326,240064,1,2,1:0:0:0:
392,348,240239,6,2,P|410:270|457:206,1,160,4|8,1:0|0:0,1:0:0:0:
421,134,240766,1,0,0:0:0:0:
470,71,240941,1,2,0:0:0:0:
390,61,241117,1,2,0:0:0:0:
310,52,241292,1,8,0:0:0:0:
340,126,241468,1,0,0:0:0:0:
328,204,241643,6,2,L|335:254,2,40
252,175,241994,2,0,L|160:144,1,80,2|0,1:0|0:0,0:0:0:0:
96,143,242345,2,2,L|54:62,2,80,2|0|8,1:0|0:0|0:0,1:0:0:0:
49,208,242871,1,2,1:0:0:0:
83,280,243047,6,2,P|147:326|224:345,1,160,4|8,1:0|0:0,1:0:0:0:
295,307,243573,1,0,0:0:0:0:
370,279,243748,2,2,P|393:248|406:210,1,80
434,135,244099,2,0,P|446:97|470:65,1,80,8|2,0:0|0:0,0:0:0:0:
398,30,244450,6,2,L|354:11,2,40
346,91,244801,2,0,L|256:129,1,80,2|0,1:0|0:0,0:0:0:0:
320,186,245152,2,2,L|169:250,1,160,2|0,1:0|0:0,1:0:0:0:
133,318,245678,1,2,1:0:0:0:
88,250,245854,6,2,P|69:172|22:108,1,160,4|8,1:0|0:0,1:0:0:0:
78,50,246380,2,0,L|153:23,1,80,0|2,0:0|0:0,0:0:0:0:
205,85,246731,2,0,L|280:111,1,80,2|8,0:0|0:0,0:0:0:0:
348,68,247082,1,2,0:0:0:0:
404,124,247257,5,0,0:0:0:0:
361,191,247432,1,0,0:0:0:0:
415,250,247608,1,8,0:0:0:0:
372,317,247783,1,0,0:0:0:0:
301,277,247959,5,8,0:0:0:0:
234,320,248134,1,0,0:0:0:0:
164,279,248310,1,8,0:0:0:0:
97,322,248485,1,8,0:0:0:0:
256,192,248661,12,4,250064,1:0:0:0:
