osu file format v14

[General]
AudioFilename: audio.mp3
AudioLeadIn: 0
PreviewTime: 31989
Countdown: 0
SampleSet: Soft
StackLeniency: 0.7
Mode: 0
LetterboxInBreaks: 0
WidescreenStoryboard: 1

[Editor]
Bookmarks: 1395,11843,22294,32720,74426,97924
DistanceSpacing: 1
BeatDivisor: 4
GridSize: 32
TimelineZoom: 1

[Metadata]
Title:Eu Li Na Biblia (Sped Up & Cut Ver.)
TitleUnicode:Eu Li Na Biblia (Sped Up & Cut Ver.)
Artist:Aline Barros
ArtistUnicode:Aline Barros
Creator:Sotarks
Version:Normal do Kirishima-
Source:
Tags:kirishima- pepekcz kujinn reform pop & Cia Biblico Bristo Freira Amém Portuguese gospel evangélico evangelico jesus god deus 3 three
BeatmapID:3632861
BeatmapSetID:1769206

[Difficulty]
HPDrainRate:3
CircleSize:3
OverallDifficulty:5
ApproachRate:5.5
SliderMultiplier:0.999999999999999
SliderTickRate:1

[Events]
//Background and Video events
0,0,"bg.jpg",0,0
//Break Periods
//Storyboard Layer 0 (Background)
//Storyboard Layer 1 (Fail)
//Storyboard Layer 2 (Pass)
//Storyboard Layer 3 (Foreground)
//Storyboard Layer 4 (Overlay)
//Storyboard Sound Samples

[TimingPoints]
98,324.324324324324,4,2,22,72,1,0
1395,329.67032967033,4,2,22,72,1,0
1395,-100,4,2,22,72,0,0
4032,325.20325203252,4,2,22,72,1,0
9235,326.086956521739,4,2,22,72,1,0
10457,-100,4,2,22,52,0,0
11843,328.767123287671,4,2,22,52,1,0
11843,-100,4,2,22,52,0,0
14473,324.763193504736,4,2,22,52,1,0
17071,327.868852459016,4,2,22,52,1,0
19693,325.20325203252,4,2,22,52,1,0
22294,326.086956521739,4,2,22,62,1,0
22294,-100,4,2,22,62,0,0
25880,319.148936170213,4,2,22,62,1,0
26837,327.868852459016,4,2,22,62,1,0
27492,327.868852459016,4,2,22,62,1,0
28803,329.67032967033,4,2,22,62,1,0
30121,322.58064516129,4,2,22,62,1,0
31411,330.578512396694,4,2,22,62,1,0
32072,324.324324324324,4,2,22,62,1,0
32720,326.086956521739,4,2,22,72,1,0
32720,-100,4,2,22,72,0,1
41198,318.725099601594,4,2,22,72,1,1
41835,326.086956521739,4,2,22,72,1,1
44443,328.767123287671,4,2,22,72,1,1
47073,326.086956521739,4,2,22,72,1,1
51312,322.58064516129,4,2,22,72,1,1
52279,325.20325203252,4,2,22,72,1,1
53498,-100,4,2,22,72,0,0
53579,-100,4,2,22,72,0,1
56181,328.767123287671,4,2,22,72,1,1
57496,321.71581769437,4,2,22,72,1,1
58782,326.086956521739,4,2,22,72,1,1
61390,329.67032967033,4,2,22,72,1,1
62708,324.324324324324,4,2,22,72,1,1
64005,326.530612244898,4,2,22,72,1,1
69229,325.20325203252,4,2,22,72,1,1
73131,327.868852459016,4,2,22,72,1,1
74114,312.5,4,2,22,72,1,1
74426,327.868852459016,4,2,22,72,1,0
74426,-100,4,2,22,72,0,0
75737,331.491712707182,4,2,22,72,1,0
76897,-99.009900990099,4,2,22,72,0,0
77062,326.086956521739,4,2,22,72,1,0
78203,-99.009900990099,4,2,22,72,0,0
78366,323.450134770889,4,2,22,72,1,0
79659,329.218106995885,4,2,22,72,1,0
80975,325.20325203252,4,2,22,72,1,0
83251,315.789473684211,4,2,22,72,1,0
83566,321.71581769437,4,2,22,72,1,0
84852,333.333333333333,4,2,22,72,1,0
85185,319.148936170213,4,2,22,72,1,0
85504,329.67032967033,4,2,22,72,1,0
86163,329.67032967033,4,2,22,72,1,0
87481,327.868852459016,4,2,22,72,1,0
89448,322.58064516129,4,2,22,72,1,0
90093,327.421555252387,4,2,22,72,1,0
92712,324.763193504736,4,2,22,72,1,0
93686,333.333333333333,4,2,22,72,1,0
94019,324.324324324324,4,2,22,82,1,0
95316,326.086956521739,4,2,22,72,1,0
95316,-166.666666666667,4,2,22,72,0,1
95397,-166.666666666667,4,2,22,42,0,1
97924,-166.666666666667,4,2,22,12,0,0

[Colours]
Combo1 : 185,225,230
Combo2 : 208,231,192
Combo3 : 240,200,219
Combo4 : 238,209,155

[HitObjects]
16,20,1395,6,0,L|33:119,1,99.9999999999999,6|8,1:2|0:2,0:2:0:0:
41,167,1889,1,2,1:2:0:0:
3,262,2219,1,0,1:2:0:0:
3,262,2384,2,0,L|102:279,1,99.9999999999999,10|0,0:2|1:2,0:2:0:0:
146,368,3043,2,0,L|195:360,1,50,10|0,0:2|0:2,0:2:0:0:
245,353,3373,2,0,L|262:254,1,99.9999999999999,2|10,1:2|0:2,0:0:0:0:
276,209,3867,1,0,0:0:0:0:
276,209,4032,6,0,P|319:186|367:194,1,99.9999999999999,2|8,1:2|0:2,0:2:0:0:
412,216,4519,1,2,3:2:0:0:
483,146,4845,1,0,1:2:0:0:
483,146,5007,2,0,P|491:97|468:54,1,99.9999999999999,10|0,0:2|1:2,0:2:0:0:
434,25,5495,1,0,1:2:0:0:
434,25,5658,1,8,0:2:0:0:
357,89,5983,2,0,L|307:80,1,50,2|0,1:2|1:2,0:0:0:0:
258,69,6308,1,10,0:2:0:0:
179,130,6633,6,0,L|196:229,1,99.9999999999999,2|8,1:2|0:2,0:2:0:0:
208,277,7121,1,2,1:2:0:0:
136,346,7446,1,0,1:2:0:0:
136,346,7609,2,0,L|37:329,1,99.9999999999999,10|0,0:2|1:2,0:2:0:0:
13,232,8259,2,0,L|4:182,1,50,10|0,0:2|0:2,0:2:0:0:
42,150,8584,2,0,L|59:51,1,99.9999999999999,2|10,1:2|0:2,0:0:0:0:
154,22,9235,6,0,P|197:0|245:7,1,99.9999999999999,14|0,0:2|1:2,0:0:0:0:
294,19,9724,2,0,L|311:118,1,99.9999999999999,14|0,0:2|1:2,0:0:0:0:
321,171,10213,1,10,0:2:0:0:
321,171,10376,1,6,1:2:0:0:
321,171,11843,6,0,L|420:188,2,99.9999999999999,6|2|0,1:2|1:2|1:2,0:2:0:0:
243,234,12829,2,0,L|194:243,2,50,2|0|2,1:2|0:2|1:2,0:2:0:0:
260,332,13486,1,2,1:2:0:0:
357,353,13815,2,0,L|456:370,1,99.9999999999999,2|0,1:2|1:2,0:2:0:0:
510,284,14473,6,0,L|501:235,1,50,2|0,1:2|0:2,0:2:0:0:
494,185,14797,2,0,P|450:162|402:170,1,99.9999999999999,2|0,1:2|1:2,0:2:0:0:
332,242,15447,1,2,1:2:0:0:
233,223,15772,1,2,1:2:0:0:
205,127,16096,1,2,1:2:0:0:
269,50,16421,2,0,P|312:27|360:35,1,99.9999999999999,0|0,1:0|1:0,0:0:0:0:
450,77,17071,5,2,1:2:0:0:
464,175,17398,1,2,1:2:0:0:
388,240,17726,2,0,L|289:223,1,99.9999999999999,2|0,1:2|1:2,0:2:0:0:
240,212,18218,2,0,P|217:168|225:120,1,99.9999999999999,2|2,0:2|0:2,0:2:0:0:
249,75,18710,1,2,1:2:0:0:
183,3,19038,2,0,L|84:20,1,99.9999999999999,2|0,1:2|1:2,0:2:0:0:
11,89,19693,5,2,1:2:0:0:
70,169,20018,2,0,P|78:218|55:261,1,99.9999999999999,2|0,1:2|1:2,0:2:0:0:
126,338,20668,1,2,1:2:0:0:
126,338,20831,2,0,P|169:360|217:352,1,99.9999999999999,2|0,0:2|0:2,0:2:0:0:
262,330,21319,1,2,1:2:0:0:
346,383,21644,1,2,1:2:0:0:
433,334,21969,1,12,0:2:0:0:
418,235,22294,6,0,L|401:136,1,99.9999999999999,6|10,1:2|0:2,0:2:0:0:
397,91,22783,1,0,1:2:0:0:
397,91,22946,1,2,0:2:0:0:
298,73,23272,2,0,L|199:56,1,99.9999999999999,10|0,0:2|0:2,0:2:0:0:
180,9,23761,2,0,L|131:18,1,50,2|8,1:2|0:2,0:0:0:0:
82,32,24087,2,0,L|65:131,1,99.9999999999999,2|0,0:2|1:2,0:0:0:0:
57,180,24576,1,8,0:2:0:0:
116,260,24902,6,0,P|164:268|207:244,1,99.9999999999999,2|10,1:2|0:2,0:2:0:0:
242,208,25391,2,0,L|225:110,1,99.9999999999999,2|2,1:2|1:2,0:0:0:0:
218,58,25880,1,10,0:2:0:0:
301,2,26199,1,2,1:2:0:0:
387,51,26518,2,0,P|410:94|402:142,1,99.9999999999999,10|0,0:2|1:2,0:2:0:0:
385,189,27000,2,0,L|336:198,1,50,2|10,1:2|0:2,0:0:0:0:
286,205,27328,1,2,0:2:0:0:
250,300,27655,5,2,3:2:0:0:
250,300,27819,2,0,L|152:283,1,99.9999999999999,10|0,0:2|1:2,0:2:0:0:
53,263,28475,2,0,L|44:214,1,50,10|0,0:2|0:2,0:0:0:0:
5,191,28803,1,2,1:2:0:0:
5,191,28967,2,0,L|22:93,1,99.9999999999999,2|0,1:2|0:0,0:0:0:0:
107,39,29627,2,0,L|156:47,1,50,2|10,1:2|0:2,0:0:0:0:
209,61,29956,1,0,0:2:0:0:
209,61,30121,6,0,P|232:104|224:152,1,99.9999999999999,10|10,0:2|0:2,0:0:0:0:
158,228,30766,1,10,0:2:0:0:
178,325,31088,1,10,0:2:0:0:
265,369,31411,2,0,L|314:360,1,50,2|0,1:2|1:2,0:0:0:0:
339,316,31741,2,0,L|388:325,1,50,4|8,1:3|1:3,0:0:0:0:
438,333,32072,1,8,1:3:0:0:
494,142,32720,6,0,L|396:125,1,99.9999999999999,6|10,1:2|0:2,0:0:0:0:
346,113,33209,1,2,1:2:0:0:
292,28,33535,2,0,L|242:37,1,50,2|8,1:2|0:2,0:0:0:0:
194,50,33861,2,0,L|177:148,1,99.9999999999999,2|0,3:2|0:0,0:0:0:0:
170,198,34350,1,8,0:2:0:0:
81,245,34676,2,0,L|90:295,1,50,2|2,1:2|1:2,0:0:0:0:
104,347,35002,1,10,0:2:0:0:
104,347,35165,6,0,P|147:370|196:362,1,99.9999999999999,2|2,0:2|1:2,0:2:0:0:
246,346,35654,1,10,0:2:0:0:
246,346,35817,1,2,1:2:0:0:
284,253,36143,2,0,L|334:244,1,50,2|8,1:2|0:2,0:2:0:0:
383,237,36470,2,0,P|406:194|398:145,1,99.9999999999999,2|0,3:2|0:0,0:0:0:0:
385,96,36959,1,8,0:2:0:0:
286,78,37285,2,0,L|236:69,1,50,2|0,1:2|1:2,0:0:0:0:
218,22,37611,2,0,L|168:31,1,50,10|0,0:2|1:2,0:0:0:0:
120,42,37937,6,0,L|103:140,1,99.9999999999999,6|10,1:2|0:2,0:0:0:0:
191,187,38589,2,0,L|200:237,1,50,2|2,1:2|1:2,0:0:0:0:
211,284,38915,2,0,L|309:301,1,99.9999999999999,8|0,0:2|1:2,0:2:0:0:
397,349,39567,1,10,0:2:0:0:
456,269,39893,2,0,L|465:219,1,50,2|2,1:2|1:2,0:0:0:0:
509,195,40220,2,0,L|500:145,1,50,10|0,0:2|0:2,0:2:0:0:
492,96,40546,6,0,P|449:73|400:81,1,99.9999999999999,2|10,1:2|0:2,0:0:0:0:
313,135,41198,2,0,L|322:185,1,50,2|0,1:2|0:2,0:0:0:0:
365,208,41516,2,0,L|357:257,1,50,10|0,0:2|1:2,0:0:0:0:
349,305,41835,2,0,P|305:328|257:320,1,99.9999999999999,14|0,0:2|1:2,0:0:0:0:
212,297,42324,1,12,0:2:0:0:
152,223,42650,1,2,1:2:0:0:
152,223,42813,2,0,L|103:215,1,50,10|2,0:2|0:2,0:0:0:0:
53,206,43139,6,0,L|36:108,1,99.9999999999999,6|10,1:2|0:2,0:0:0:0:
31,57,43628,1,2,1:2:0:0:
114,1,43954,2,0,L|163:9,1,50,2|8,1:2|0:2,0:0:0:0:
212,17,44280,2,0,L|229:115,1,99.9999999999999,2|0,3:2|0:0,0:0:0:0:
237,165,44771,1,8,0:2:0:0:
312,230,45100,2,0,L|303:280,1,50,2|2,1:2|1:2,0:0:0:0:
296,332,45429,1,10,0:2:0:0:
296,332,45593,6,0,P|252:355|204:347,1,99.9999999999999,2|2,1:2|1:2,0:2:0:0:
164,327,46086,1,10,0:2:0:0:
164,327,46251,1,2,1:2:0:0:
89,260,46579,2,0,L|98:210,1,50,2|8,1:2|0:2,0:2:0:0:
110,162,46908,2,0,P|153:139|202:147,1,99.9999999999999,2|0,3:2|0:0,0:0:0:0:
247,167,47399,1,8,0:2:0:0:
296,79,47725,2,0,L|346:70,1,50,2|0,1:2|1:2,0:0:0:0:
368,25,48051,2,0,L|418:34,1,50,10|0,0:2|1:2,0:0:0:0:
466,43,48377,6,0,L|483:141,1,99.9999999999999,6|10,1:2|0:2,0:0:0:0:
412,212,49029,2,0,L|403:262,1,50,2|2,1:2|1:2,0:0:0:0:
391,309,49355,2,0,L|293:326,1,99.9999999999999,8|0,0:2|1:2,0:2:0:0:
206,274,50007,1,10,0:2:0:0:
263,192,50333,2,0,L|272:142,1,50,2|2,1:2|1:2,0:0:0:0:
316,120,50659,2,0,L|307:70,1,50,10|0,0:2|0:2,0:2:0:0:
300,20,50986,6,0,P|257:-3|208:5,1,99.9999999999999,2|10,1:2|0:2,0:0:0:0:
116,44,51634,2,0,L|107:94,1,50,2|0,1:2|0:2,0:0:0:0:
64,119,51957,2,0,L|73:169,1,50,10|0,0:2|1:2,0:0:0:0:
85,216,52279,2,0,P|128:239|177:231,1,99.9999999999999,12|0,0:2|1:2,0:0:0:0:
224,217,52766,1,12,0:2:0:0:
293,144,53092,1,0,1:2:0:0:
293,144,53254,1,12,0:2:0:0:
387,175,53579,6,0,L|404:273,1,99.9999999999999,14|10,0:2|0:2,0:0:0:0:
373,368,54230,1,10,0:2:0:0:
274,383,54555,1,10,0:2:0:0:
215,302,54880,2,0,L|166:294,1,50,10|2,0:2|1:2,0:0:0:0:
120,287,55205,1,10,0:2:0:0:
120,287,55368,2,0,L|103:189,1,99.9999999999999,2|0,1:2|1:2,0:0:0:0:
56,169,55856,2,0,L|65:119,1,50,8|2,0:2|1:2,0:0:0:0:
77,71,56181,6,0,P|120:48|169:56,1,99.9999999999999,8|10,0:2|0:2,0:0:0:0:
256,104,56838,1,10,0:2:0:0:
325,31,57167,1,10,0:2:0:0:
413,81,57496,2,0,L|421:130,1,50,10|0,0:2|1:2,0:2:0:0:
464,154,57817,2,0,L|456:203,1,50,10|0,0:2|1:2,0:2:0:0:
445,252,58139,2,0,P|402:275|353:267,1,99.9999999999999,10|8,0:2|0:2,0:0:0:0:
309,253,58622,1,2,1:2:0:0:
309,253,58782,6,0,L|292:155,1,99.9999999999999,8|10,0:2|0:2,0:0:0:0:
274,56,59434,1,10,0:2:0:0:
183,13,59760,1,10,0:2:0:0:
93,56,60086,2,0,L|85:105,1,50,10|2,0:2|1:2,0:0:0:0:
41,129,60412,2,0,L|49:178,1,50,10|2,0:2|1:2,0:0:0:0:
59,227,60738,1,10,0:2:0:0:
151,189,61064,2,0,L|200:197,1,50,10|2,0:2|1:2,0:0:0:0:
249,204,61390,6,0,P|272:247|264:296,1,99.9999999999999,8|10,0:0|0:2,0:0:0:0:
246,344,61884,1,2,1:2:0:0:
246,344,62049,1,8,0:2:0:0:
152,379,62379,2,0,L|102:370,1,50,10|2,0:2|1:2,0:0:0:0:
53,358,62708,2,0,P|30:315|38:266,1,99.9999999999999,8|8,0:2|0:2,0:0:0:0:
65,226,63194,1,2,1:2:0:0:
65,226,63356,1,10,0:2:0:0:
144,165,63680,2,0,L|152:116,1,50,8|2,0:2|1:2,0:0:0:0:
163,67,64005,6,0,L|261:50,1,99.9999999999999,12|10,0:2|0:2,0:0:0:0:
360,32,64658,1,10,0:2:0:0:
437,95,64984,1,10,0:2:0:0:
422,194,65311,2,0,L|414:243,1,50,10|0,0:2|1:2,0:2:0:0:
407,296,65637,1,10,0:2:0:0:
407,296,65800,2,0,L|309:313,1,99.9999999999999,2|0,1:2|1:2,0:2:0:0:
288,359,66290,2,0,L|238:350,1,50,8|2,0:2|1:2,0:0:0:0:
190,338,66617,6,0,P|167:295|175:246,1,99.9999999999999,8|10,0:2|0:2,0:0:0:0:
254,184,67270,1,10,0:2:0:0:
269,85,67596,1,10,0:2:0:0:
199,13,67923,2,0,L|150:5,1,50,10|0,0:2|1:2,0:2:0:0:
114,40,68249,2,0,L|65:48,1,50,10|0,0:2|1:2,0:2:0:0:
15,56,68576,2,0,P|-8:99|0:148,1,99.9999999999999,10|8,0:2|0:2,0:0:0:0:
17,200,69066,1,2,1:2:0:0:
17,200,69229,6,0,L|115:217,1,99.9999999999999,8|10,0:2|0:2,0:0:0:0:
116,317,69879,1,10,0:2:0:0:
206,358,70204,1,10,0:2:0:0:
283,295,70529,2,0,L|275:246,1,50,10|0,0:2|1:2,0:2:0:0:
231,220,70855,2,0,L|239:171,1,50,10|2,0:2|1:2,0:0:0:0:
250,121,71180,1,10,0:2:0:0:
327,57,71505,2,0,L|376:65,1,50,10|2,0:2|1:2,0:0:0:0:
425,73,71830,6,0,P|448:116|440:165,1,99.9999999999999,8|10,0:0|0:2,0:0:0:0:
426,215,72318,1,2,1:2:0:0:
426,215,72481,1,8,0:2:0:0:
334,255,72806,2,0,L|343:305,1,50,8|2,0:2|1:2,0:0:0:0:
354,352,73131,2,0,P|397:375|446:367,1,99.9999999999999,12|2,0:2|1:2,0:0:0:0:
497,355,73622,1,14,0:2:0:0:
497,355,73786,1,2,1:2:0:0:
467,255,74114,2,0,L|475:206,1,50,8|8,0:2|0:2,0:0:0:0:
439,174,74426,6,0,L|422:76,1,99.9999999999999,6|10,1:2|0:2,0:0:0:0:
415,28,74917,1,2,1:2:0:0:
323,68,75245,2,0,L|273:59,1,50,2|8,1:2|0:2,0:0:0:0:
254,12,75573,2,0,L|156:29,1,99.9999999999999,2|0,3:2|0:0,0:0:0:0:
106,40,76068,1,8,0:2:0:0:
43,118,76399,2,0,L|52:168,1,50,2|2,1:2|1:2,0:0:0:0:
68,220,76731,1,10,0:2:0:0:
68,220,76897,6,0,P|111:243|160:235,1,99.9999999999999,2|2,0:2|1:2,0:2:0:0:
210,221,77388,1,10,0:2:0:0:
210,221,77551,1,2,1:2:0:0:
274,144,77877,2,0,L|324:153,1,50,2|8,1:2|0:2,0:2:0:0:
372,161,78203,2,0,P|395:204|387:253,1,99.9999999999999,2|0,3:2|0:0,0:0:0:0:
372,300,78689,1,8,0:2:0:0:
274,322,79012,2,0,L|224:331,1,50,2|0,1:2|1:2,0:0:0:0:
203,376,79336,2,0,L|153:367,1,50,10|0,0:2|1:2,0:0:0:0:
106,354,79659,6,0,L|89:256,1,99.9999999999999,6|10,1:2|0:2,0:0:0:0:
12,190,80317,2,0,L|21:140,1,50,2|2,1:2|1:2,0:0:0:0:
34,92,80646,2,0,L|132:75,1,99.9999999999999,8|0,0:2|1:2,0:2:0:0:
210,12,81300,1,10,0:2:0:0:
291,69,81625,2,0,L|282:119,1,50,2|2,1:2|1:2,0:0:0:0:
239,144,81950,2,0,L|248:194,1,50,10|0,0:2|3:2,0:2:0:0:
259,241,82275,6,0,P|302:264|351:256,1,99.9999999999999,2|10,1:2|0:2,0:0:0:0:
444,219,82926,2,0,L|453:169,1,50,2|0,1:2|0:2,0:0:0:0:
498,145,83251,2,0,L|489:95,1,50,10|0,0:2|1:2,0:0:0:0:
479,47,83566,2,0,P|436:24|387:32,1,99.9999999999999,10|0,0:2|1:2,0:0:0:0:
346,60,84048,1,12,0:2:0:0:
282,138,84370,1,0,1:2:0:0:
282,138,84531,2,0,L|274:187,1,50,8|8,0:2|0:2,0:2:0:0:
266,235,84852,6,0,L|168:252,1,99.9999999999999,6|10,1:2|0:2,0:0:0:0:
118,258,85344,1,2,1:2:0:0:
42,194,85668,2,0,L|50:145,1,50,2|8,1:2|0:2,0:0:0:0:
63,96,85998,2,0,L|161:79,1,99.9999999999999,2|0,3:2|0:0,0:0:0:0:
211,73,86492,1,8,0:2:0:0:
284,4,86822,2,0,L|334:13,1,50,2|2,1:2|1:2,0:0:0:0:
386,26,87152,1,10,0:2:0:0:
386,26,87316,6,0,P|409:69|401:118,1,99.9999999999999,0|0,3:0|0:0,0:0:0:0:
388,168,87808,1,10,0:2:0:0:
388,168,87972,1,2,1:2:0:0:
470,225,88300,2,0,L|461:275,1,50,2|8,1:2|0:2,0:2:0:0:
449,323,88628,2,0,P|405:346|357:338,1,99.9999999999999,2|0,3:2|0:0,0:0:0:0:
312,315,89120,1,8,0:2:0:0:
278,219,89448,2,0,L|228:210,1,50,2|0,1:2|1:2,0:0:0:0:
203,166,89770,2,0,L|153:175,1,50,10|0,0:2|1:2,0:0:0:0:
105,185,90093,6,0,L|88:283,1,99.9999999999999,6|10,1:2|0:2,0:0:0:0:
150,361,90747,2,0,L|200:352,1,50,2|2,1:2|1:2,0:0:0:0:
223,308,91075,2,0,L|321:325,1,99.9999999999999,8|0,0:2|1:2,0:2:0:0:
404,381,91730,1,10,0:2:0:0:
455,295,92057,2,0,L|464:245,1,50,2|2,1:2|1:2,0:0:0:0:
508,223,92384,2,0,L|499:173,1,50,10|0,0:2|0:2,0:2:0:0:
491,123,92712,6,0,P|448:100|399:108,1,99.9999999999999,2|10,1:2|0:2,0:0:0:0:
304,140,93361,2,0,L|295:190,1,50,2|2,1:2|0:2,0:0:0:0:
252,212,93686,2,0,L|261:262,1,50,10|2,0:2|1:2,0:0:0:0:
270,311,94019,1,14,0:2:0:0:
188,369,94343,1,10,0:2:0:0:
88,359,94667,1,10,0:2:0:0:
28,278,94991,1,10,0:2:0:0:
30,178,95316,6,0,B|126:57|362:115|232:303|435:264,1,479.999985351562,6|0,1:2|0:0,0:2:0:0:
