osu file format v14

[General]
AudioFilename: audio.mp3
AudioLeadIn: 0
PreviewTime: 31989
Countdown: 0
SampleSet: Soft
StackLeniency: 0.7
Mode: 0
LetterboxInBreaks: 0
WidescreenStoryboard: 1

[Editor]
Bookmarks: 61884
DistanceSpacing: 1.7
BeatDivisor: 4
GridSize: 32
TimelineZoom: 2.7

[Metadata]
Title:Eu Li Na Biblia (Sped Up & Cut Ver.)
TitleUnicode:Eu Li Na Biblia (Sped Up & Cut Ver.)
Artist:Aline Barros
ArtistUnicode:Aline Barros
Creator:Sotarks
Version:Insano do Kujinn
Source:
Tags:kirishima- pepekcz kujinn reform pop & Cia Biblico Bristo Freira Amém Portuguese gospel evangélico evangelico jesus god deus 3 three
BeatmapID:3639155
BeatmapSetID:1769206

[Difficulty]
HPDrainRate:5.5
CircleSize:3.6
OverallDifficulty:8.5
ApproachRate:9
SliderMultiplier:1.72
SliderTickRate:1

[Events]
//Background and Video events
0,0,"bg.jpg",0,0
//Break Periods
//Storyboard Layer 0 (Background)
//Storyboard Layer 1 (Fail)
//Storyboard Layer 2 (Pass)
//Storyboard Layer 3 (Foreground)
//Storyboard Layer 4 (Overlay)
//Storyboard Sound Samples

[TimingPoints]
98,324.324324324324,4,2,22,72,1,0
1395,329.67032967033,4,2,22,72,1,0
1395,-98.0392156862745,4,2,22,72,0,0
4032,325.20325203252,4,2,22,72,1,0
4032,-98.0392156862745,4,2,22,72,0,0
9235,326.086956521739,4,2,22,72,1,0
9235,-98.0392156862745,4,2,22,72,0,0
10376,-192.307692307692,4,2,22,72,0,0
10457,-192.307692307692,4,2,22,52,0,0
11843,328.767123287671,4,2,22,52,1,0
11843,-121.951219512195,4,2,22,52,0,0
14473,324.763193504736,4,2,22,52,1,0
14473,-121.951219512195,4,2,22,52,0,0
17071,327.868852459016,4,2,22,52,1,0
17071,-121.951219512195,4,2,22,52,0,0
19693,325.20325203252,4,2,22,52,1,0
19693,-121.951219512195,4,2,22,52,0,0
22294,326.086956521739,4,2,22,62,1,0
22294,-98.0392156862744,4,2,22,62,0,0
25880,319.148936170213,4,2,22,62,1,0
25880,-98.0392156862744,4,2,22,62,0,0
26837,327.868852459016,4,2,22,62,1,0
26837,-98.0392156862744,4,2,22,62,0,0
27492,327.868852459016,4,2,22,62,1,0
27492,-98.0392156862744,4,2,22,62,0,0
28803,329.67032967033,4,2,22,62,1,0
28803,-98.0392156862744,4,2,22,62,0,0
30121,322.58064516129,4,2,22,62,1,0
30121,-98.0392156862745,4,2,22,62,0,0
31411,330.578512396694,4,2,22,62,1,0
32072,324.324324324324,4,2,22,62,1,0
32720,326.086956521739,4,2,22,72,1,0
32720,-89.2857142857143,4,2,22,72,0,0
41198,318.725099601594,4,2,22,72,1,0
41198,-89.2857142857143,4,2,22,72,0,0
41835,326.086956521739,4,2,22,72,1,0
41835,-89.2857142857143,4,2,22,72,0,0
44443,328.767123287671,4,2,22,72,1,0
44443,-89.2857142857143,4,2,22,72,0,0
47073,326.086956521739,4,2,22,72,1,0
47073,-89.2857142857143,4,2,22,72,0,0
51312,322.58064516129,4,2,22,72,1,0
51312,-89.2857142857143,4,2,22,72,0,0
52279,325.20325203252,4,2,22,72,1,0
52279,-89.2857142857143,4,2,22,72,0,0
56181,328.767123287671,4,2,22,72,1,0
56838,-89.2857142857143,4,2,22,72,0,0
57496,321.71581769437,4,2,22,72,1,0
57496,-89.2857142857143,4,2,22,72,0,0
58782,326.086956521739,4,2,22,72,1,0
58782,-89.2857142857143,4,2,22,72,0,0
61390,329.67032967033,4,2,22,72,1,0
61390,-89.2857142857143,4,2,22,72,0,0
62708,324.324324324324,4,2,22,72,1,0
62708,-89.2857142857143,4,2,22,72,0,0
64005,326.530612244898,4,2,22,72,1,0
64005,-89.2857142857143,4,2,22,72,0,0
69229,325.20325203252,4,2,22,72,1,0
69229,-89.2857142857143,4,2,22,72,0,0
73131,327.868852459016,4,2,22,72,1,0
73131,-89.2857142857143,4,2,22,72,0,0
74114,312.5,4,2,22,72,1,0
74114,-89.2857142857143,4,2,22,72,0,0
74426,327.868852459016,4,2,22,72,1,0
74426,-89.2857142857143,4,2,22,72,0,0
75737,331.491712707182,4,2,22,72,1,0
75737,-89.2857142857143,4,2,22,72,0,0
77062,326.086956521739,4,2,22,72,1,0
77062,-89.2857142857143,4,2,22,72,0,0
78366,323.450134770889,4,2,22,72,1,0
78366,-89.2857142857143,4,2,22,72,0,0
79659,329.218106995885,4,2,22,72,1,0
79659,-89.2857142857143,4,2,22,72,0,0
80975,325.20325203252,4,2,22,72,1,0
80975,-89.2857142857143,4,2,22,72,0,0
83251,315.789473684211,4,2,22,72,1,0
83251,-89.2857142857143,4,2,22,72,0,0
83566,321.71581769437,4,2,22,72,1,0
83566,-89.2857142857143,4,2,22,72,0,0
84852,333.333333333333,4,2,22,72,1,0
84852,-89.2857142857143,4,2,22,72,0,0
85185,319.148936170213,4,2,22,72,1,0
85185,-89.2857142857143,4,2,22,72,0,0
85504,329.67032967033,4,2,22,72,1,0
85504,-89.2857142857143,4,2,22,72,0,0
86163,329.67032967033,4,2,22,72,1,0
86163,-89.2857142857143,4,2,22,72,0,0
87481,327.868852459016,4,2,22,72,1,0
87481,-89.2857142857143,4,2,22,72,0,0
89448,322.58064516129,4,2,22,72,1,0
89448,-89.2857142857143,4,2,22,72,0,0
90093,327.421555252387,4,2,22,72,1,0
90093,-89.2857142857143,4,2,22,72,0,0
92712,324.763193504736,4,2,22,72,1,0
92712,-89.2857142857143,4,2,22,72,0,0
93686,333.333333333333,4,2,22,72,1,0
93686,-89.2857142857143,4,2,22,72,0,0
94019,324.324324324324,4,2,22,82,1,0
94019,-89.2857142857143,4,2,22,82,0,0
95316,326.086956521739,4,2,22,72,1,0
95316,-588.235294117647,4,2,22,72,0,0
95397,-588.235294117647,4,2,22,42,0,0
97924,-588.235294117647,4,2,22,12,0,0

[Colours]
Combo1 : 185,225,230
Combo2 : 208,231,192
Combo3 : 240,200,219
Combo4 : 238,209,155

[HitObjects]
496,333,1395,6,0,B|398:291|431:392|315:329,1,175.440001070801,6|8,1:2|0:2,0:2:0:0:
219,263,1889,2,0,P|245:331|254:369,1,87.7200005354004,2|0,1:2|0:2,0:2:0:0:
317,231,2219,1,0,1:2:0:0:
130,213,2384,6,0,P|190:233|256:138,1,175.440001070801,10|0,0:2|1:2,0:2:0:0:
187,41,2878,1,0,1:2:0:0:
187,41,3043,2,0,P|173:99|162:150,1,87.7200005354004,10|0,0:2|0:2,0:2:0:0:
50,218,3373,2,0,P|40:175|29:132,1,87.7200005354004,2|0,1:2|1:2,0:0:0:0:
121,307,3702,2,0,P|77:322|32:348,1,87.7200005354004,10|0,0:2|0:0,0:2:0:0:
167,213,4032,6,0,P|213:208|267:320,1,175.440001070801,2|8,1:2|0:2,0:2:0:0:
408,203,4519,2,0,P|393:250|376:305,1,87.7200005354004,2|0,3:2|1:2,0:0:0:0:
304,167,4845,1,0,1:2:0:0:
459,67,5007,6,0,P|472:120|502:249,1,175.440001070801,10|0,0:2|1:2,0:2:0:0:
341,73,5495,1,0,1:2:0:0:
341,73,5658,2,0,P|326:120|309:175,1,87.7200005354004,8|0,0:2|0:2,0:2:0:0:
204,278,5983,2,0,P|190:236|177:194,1,87.7200005354004,2|0,1:2|1:2,0:0:0:0:
150,363,6308,1,10,0:2:0:0:
288,282,6471,1,0,3:2:0:0:
210,116,6633,6,0,P|153:115|95:228,1,175.440001070801,2|8,1:2|0:2,0:2:0:0:
222,325,7121,2,0,P|174:310|112:292,1,87.7200005354004,2|0,1:2|0:2,0:2:0:0:
258,222,7446,1,0,1:2:0:0:
361,320,7609,6,0,P|299:338|167:394,1,175.440001070801,10|0,0:2|1:2,0:2:0:0:
325,155,8097,1,0,1:2:0:0:
325,155,8259,2,0,P|339:207|352:268,1,87.7200005354004,10|0,0:2|0:2,0:2:0:0:
454,48,8584,2,0,P|440:100|427:161,1,87.7200005354004,2|0,1:2|1:2,0:0:0:0:
337,57,8910,1,10,0:2:0:0:
437,216,9072,1,0,1:2:0:0:
250,32,9235,6,0,P|170:30|154:130,1,175.440001070801,14|0,0:2|1:2,0:0:0:0:
280,265,9724,2,0,P|295:201|310:143,1,87.7200005354004,14|0,0:2|1:2,0:0:0:0:
162,369,10050,1,0,1:2:0:0:
89,222,10213,5,10,0:2:0:0:
89,222,10376,2,0,B|168:175|225:262|220:270|214:279|270:354|365:291,1,313.039998089355,6|0,1:2|0:0,0:2:0:0:
479,132,11843,6,0,P|487:97|498:53,1,70.5200010760498,6|0,1:2|0:2,0:2:0:0:
435,0,12171,2,0,P|391:-10|333:64,1,141.0400021521,2|0,1:2|1:2,0:2:0:0:
350,136,12664,1,0,0:2:0:0:
350,136,12829,2,0,P|315:127|281:119,1,70.5200010760498,2|0,1:2|0:2,0:2:0:0:
179,62,13158,6,0,P|186:96|195:130,1,70.5200010760498,2|2,1:2|0:2,0:0:0:0:
251,193,13486,2,0,P|243:227|234:261,1,70.5200010760498,2|0,1:2|0:2,0:2:0:0:
181,340,13815,2,0,P|205:305|307:325,1,141.0400021521,2|0,1:2|1:2,0:2:0:0:
369,361,14308,1,2,0:2:0:0:
369,361,14473,6,0,P|408:352|455:341,1,70.5200010760498,2|0,1:2|0:2,0:2:0:0:
512,322,14797,2,0,P|473:313|351:284,1,141.0400021521,2|0,1:2|1:2,0:2:0:0:
323,226,15284,1,0,0:2:0:0:
323,226,15447,2,0,P|333:180|342:140,1,70.5200010760498,2|2,1:2|0:2,0:0:0:0:
293,90,15772,2,0,P|260:55|162:85,2,141.0400021521,2|2|0,1:2|1:2|1:0,0:2:0:0:
293,90,16746,1,0,1:0:0:0:
158,182,17071,6,0,P|119:194|80:206,1,70.5200010760498,2|0,1:2|0:2,0:2:0:0:
0,265,17398,2,0,P|39:277|78:289,1,70.5200010760498,2|0,1:2|0:2,0:2:0:0:
118,340,17726,2,0,P|104:272|84:171,1,141.0400021521,2|0,1:2|1:2,0:2:0:0:
43,34,18218,6,0,P|29:102|9:203,1,141.0400021521,2|2,0:2|0:2,0:2:0:0:
90,202,18710,2,0,P|119:194|165:181,1,70.5200010760498,2|0,1:2|0:2,0:2:0:0:
229,116,19038,2,0,P|271:128|392:162,1,141.0400021521,2|0,1:2|1:2,0:2:0:0:
364,154,19530,1,2,0:2:0:0:
497,105,19693,6,0,P|507:64|517:20,1,70.5200010760498,2|0,1:2|0:2,0:2:0:0:
443,216,20018,2,0,P|433:175|406:63,1,141.0400021521,2|0,1:2|1:2,0:2:0:0:
369,310,20668,5,2,1:2:0:0:
369,310,20831,2,0,P|332:321|282:338,1,70.5200010760498,2|0,0:2|1:0,0:2:0:0:
220,209,21156,1,0,0:2:0:0:
220,209,21319,2,0,P|257:220|307:237,1,70.5200010760498,2|0,1:2|0:2,0:2:0:0:
174,323,21644,1,2,1:2:0:0:
174,323,21806,1,0,1:2:0:0:
51,222,21969,2,0,P|64:268|75:313,1,70.5200010760498,12|0,0:2|0:0,0:2:0:0:
167,23,22294,6,0,P|154:69|140:128,1,87.7200005354004,6|0,1:2|0:2,0:2:0:0:
81,14,22620,1,10,0:2:0:0:
233,87,22783,1,0,1:2:0:0:
90,198,22946,2,0,P|134:186|183:174,1,87.7200005354004,2|0,0:2|1:2,0:0:0:0:
353,227,23272,6,0,P|289:212|225:312,1,175.440001070801,10|0,0:2|0:2,0:2:0:0:
285,371,23761,1,2,1:2:0:0:
285,371,23924,2,0,P|298:319|313:261,1,87.7200005354004,8|2,0:2|0:2,0:2:0:0:
210,94,24250,1,0,1:2:0:0:
339,160,24413,1,0,1:2:0:0:
180,271,24576,2,0,P|167:219|152:161,1,87.7200005354004,8|2,0:2|3:2,0:2:0:0:
245,9,24902,6,0,P|225:62|108:61,1,175.440001070801,2|10,1:2|0:2,0:2:0:0:
7,9,25391,2,0,P|19:61|30:110,1,87.7200005354004,2|0,1:2|1:2,0:0:0:0:
0,221,25717,1,2,1:2:0:0:
169,116,25880,2,0,P|157:168|146:217,1,87.7200005354004,10|0,0:2|0:2,0:0:0:0:
205,363,26199,1,2,1:2:0:0:
83,296,26358,1,2,1:2:0:0:
240,263,26518,6,0,B|336:228|310:326|421:275,1,175.440001070801,10|0,0:2|1:2,0:2:0:0:
388,122,27000,1,2,1:2:0:0:
388,122,27164,2,0,P|377:172|366:222,1,87.7200005354004,10|2,0:2|0:2,0:0:0:0:
290,363,27492,6,0,P|273:285|250:186,1,175.440001070801,0|10,1:2|0:2,0:0:0:0:
79,115,27983,1,0,0:0:0:0:
79,115,28147,2,0,P|130:129|179:145,1,87.7200005354004,0|0,1:2|1:2,0:0:0:0:
276,0,28475,2,0,P|225:14|176:30,1,87.7200005354004,10|0,0:2|0:2,0:0:0:0:
284,212,28803,6,0,P|298:161|314:112,1,87.7200005354004,2|2,1:2|1:2,0:0:0:0:
215,381,29132,2,0,P|255:363|297:350,1,87.7200005354004,8|0,0:2|0:0,0:2:0:0:
365,231,29462,1,0,1:2:0:0:
182,170,29627,1,2,1:2:0:0:
182,170,29792,2,0,P|195:211|206:254,1,87.7200005354004,10|0,0:2|0:2,0:2:0:0:
279,55,30121,6,0,P|237:43|172:23,1,87.7200005354004,10|0,0:2|1:2,0:0:0:0:
372,219,30443,2,0,P|413:206|456:194,1,87.7200005354004,10|0,0:2|1:2,0:0:0:0:
231,299,30766,6,0,P|218:242|204:189,1,87.7200005354004,10|0,0:2|1:2,0:0:0:0:
388,41,31088,2,0,P|377:83|367:126,1,87.7200005354004,10|0,0:2|1:2,0:0:0:0:
462,320,31411,1,2,1:2:0:0:
300,219,31576,1,0,1:2:0:0:
474,155,31741,1,4,1:3:0:0:
358,354,31906,1,8,1:3:0:0:
193,134,32072,5,8,1:3:0:0:
193,134,32720,6,0,P|206:189|219:251,1,96.3200011757813,6|2,1:2|0:2,0:0:0:0:
341,127,33046,1,10,0:2:0:0:
303,309,33209,2,0,P|270:267|132:280,1,192.640002351563,2|2,1:2|1:2,0:2:0:0:
106,381,33698,2,0,P|156:363|214:345,1,96.3200011757813,8|2,0:2|3:2,0:0:0:0:
23,128,34024,6,0,P|68:142|114:159,1,96.3200011757813,0|0,1:2|0:0,0:2:0:0:
222,16,34350,2,0,P|168:20|134:63,1,96.3200011757813,8|2,0:2|0:2,0:0:0:0:
258,162,34676,1,2,1:2:0:0:
342,45,34839,1,2,1:2:0:0:
428,173,35002,2,0,P|415:229|402:296,1,96.3200011757813,10|2,0:2|0:2,0:0:0:0:
224,374,35328,6,0,P|214:326|203:279,1,96.3200011757813,0|2,1:0|1:2,0:0:0:0:
295,161,35654,1,10,0:2:0:0:
140,220,35817,2,0,B|190:193|261:240|193:247|270:299|319:262,1,192.640002351563,2|2,1:2|1:2,0:2:0:0:
470,368,36306,2,0,P|420:361|387:311,1,96.3200011757813,8|2,0:2|3:2,0:0:0:0:
403,151,36633,6,0,P|392:208|381:268,1,96.3200011757813,0|0,1:2|0:0,0:2:0:0:
219,37,36959,2,0,P|230:94|241:154,1,96.3200011757813,8|0,0:2|0:0,0:0:0:0:
164,286,37285,1,2,1:2:0:0:
303,196,37448,1,0,1:2:0:0:
156,131,37611,1,10,0:2:0:0:
156,131,37774,1,0,1:2:0:0:
256,310,37937,6,0,P|307:295|362:280,1,96.3200011757813,6|0,1:2|1:2,0:0:0:0:
480,177,38263,2,0,P|429:162|374:147,1,96.3200011757813,10|0,0:2|1:2,0:0:0:0:
217,217,38589,1,2,1:2:0:0:
288,99,38752,1,2,1:2:0:0:
378,231,38915,2,0,P|365:290|351:348,1,96.3200011757813,8|0,0:2|3:2,0:2:0:0:
49,265,39241,6,0,B|95:294|166:247|98:240|175:188|226:222,1,192.640002351563,0|10,1:2|0:2,0:2:0:0:
56,168,39730,1,0,0:2:0:0:
171,383,39893,2,0,P|181:335|192:289,1,96.3200011757813,2|2,1:2|1:2,0:0:0:0:
62,80,40220,2,0,P|73:126|83:173,1,96.3200011757813,10|0,0:2|0:2,0:2:0:0:
247,52,40546,6,0,P|219:30|151:39,1,96.3200011757813,2|2,1:2|1:2,0:0:0:0:
272,185,40872,2,0,P|327:171|388:155,1,96.3200011757813,10|0,0:2|0:0,0:2:0:0:
160,145,41198,1,2,1:2:0:0:
272,278,41357,1,0,0:2:0:0:
340,75,41516,2,0,P|285:61|224:45,1,96.3200011757813,10|0,0:2|1:2,0:0:0:0:
37,200,41835,5,14,0:2:0:0:
180,108,41998,1,0,1:2:0:0:
32,51,42161,1,0,1:2:0:0:
121,218,42324,2,0,P|109:155|98:101,1,96.3200011757813,12|2,0:2|1:2,0:0:0:0:
181,23,42650,1,2,1:2:0:0:
285,148,42813,1,10,0:2:0:0:
413,50,42976,5,10,0:2:0:0:
413,50,43057,1,8,0:2:0:0:
413,50,43139,2,0,P|365:38|316:24,1,96.3200011757813,6|2,1:2|0:2,0:0:0:0:
206,116,43465,1,10,0:2:0:0:
337,261,43628,2,0,B|378:162|378:162|354:109|297:131,1,192.640002351563,2|2,1:2|1:2,0:2:0:0:
139,232,44117,2,0,P|152:289|166:357,1,96.3200011757813,8|2,0:2|3:2,0:0:0:0:
205,118,44443,6,0,P|215:70|225:23,1,96.3200011757813,0|0,1:2|0:0,0:2:0:0:
2,132,44771,2,0,P|49:114|101:146,1,96.3200011757813,8|2,0:2|0:2,0:0:0:0:
247,238,45100,1,2,1:2:0:0:
102,330,45264,1,2,1:2:0:0:
153,188,45429,2,0,P|163:234|173:282,1,96.3200011757813,10|2,0:2|0:2,0:0:0:0:
352,384,45758,6,0,P|362:336|372:289,1,96.3200011757813,0|2,1:0|1:2,0:0:0:0:
307,143,46086,1,10,0:2:0:0:
457,281,46251,2,0,P|416:224|291:256,1,192.640002351563,2|2,1:2|1:2,0:2:0:0:
214,320,46744,2,0,P|156:300|104:285,1,96.3200011757813,8|2,0:2|3:2,0:0:0:0:
14,144,47073,6,0,P|29:201|40:246,1,96.3200011757813,0|0,1:2|0:0,0:2:0:0:
196,33,47399,2,0,P|181:90|170:135,1,96.3200011757813,8|0,0:2|0:0,0:0:0:0:
110,5,47725,1,2,1:2:0:0:
272,83,47888,1,0,1:2:0:0:
106,168,48051,2,0,P|147:203|210:192,1,96.3200011757813,10|0,0:2|1:2,0:0:0:0:
420,144,48377,6,0,P|405:201|394:246,1,96.3200011757813,6|0,1:2|1:2,0:0:0:0:
291,344,48703,2,0,P|279:297|267:250,1,96.3200011757813,10|0,0:2|1:2,0:0:0:0:
352,96,49029,1,2,1:2:0:0:
412,268,49192,1,2,1:2:0:0:
269,168,49355,1,8,0:2:0:0:
269,168,49518,1,0,3:2:0:0:
180,308,49681,6,0,B|134:279|63:326|131:333|54:385|5:348,1,192.640002351563,0|10,1:2|0:2,0:2:0:0:
73,220,50170,1,0,0:2:0:0:
193,384,50333,2,0,P|240:367|255:296,1,96.3200011757813,2|2,1:2|1:2,0:0:0:0:
213,163,50659,2,0,P|208:215|266:259,1,96.3200011757813,10|0,0:2|0:2,0:2:0:0:
452,291,50986,5,2,1:2:0:0:
292,190,51149,1,2,1:2:0:0:
341,373,51312,2,0,P|353:316|366:259,1,96.3200011757813,10|0,0:2|0:0,0:2:0:0:
489,120,51634,2,0,P|499:167|509:214,1,96.3200011757813,2|0,1:2|0:2,0:0:0:0:
338,91,51957,2,0,P|373:54|431:55,1,96.3200011757813,10|0,0:2|1:2,0:0:0:0:
410,299,52279,5,12,0:2:0:0:
245,192,52441,1,0,1:2:0:0:
415,136,52604,1,0,1:2:0:0:
307,307,52766,2,0,P|324:238|335:189,1,96.3200011757813,12|0,0:2|1:2,0:0:0:0:
237,89,53092,1,0,1:2:0:0:
130,279,53254,2,0,P|118:232|108:185,1,96.3200011757813,12|0,0:2|0:2,0:2:0:0:
31,41,53579,6,0,P|62:82|128:78,1,96.3200011757813,14|0,0:2|1:2,0:0:0:0:
271,0,53905,2,0,P|219:6|190:65,1,96.3200011757813,10|0,0:2|1:2,0:0:0:0:
259,201,54230,1,10,0:2:0:0:
361,48,54392,1,0,1:2:0:0:
407,247,54555,1,10,0:2:0:0:
267,98,54718,1,0,1:2:0:0:
149,223,54880,6,0,P|164:287|177:346,1,96.3200011757813,10|2,0:2|1:2,0:0:0:0:
75,154,55205,1,10,0:2:0:0:
256,219,55368,1,2,1:2:0:0:
84,376,55531,2,0,P|60:333|83:270,1,96.3200011757813,8|0,0:2|1:2,0:2:0:0:
172,143,55856,1,8,0:2:0:0:
325,280,56018,6,0,P|315:334|305:388,1,96.3200011757813,2|8,1:2|0:2,0:0:0:0:
404,134,56345,1,2,1:2:0:0:
245,196,56509,1,10,0:2:0:0:
414,294,56674,1,0,1:2:0:0:
299,128,56838,6,0,P|252:108|194:125,1,96.3200011757813,10|0,0:2|1:2,0:0:0:0:
84,246,57167,2,0,P|73:182|60:114,1,96.3200011757813,10|0,0:2|1:2,0:0:0:0:
234,332,57496,6,0,P|245:268|257:200,1,96.3200011757813,10|0,0:2|1:2,0:2:0:0:
155,72,57817,1,10,0:2:0:0:
307,162,57978,1,0,1:2:0:0:
100,233,58139,2,0,P|89:169|78:107,1,96.3200011757813,10|0,0:2|1:2,0:0:0:0:
212,16,58461,1,8,0:2:0:0:
318,175,58622,6,0,P|356:208|415:201,1,96.3200011757813,2|8,1:2|0:2,0:2:0:0:
512,107,58945,1,2,1:2:0:0:
364,40,59108,2,0,P|376:102|386:158,1,96.3200011757813,10|0,0:2|1:2,0:2:0:0:
488,288,59434,2,0,P|496:240|505:193,1,96.3200011757813,10|0,0:2|1:2,0:0:0:0:
352,270,59760,1,10,0:2:0:0:
448,96,59923,1,0,1:2:0:0:
293,158,60086,5,10,0:2:0:0:
504,193,60249,1,2,1:2:0:0:
327,66,60412,1,10,0:2:0:0:
392,264,60575,1,2,1:2:0:0:
512,64,60738,2,0,P|478:31|430:27,1,96.3200011757813,10|0,0:2|1:2,0:2:0:0:
293,158,61064,1,10,0:2:0:0:
130,25,61227,6,0,B|163:53|187:70|187:70|167:123|135:207,1,192.640002351563,2|0,1:2|1:2,0:2:0:0:
227,378,61719,1,10,0:2:0:0:
31,317,61884,2,0,B|78:340|148:299|80:292|157:240|208:274,1,192.640002351563,2|0,1:2|1:2,0:2:0:0:
336,369,62379,1,10,0:2:0:0:
353,186,62543,6,0,P|308:202|288:255,1,96.3200011757813,2|8,1:2|0:2,0:2:0:0:
453,334,62870,2,0,P|468:269|479:220,1,96.3200011757813,2|8,1:2|0:2,0:2:0:0:
402,87,63194,1,2,1:2:0:0:
287,243,63356,2,0,P|272:178|261:129,1,96.3200011757813,10|0,0:2|1:2,0:0:0:0:
186,265,63680,1,8,0:2:0:0:
342,330,63843,1,2,1:2:0:0:
87,336,64005,6,0,P|57:357|-13:342,1,96.3200011757813,12|0,0:2|1:2,0:0:0:0:
89,119,64331,2,0,P|101:179|112:234,1,96.3200011757813,10|0,0:2|1:2,0:0:0:0:
204,384,64658,1,10,0:2:0:0:
245,152,64821,1,0,1:2:0:0:
103,322,64984,1,10,0:2:0:0:
328,242,65147,1,0,1:2:0:0:
107,213,65311,6,0,P|149:249|197:238,1,96.3200011757813,10|0,0:2|1:2,0:2:0:0:
349,140,65637,1,10,0:2:0:0:
281,365,65800,2,0,P|267:304|254:246,1,96.3200011757813,2|8,1:2|0:2,0:2:0:0:
445,132,66127,2,0,P|434:178|423:225,1,96.3200011757813,0|8,1:2|0:2,0:0:0:0:
149,132,66453,6,0,P|186:95|245:102,1,96.3200011757813,2|8,1:2|0:2,0:2:0:0:
339,299,66780,1,2,1:2:0:0:
130,212,66943,1,10,0:2:0:0:
331,118,67107,1,0,1:2:0:0:
242,294,67270,6,0,P|232:226|223:171,1,96.3200011757813,10|0,0:2|1:2,0:0:0:0:
421,348,67596,2,0,P|431:280|440:225,1,96.3200011757813,10|2,0:2|1:2,0:0:0:0:
338,56,67923,5,10,0:2:0:0:
499,149,68086,1,0,1:2:0:0:
314,252,68249,2,0,P|296:202|325:138,1,96.3200011757813,10|0,0:2|1:2,0:2:0:0:
482,45,68576,2,0,P|447:85|377:92,1,96.3200011757813,10|0,0:2|1:2,0:0:0:0:
258,0,68902,1,8,0:2:0:0:
98,72,69066,6,0,P|110:127|123:183,1,96.3200011757813,2|8,1:2|0:2,0:2:0:0:
235,316,69391,1,2,1:2:0:0:
46,231,69554,1,10,0:2:0:0:
231,132,69716,1,0,1:2:0:0:
150,338,69879,1,10,0:2:0:0:
76,143,70042,1,0,1:2:0:0:
257,235,70204,1,10,0:2:0:0:
68,319,70367,1,0,1:2:0:0:
187,169,70529,6,0,P|228:140|292:150,1,96.3200011757813,10|0,0:2|1:2,0:2:0:0:
446,258,70855,1,10,0:2:0:0:
355,97,71018,1,2,1:2:0:0:
258,240,71180,2,0,P|269:293|281:358,1,96.3200011757813,10|0,0:2|1:2,0:2:0:0:
391,195,71505,1,10,0:2:0:0:
145,272,71668,6,0,P|92:259|37:246,1,96.3200011757813,2|8,1:2|0:0,0:2:0:0:
258,161,71993,1,2,1:2:0:0:
150,363,72155,1,10,0:2:0:0:
23,178,72318,2,0,B|65:152|140:196|72:203|149:255|200:221,1,192.640002351563,2|2,1:2|1:2,0:2:0:0:
184,44,72806,2,0,P|171:107|160:158,1,96.3200011757813,8|2,0:2|1:2,0:0:0:0:
382,314,73131,6,0,P|371:266|362:219,1,96.3200011757813,12|2,0:2|1:2,0:0:0:0:
205,292,73458,1,2,1:2:0:0:
295,158,73622,6,0,P|306:110|315:63,1,96.3200011757813,14|2,0:2|1:2,0:0:0:0:
478,291,73949,1,0,1:2:0:0:
377,223,74114,2,0,L|388:170,3,48.1600005878906,8|8|8|8,0:2|0:2|0:2|0:2,0:0:0:0:
398,148,74426,6,0,P|445:171|495:153,1,96.3200011757813,6|2,1:2|0:2,0:0:0:0:
385,1,74753,1,10,0:2:0:0:
234,113,74917,2,0,P|252:192|280:347,1,192.640002351563,2|2,1:2|1:2,0:2:0:0:
108,347,75409,2,0,P|137:306|200:308,1,96.3200011757813,8|2,0:2|3:2,0:0:0:0:
434,378,75737,6,0,P|383:373|354:317,1,96.3200011757813,0|0,1:2|0:0,0:2:0:0:
458,184,76068,2,0,P|445:244|433:301,1,96.3200011757813,8|2,0:2|0:2,0:0:0:0:
258,151,76399,1,2,1:2:0:0:
404,95,76565,1,2,1:2:0:0:
303,265,76731,2,0,P|249:250|194:236,1,96.3200011757813,10|2,0:2|0:2,0:0:0:0:
5,120,77062,6,0,P|59:105|114:91,1,96.3200011757813,0|2,1:0|1:2,0:0:0:0:
278,162,77388,1,10,0:2:0:0:
211,57,77551,2,0,P|139:62|111:173,1,192.640002351563,2|2,1:2|1:2,0:2:0:0:
190,334,78040,2,0,P|202:276|214:219,1,96.3200011757813,8|2,0:2|3:2,0:0:0:0:
11,123,78366,6,0,P|20:170|30:217,1,96.3200011757813,0|0,1:2|0:0,0:2:0:0:
204,40,78689,2,0,P|194:87|184:134,1,96.3200011757813,8|0,0:2|0:0,0:0:0:0:
285,317,79012,1,2,1:2:0:0:
119,219,79174,1,0,1:2:0:0:
282,137,79336,1,10,0:2:0:0:
282,137,79498,1,0,1:2:0:0:
139,295,79659,6,0,P|99:298|48:242,1,96.3200011757813,6|0,1:2|1:2,0:0:0:0:
191,90,79988,2,0,P|200:137|210:184,1,96.3200011757813,10|0,0:2|1:2,0:0:0:0:
67,332,80317,1,2,1:2:0:0:
123,184,80482,1,2,1:2:0:0:
236,290,80646,2,0,P|226:337|216:384,1,96.3200011757813,8|0,0:2|3:2,0:2:0:0:
486,248,80975,6,0,B|440:277|369:230|437:223|360:171|309:205,1,192.640002351563,0|10,1:2|0:2,0:2:0:0:
236,290,81462,1,0,0:2:0:0:
151,116,81625,2,0,P|201:120|235:175,1,96.3200011757813,2|2,1:2|1:2,0:0:0:0:
321,369,81950,6,0,P|334:308|344:258,1,96.3200011757813,10|0,0:2|3:2,0:2:0:0:
280,73,82275,1,2,1:2:0:0:
188,234,82438,1,2,1:2:0:0:
365,144,82601,2,0,P|418:157|489:174,1,96.3200011757813,10|0,0:2|0:0,0:2:0:0:
285,335,82926,5,2,1:2:0:0:
211,147,83088,1,0,0:2:0:0:
392,232,83251,2,0,P|339:245|260:265,1,96.3200011757813,10|0,0:2|1:2,0:0:0:0:
11,187,83566,5,10,0:2:0:0:
196,250,83726,1,0,1:2:0:0:
35,352,83887,1,0,1:2:0:0:
92,163,84048,2,0,P|106:224|116:267,1,96.3200011757813,12|0,0:2|1:2,0:0:0:0:
283,340,84370,1,0,1:2:0:0:
231,150,84531,1,8,0:2:0:0:
231,150,84692,1,8,0:2:0:0:
422,281,84852,6,0,P|394:249|316:252,1,96.3200011757813,6|0,1:2|0:0,0:0:0:0:
196,320,85185,1,10,0:2:0:0:
302,172,85344,2,0,P|315:242|326:303,1,96.3200011757813,2|0,1:2|0:2,0:2:0:0:
486,341,85668,1,2,1:2:0:0:
437,87,85833,2,0,P|420:151|404:210,1,96.3200011757813,8|2,0:2|3:2,0:0:0:0:
211,102,86163,6,0,P|239:70|317:73,1,96.3200011757813,0|0,1:2|0:0,0:2:0:0:
187,263,86492,2,0,P|138:247|75:227,1,96.3200011757813,8|2,0:2|0:2,0:0:0:0:
283,173,86822,1,2,1:2:0:0:
199,354,86987,1,2,1:2:0:0:
33,163,87152,2,0,P|82:147|145:127,1,96.3200011757813,10|0,0:2|3:0,0:0:0:0:
326,208,87481,6,0,P|312:274|299:332,1,96.3200011757813,0|0,1:0|0:0,0:0:0:0:
225,143,87808,1,10,0:2:0:0:
395,328,87972,2,0,P|375:251|339:115,1,192.640002351563,2|2,1:2|1:2,0:2:0:0:
471,0,88464,2,0,P|444:45|376:47,1,96.3200011757813,8|2,0:2|3:2,0:0:0:0:
203,5,88792,6,0,P|255:5|291:63,1,96.3200011757813,0|0,1:2|0:0,0:2:0:0:
278,229,89120,2,0,P|292:165|305:106,1,96.3200011757813,8|0,0:2|0:0,0:0:0:0:
123,320,89448,2,0,P|109:256|96:197,1,96.3200011757813,2|0,1:2|1:2,0:0:0:0:
272,351,89770,1,10,0:2:0:0:
179,164,89931,1,0,1:2:0:0:
363,284,90093,6,0,P|422:272|478:262,1,96.3200011757813,6|0,1:2|1:2,0:0:0:0:
351,85,90420,2,0,P|292:73|236:63,1,96.3200011757813,10|0,0:2|1:2,0:0:0:0:
165,252,90747,1,2,1:2:0:0:
304,153,90911,1,2,1:2:0:0:
139,52,91075,2,0,P|154:115|167:175,1,96.3200011757813,8|0,0:2|3:2,0:2:0:0:
388,260,91402,6,0,B|342:231|271:278|339:285|262:337|211:303,1,192.640002351563,0|10,1:2|0:2,0:2:0:0:
47,198,91893,1,0,0:2:0:0:
53,384,92057,2,0,P|104:378|131:334,1,96.3200011757813,2|2,1:2|1:2,0:0:0:0:
174,145,92384,2,0,P|159:213|146:268,1,96.3200011757813,10|0,0:2|0:2,0:2:0:0:
355,380,92712,6,0,P|340:312|327:257,1,96.3200011757813,2|2,1:2|1:2,0:0:0:0:
469,128,93036,2,0,P|452:172|383:191,1,96.3200011757813,10|0,0:2|0:0,0:2:0:0:
236,181,93361,1,2,1:2:0:0:
424,314,93523,1,2,0:2:0:0:
351,56,93686,2,0,P|340:102|328:156,1,96.3200011757813,10|2,0:2|1:2,0:0:0:0:
203,350,94019,5,14,0:2:0:0:
30,138,94181,1,0,1:2:0:0:
280,255,94343,1,10,0:2:0:0:
16,275,94505,1,0,1:2:0:0:
228,129,94667,5,10,0:2:0:0:
124,362,94829,1,0,1:2:0:0:
94,47,94991,2,0,P|107:116|118:177,1,96.3200011757813,10|0,0:2|1:2,0:0:0:0:
299,352,95316,6,0,B|366:387|435:303|353:312|422:232|483:262,1,233.920001427734,6|0,1:2|0:2,0:2:0:0:
