osu file format v14

[General]
AudioFilename: audio.mp3
AudioLeadIn: 0
PreviewTime: 31989
Countdown: 0
SampleSet: Soft
StackLeniency: 0.7
Mode: 0
LetterboxInBreaks: 0
WidescreenStoryboard: 0

[Editor]
DistanceSpacing: 1.7
BeatDivisor: 4
GridSize: 16
TimelineZoom: 4.699998

[Metadata]
Title:Eu Li Na Biblia (Sped Up & Cut Ver.)
TitleUnicode:Eu Li Na Biblia (Sped Up & Cut Ver.)
Artist:Aline Barros
ArtistUnicode:Aline Barros
Creator:Sotarks
Version:Amigo de Deus
Source:
Tags:kirishima- pepekcz kujinn reform pop & Cia Biblico Bristo Freira Amém Portuguese gospel evangélico evangelico jesus god deus 3 three
BeatmapID:3621661
BeatmapSetID:1769206

[Difficulty]
HPDrainRate:6
CircleSize:3.8
OverallDifficulty:9
ApproachRate:9.2
SliderMultiplier:1.82
SliderTickRate:1

[Events]
//Background and Video events
0,0,"bg.jpg",0,0
//Break Periods
//Storyboard Layer 0 (Background)
//Storyboard Layer 1 (Fail)
//Storyboard Layer 2 (Pass)
//Storyboard Layer 3 (Foreground)
//Storyboard Layer 4 (Overlay)
//Storyboard Sound Samples

[TimingPoints]
98,324.324324324324,4,2,22,72,1,0
1395,329.67032967033,4,2,22,72,1,0
1395,-98.0392156862745,4,2,22,72,0,0
4032,325.20325203252,4,2,22,72,1,0
4032,-98.0392156862745,4,2,22,72,0,0
9235,326.086956521739,4,2,22,72,1,0
10376,-192.307692307692,4,2,22,72,0,0
10457,-192.307692307692,4,2,22,52,0,0
11843,328.767123287671,4,2,22,52,1,0
11843,-121.951219512195,4,2,22,52,0,0
14473,324.763193504736,4,2,22,52,1,0
14473,-121.951219512195,4,2,22,52,0,0
17071,327.868852459016,4,2,22,52,1,0
17071,-121.951219512195,4,2,22,52,0,0
19693,325.20325203252,4,2,22,52,1,0
19693,-121.951219512195,4,2,22,52,0,0
22294,326.086956521739,4,2,22,62,1,0
22294,-98.0392156862744,4,2,22,62,0,0
25880,319.148936170213,4,2,22,62,1,0
25880,-98.0392156862744,4,2,22,62,0,0
26837,327.868852459016,4,2,22,62,1,0
26837,-98.0392156862744,4,2,22,62,0,0
27492,327.868852459016,4,2,22,62,1,0
27492,-98.0392156862744,4,2,22,62,0,0
28803,329.67032967033,4,2,22,62,1,0
28803,-98.0392156862744,4,2,22,62,0,0
30121,322.58064516129,4,2,22,62,1,0
31411,330.578512396694,4,2,22,62,1,0
32072,324.324324324324,4,2,22,62,1,0
32720,326.086956521739,4,2,22,72,1,0
32720,-89.2857142857143,4,2,22,72,0,0
41198,318.725099601594,4,2,22,72,1,0
41835,326.086956521739,4,2,22,72,1,0
41835,-89.2857142857143,4,2,22,72,0,0
44443,328.767123287671,4,2,22,72,1,0
44443,-89.2857142857143,4,2,22,72,0,0
47073,326.086956521739,4,2,22,72,1,0
47073,-89.2857142857143,4,2,22,72,0,0
51312,322.58064516129,4,2,22,72,1,0
51312,-89.2857142857143,4,2,22,72,0,0
52279,325.20325203252,4,2,22,72,1,0
52279,-89.2857142857143,4,2,22,72,0,0
56181,328.767123287671,4,2,22,72,1,0
57496,321.71581769437,4,2,22,72,1,0
57496,-89.2857142857143,4,2,22,72,0,0
58782,326.086956521739,4,2,22,72,1,0
58782,-89.2857142857143,4,2,22,72,0,0
61390,329.67032967033,4,2,22,72,1,0
61390,-89.2857142857143,4,2,22,72,0,0
62708,324.324324324324,4,2,22,72,1,0
62708,-89.2857142857143,4,2,22,72,0,0
64005,326.530612244898,4,2,22,72,1,0
64005,-89.2857142857143,4,2,22,72,0,0
69229,325.20325203252,4,2,22,72,1,0
69229,-89.2857142857143,4,2,22,72,0,0
73131,327.868852459016,4,2,22,72,1,0
74114,312.5,4,2,22,72,1,0
74426,327.868852459016,4,2,22,72,1,0
74426,-89.2857142857143,4,2,22,72,0,0
75737,331.491712707182,4,2,22,72,1,0
75737,-89.2857142857143,4,2,22,72,0,0
77062,326.086956521739,4,2,22,72,1,0
77062,-89.2857142857143,4,2,22,72,0,0
78366,323.450134770889,4,2,22,72,1,0
78366,-89.2857142857143,4,2,22,72,0,0
79659,329.218106995885,4,2,22,72,1,0
79659,-89.2857142857143,4,2,22,72,0,0
80975,325.20325203252,4,2,22,72,1,0
80975,-89.2857142857143,4,2,22,72,0,0
83251,315.789473684211,4,2,22,72,1,0
83566,321.71581769437,4,2,22,72,1,0
83566,-89.2857142857143,4,2,22,72,0,0
84852,333.333333333333,4,2,22,72,1,0
84852,-89.2857142857143,4,2,22,72,0,0
85185,319.148936170213,4,2,22,72,1,0
85185,-89.2857142857143,4,2,22,72,0,0
85504,329.67032967033,4,2,22,72,1,0
85504,-89.2857142857143,4,2,22,72,0,0
86163,329.67032967033,4,2,22,72,1,0
86163,-89.2857142857143,4,2,22,72,0,0
87481,327.868852459016,4,2,22,72,1,0
87481,-89.2857142857143,4,2,22,72,0,0
89448,322.58064516129,4,2,22,72,1,0
89448,-89.2857142857143,4,2,22,72,0,0
90093,327.421555252387,4,2,22,72,1,0
90093,-89.2857142857143,4,2,22,72,0,0
92712,324.763193504736,4,2,22,72,1,0
92712,-89.2857142857143,4,2,22,72,0,0
93686,333.333333333333,4,2,22,72,1,0
94019,324.324324324324,4,2,22,82,1,0
94019,-89.2857142857143,4,2,22,82,0,0
95316,326.086956521739,4,2,22,72,1,0
95316,-238.095238095238,4,2,22,72,0,0
95397,-238.095238095238,4,2,22,42,0,0
97924,-238.095238095238,4,2,22,12,0,0

[Colours]
Combo1 : 185,225,230
Combo2 : 208,231,192
Combo3 : 240,200,219
Combo4 : 238,209,155

[HitObjects]
83,307,1395,6,0,P|151:276|232:288,1,139.230000849792,6|0,1:2|0:2,0:2:0:0:
240,293,1724,1,8,0:2:0:0:
390,261,1889,2,0,P|374:311|363:356,1,92.8200005665283,2|0,1:2|0:2,0:2:0:0:
293,179,2219,1,0,1:2:0:0:
479,41,2384,6,0,P|435:96|330:75,1,185.640001133057,10|0,0:2|1:2,0:2:0:0:
172,18,2878,1,0,1:2:0:0:
72,153,3043,2,0,P|60:108|46:63,1,92.8200005665283,10|0,0:2|0:2,0:2:0:0:
235,203,3373,1,2,1:2:0:0:
79,352,3537,1,0,1:2:0:0:
235,203,3702,2,0,P|291:178|383:195,1,139.230000849792,10|0,0:2|0:2,0:2:0:0:
403,177,4032,6,0,B|371:168|339:161|339:161|310:123|310:123|272:115|239:107,1,185.640001133057,2|8,1:2|0:2,0:2:0:0:
398,39,4519,1,2,3:2:0:0:
398,39,4601,1,0,3:2:0:0:
398,39,4682,1,0,1:2:0:0:
235,203,4845,1,0,1:2:0:0:
424,145,5007,2,0,P|438:224|452:300,1,139.230000849792,10|0,0:2|0:2,0:2:0:0:
456,314,5332,5,0,1:2:0:0:
222,295,5495,1,0,1:2:0:0:
349,207,5658,2,0,P|334:262|323:309,1,92.8200005665283,8|0,0:2|0:2,0:2:0:0:
198,120,5983,1,2,1:2:0:0:
110,291,6145,1,0,1:2:0:0:
110,291,6227,1,0,1:2:0:0:
110,291,6308,2,0,P|165:276|211:262,1,92.8200005665283,10|0,0:2|0:2,0:2:0:0:
400,109,6633,6,0,P|346:68|251:88,1,139.230000849792,2|0,1:2|0:2,0:2:0:0:
246,88,6958,1,8,0:2:0:0:
60,125,7121,2,0,P|70:79|83:35,1,92.8200005665283,2|0,1:2|0:2,0:2:0:0:
190,217,7446,1,0,1:2:0:0:
53,365,7609,6,0,P|113:314|235:333,1,185.640001133057,10|0,0:2|1:2,0:2:0:0:
417,253,8097,1,0,1:2:0:0:
331,354,8259,2,0,P|320:308|307:264,1,92.8200005665283,10|0,0:2|0:2,0:2:0:0:
346,56,8584,1,2,1:2:0:0:
210,209,8747,1,0,1:2:0:0:
210,209,8828,1,0,1:2:0:0:
210,209,8910,1,10,0:2:0:0:
417,253,9072,1,0,1:2:0:0:
201,101,9235,5,14,0:2:0:0:
192,367,9398,1,0,1:2:0:0:
392,177,9561,1,0,1:2:0:0:
112,280,9724,1,14,0:2:0:0:
417,368,9887,1,0,1:2:0:0:
301,89,10050,1,0,1:2:0:0:
192,367,10213,1,10,0:2:0:0:
422,216,10376,6,0,B|324:156|241:261|280:284|210:370|94:320,1,378.559997689453,6|0,1:2|0:2,0:2:0:0:
0,213,11843,6,0,P|43:202|86:187,1,74.6200011386109,6|0,1:2|0:2,0:2:0:0:
203,82,12171,2,0,P|186:156|171:232,1,149.240002277222,2|0,1:2|1:2,0:2:0:0:
296,136,12664,1,0,0:2:0:0:
351,255,12829,2,0,P|308:244|265:229,1,74.6200011386109,2|0,1:2|0:2,0:2:0:0:
403,154,13158,5,2,1:2:0:0:
403,154,13322,1,2,0:2:0:0:
277,63,13486,2,0,P|288:105|297:150,1,74.6200011386109,2|0,1:2|0:2,0:2:0:0:
82,206,13815,2,0,P|122:160|219:178,1,149.240002277222,2|0,1:2|1:2,0:2:0:0:
120,318,14308,5,2,0:2:0:0:
120,318,14390,1,2,0:2:0:0:
120,318,14473,2,0,P|83:308|48:297,1,74.6200011386109,2|0,1:2|0:2,0:2:0:0:
228,239,14797,2,0,P|211:313|196:389,1,149.240002277222,2|0,1:2|1:2,0:2:0:0:
324,285,15284,1,0,0:2:0:0:
409,362,15447,1,2,1:2:0:0:
409,362,15609,1,2,0:2:0:0:
434,239,15772,6,0,P|426:202|415:166,1,74.6200011386109,2|0,1:2|0:2,0:2:0:0:
330,85,16096,2,0,P|319:120|311:157,1,74.6200011386109,2|0,1:2|0:2,0:2:0:0:
228,239,16421,2,0,P|179:268|85:226,1,149.240002277222,0|0,1:0|1:0,0:0:0:0:
6,130,16908,5,2,0:2:0:0:
6,130,16989,1,2,0:2:0:0:
6,130,17071,2,0,P|42:120|77:109,1,74.6200011386109,2|0,1:2|0:2,0:2:0:0:
189,152,17398,2,0,P|224:142|260:130,1,74.6200011386109,2|0,1:2|0:2,0:2:0:0:
405,38,17726,2,0,P|329:49|263:1,1,149.240002277222,2|0,1:2|1:2,0:2:0:0:
375,152,18218,6,0,B|360:231|368:233|355:308,1,149.240002277222,2|2,0:2|0:2,0:2:0:0:
359,327,18628,1,2,0:2:0:0:
359,327,18710,2,0,P|321:343|274:342,1,74.6200011386109,2|0,1:2|0:2,0:2:0:0:
134,264,19038,2,0,B|163:257|192:247|192:247|225:261|225:261|258:250|300:239,1,149.240002277222,2|0,1:2|1:2,0:2:0:0:
375,152,19530,5,2,0:2:0:0:
375,152,19611,1,2,0:2:0:0:
375,152,19693,2,0,P|340:142|304:130,1,74.6200011386109,2|0,1:2|0:2,0:2:0:0:
176,60,20018,2,0,P|192:132|207:205,1,149.240002277222,2|0,1:2|1:2,0:2:0:0:
64,156,20506,1,0,0:2:0:0:
179,330,20668,1,2,1:2:0:0:
37,269,20831,6,0,P|88:232|190:245,1,149.240002277222,2|0,0:2|0:2,0:2:0:0:
294,143,21319,2,0,P|256:133|211:119,1,74.6200011386109,2|0,1:2|0:2,0:2:0:0:
360,282,21644,1,2,1:2:0:0:
222,122,21806,1,0,1:2:0:0:
360,282,21969,2,0,B|313:296|313:296|298:315|298:315|253:329,1,111.930001707916,12|0,0:2|0:2,0:2:0:0:
231,337,22294,6,0,P|218:293|197:235,1,92.8200005665283,6|0,1:2|0:2,0:2:0:0:
258,54,22620,1,10,0:2:0:0:
128,187,22783,1,0,1:2:0:0:
347,259,22946,1,2,0:2:0:0:
272,153,23109,1,0,1:2:0:0:
272,153,23190,1,0,1:2:0:0:
272,153,23272,6,0,B|306:140|341:124|341:124|381:134|381:134|412:118|456:103,1,185.640001133057,10|0,0:2|0:2,0:2:0:0:
340,322,23761,1,2,1:2:0:0:
471,241,23924,2,0,P|425:227|380:216,1,92.8200005665283,8|2,0:2|0:2,0:2:0:0:
127,266,24250,1,0,1:2:0:0:
237,68,24413,1,0,1:2:0:0:
69,17,24576,2,0,P|79:63|92:108,1,92.8200005665283,8|2,0:2|3:2,0:2:0:0:
100,137,24821,1,0,3:2:0:0:
100,137,24902,6,0,P|154:154|237:114,1,139.230000849792,2|0,1:2|0:2,0:2:0:0:
255,103,25228,1,10,0:2:0:0:
161,313,25391,1,2,1:2:0:0:
364,187,25554,1,0,1:2:0:0:
300,330,25717,1,2,1:2:0:0:
300,330,25799,1,0,1:2:0:0:
300,330,25880,1,10,0:2:0:0:
165,187,26039,1,0,0:2:0:0:
334,74,26199,5,2,1:2:0:0:
272,230,26358,2,0,P|265:203|255:159,1,46.4100002832642,2|0,1:2|1:2,0:2:0:0:
165,97,26518,2,0,B|196:103|234:110|234:110|260:144|260:144|294:149|334:159,1,185.640001133057,10|0,0:2|1:2,0:2:0:0:
212,350,27000,1,2,1:2:0:0:
421,243,27164,1,10,0:2:0:0:
335,364,27328,6,0,P|323:321|303:264,1,92.8200005665283,2|0,0:2|1:2,0:2:0:0:
427,90,27655,1,2,3:2:0:0:
427,90,27737,1,0,3:2:0:0:
427,90,27819,2,0,P|373:138|266:91,1,185.640001133057,10|0,0:2|1:2,0:2:0:0:
110,206,28311,1,0,1:2:0:0:
273,104,28475,1,10,0:2:0:0:
130,21,28639,1,0,0:2:0:0:
214,242,28803,5,2,1:2:0:0:
69,105,28967,1,2,1:2:0:0:
225,162,29132,2,0,P|148:215|86:205,1,139.230000849792,8|0,0:2|0:2,0:2:0:0:
71,199,29462,1,0,1:2:0:0:
221,377,29627,1,2,1:2:0:0:
87,332,29792,2,0,P|133:312|187:295,1,92.8200005665283,10|0,0:2|0:2,0:2:0:0:
431,88,30121,5,10,0:2:0:0:
349,354,30282,1,0,1:2:0:0:
352,65,30443,5,10,0:2:0:0:
365,343,30604,1,0,1:2:0:0:
274,73,30766,5,10,0:2:0:0:
381,329,30927,1,0,1:2:0:0:
202,115,31088,5,10,0:2:0:0:
390,318,31250,1,0,1:2:0:0:
258,219,31411,5,2,1:2:0:0:
359,169,31576,1,0,1:2:0:0:
218,305,31741,1,4,1:3:0:0:
396,364,31906,1,8,1:3:0:0:
140,202,32072,1,8,1:3:0:0:
140,202,32720,5,6,1:2:0:0:
329,78,32883,1,2,0:2:0:0:
212,341,33046,1,10,0:2:0:0:
379,236,33209,2,0,P|324:217|265:194,1,101.920001244141,2|0,1:2|0:2,0:2:0:0:
141,62,33535,1,2,1:2:0:0:
281,200,33698,1,8,0:2:0:0:
65,314,33861,1,2,3:2:0:0:
65,314,33942,1,0,3:2:0:0:
65,314,34024,6,0,P|136:281|215:297,1,152.880001866211,0|0,1:2|0:2,0:2:0:0:
228,307,34350,1,8,0:2:0:0:
88,173,34513,1,2,0:2:0:0:
306,50,34676,1,2,1:2:0:0:
221,184,34839,1,2,1:2:0:0:
416,232,35002,1,10,0:2:0:0:
336,380,35165,6,0,B|318:307|333:311|312:221,1,152.880001866211,2|0,0:2|0:2,0:2:0:0:
307,196,35491,1,2,1:2:0:0:
202,384,35654,1,10,0:2:0:0:
439,310,35817,2,0,P|384:291|325:268,1,101.920001244141,2|0,1:2|1:2,0:2:0:0:
119,190,36143,2,0,P|174:171|233:148,1,101.920001244141,2|8,1:2|0:2,0:2:0:0:
440,22,36470,1,2,3:2:0:0:
440,22,36551,1,0,3:2:0:0:
440,22,36633,6,0,P|382:89|272:66,2,203.840002488281,0|8|2,1:2|0:2|1:2,0:2:0:0:
307,196,37448,1,0,1:2:0:0:
507,278,37611,1,10,0:2:0:0:
418,120,37774,2,0,P|413:151|409:177,1,50.9600006220703,0|0,1:2|1:2,0:2:0:0:
394,249,37937,5,6,1:2:0:0:
276,108,38100,1,0,1:2:0:0:
399,341,38263,1,10,0:2:0:0:
216,173,38426,1,0,1:2:0:0:
147,384,38589,1,2,1:2:0:0:
276,108,38752,1,2,1:2:0:0:
220,307,38915,2,0,P|268:290|315:272,1,101.920001244141,8|0,0:2|3:2,0:2:0:0:
341,259,39160,1,0,3:2:0:0:
341,259,39241,6,0,B|342:188|352:189|353:105,1,152.880001866211,0|0,1:2|0:2,0:2:0:0:
354,75,39567,1,10,0:2:0:0:
220,307,39730,1,0,0:2:0:0:
385,192,39893,1,2,1:2:0:0:
221,103,40056,1,2,1:2:0:0:
221,103,40138,1,0,1:2:0:0:
221,103,40220,2,0,P|230:153|238:203,1,101.920001244141,10|0,0:2|0:2,0:2:0:0:
96,198,40546,5,2,1:2:0:0:
354,75,40709,1,2,1:2:0:0:
96,198,40872,2,0,P|80:142|124:43,1,152.880001866211,10|0,0:2|0:2,0:2:0:0:
128,38,41198,1,2,1:2:0:0:
162,263,41357,1,0,0:2:0:0:
133,30,41516,1,10,0:2:0:0:
167,255,41676,1,0,1:2:0:0:
318,65,41835,5,14,0:2:0:0:
82,198,41998,1,0,1:2:0:0:
334,319,42161,1,0,1:2:0:0:
188,69,42324,1,12,0:2:0:0:
157,378,42487,1,2,1:2:0:0:
426,179,42650,1,2,1:2:0:0:
89,307,42813,1,10,0:2:0:0:
318,65,42976,1,10,0:2:0:0:
318,65,43057,1,8,0:2:0:0:
318,65,43139,5,6,1:2:0:0:
253,356,43302,1,2,0:2:0:0:
97,118,43465,1,10,0:2:0:0:
29,315,43628,2,0,P|84:296|143:273,1,101.920001244141,2|0,1:2|0:2,0:2:0:0:
217,43,43954,1,2,1:2:0:0:
124,280,44117,1,8,0:2:0:0:
328,161,44280,1,2,3:2:0:0:
328,161,44362,1,0,3:2:0:0:
328,161,44443,6,0,P|257:128|178:144,1,152.880001866211,0|0,1:2|0:2,0:2:0:0:
165,154,44771,1,8,0:2:0:0:
357,268,44936,1,2,1:2:0:0:
208,359,45100,1,2,1:2:0:0:
430,178,45264,1,2,1:2:0:0:
276,54,45429,1,10,0:2:0:0:
357,268,45593,6,0,P|283:216|220:236,1,152.880001866211,2|0,1:2|0:2,0:2:0:0:
198,252,45922,1,2,1:2:0:0:
343,136,46086,1,10,0:2:0:0:
208,359,46251,2,0,P|261:346|316:334,1,101.920001244141,2|0,1:2|1:2,0:2:0:0:
99,196,46579,2,0,P|46:183|-9:171,1,101.920001244141,2|8,1:2|0:2,0:2:0:0:
241,43,46908,1,2,3:2:0:0:
241,43,46990,1,0,3:2:0:0:
241,43,47073,6,0,P|295:63|306:193,2,203.840002488281,0|8|2,1:2|0:2|1:2,0:2:0:0:
346,288,47888,1,0,1:2:0:0:
217,137,48051,1,10,0:2:0:0:
169,369,48214,2,0,L|185:303,1,50.9600006220703,0|0,1:2|1:2,0:2:0:0:
201,230,48377,5,6,1:2:0:0:
334,384,48540,1,0,1:2:0:0:
79,248,48703,1,10,0:2:0:0:
345,83,48866,1,0,1:2:0:0:
100,158,49029,1,2,1:2:0:0:
374,304,49192,1,2,1:2:0:0:
201,230,49355,2,0,P|254:214|321:201,1,101.920001244141,8|0,0:2|3:2,0:2:0:0:
324,201,49600,1,0,3:2:0:0:
324,201,49681,6,0,P|350:134|285:57,1,152.880001866211,0|0,1:2|0:2,0:2:0:0:
283,50,50007,1,10,0:2:0:0:
374,304,50170,1,0,0:2:0:0:
217,127,50333,1,2,1:2:0:0:
154,330,50496,1,2,1:2:0:0:
154,330,50578,1,0,1:2:0:0:
154,330,50659,2,0,P|207:314|274:301,1,101.920001244141,10|0,0:2|0:2,0:2:0:0:
413,130,50986,5,2,1:2:0:0:
185,219,51149,1,2,1:2:0:0:
413,130,51312,2,0,B|391:209|407:210|390:289,1,152.880001866211,10|0,0:2|0:2,0:2:0:0:
389,311,51634,1,2,1:2:0:0:
357,48,51795,1,0,0:2:0:0:
476,248,51957,1,10,0:2:0:0:
357,48,52118,1,0,1:2:0:0:
222,284,52279,5,12,0:2:0:0:
491,130,52441,1,0,1:2:0:0:
237,275,52604,1,0,1:2:0:0:
438,342,52766,1,12,0:2:0:0:
134,196,52929,1,0,1:2:0:0:
421,331,53092,1,0,1:2:0:0:
337,88,53254,2,0,P|324:137|310:186,1,101.920001244141,12|8,0:2|0:2,0:2:0:0:
310,186,53498,1,8,0:2:0:0:
310,186,53579,5,14,0:2:0:0:
468,103,53742,1,0,1:2:0:0:
224,292,53905,1,10,0:2:0:0:
437,182,54067,1,0,1:2:0:0:
172,357,54230,1,10,0:2:0:0:
370,115,54392,1,0,1:2:0:0:
102,324,54555,1,10,0:2:0:0:
323,197,54718,1,0,1:2:0:0:
323,197,54799,1,0,1:2:0:0:
323,197,54880,5,10,0:2:0:0:
127,74,55043,1,2,1:2:0:0:
224,292,55205,1,10,0:2:0:0:
396,121,55368,1,2,1:2:0:0:
245,24,55531,2,0,P|255:80|266:137,1,101.920001244141,8|0,0:2|1:2,0:2:0:0:
417,286,55856,1,8,0:2:0:0:
174,214,56018,1,2,1:2:0:0:
198,205,56100,1,0,1:2:0:0:
222,197,56181,5,8,0:2:0:0:
93,303,56345,1,2,1:2:0:0:
335,179,56509,1,10,0:2:0:0:
134,91,56674,1,0,1:2:0:0:
385,263,56838,1,10,0:2:0:0:
197,176,57002,1,0,1:2:0:0:
432,330,57167,1,10,0:2:0:0:
448,72,57331,1,0,1:2:0:0:
288,297,57496,6,0,P|335:279|384:262,1,101.920001244141,10|0,0:2|1:2,0:2:0:0:
215,75,57817,2,0,P|206:125|196:175,1,101.920001244141,10|0,0:2|1:2,0:2:0:0:
190,205,58059,1,0,1:2:0:0:
190,205,58139,1,10,0:2:0:0:
334,137,58300,1,0,1:2:0:0:
147,335,58461,1,8,0:2:0:0:
384,262,58622,6,0,P|336:244|287:227,1,101.920001244141,2|8,1:2|0:2,0:2:0:0:
67,112,58945,1,2,1:2:0:0:
67,112,59026,1,0,1:2:0:0:
67,112,59108,2,0,P|75:162|85:212,1,101.920001244141,10|0,0:2|1:2,0:2:0:0:
237,52,59434,1,10,0:2:0:0:
156,301,59597,1,0,1:2:0:0:
334,133,59760,1,10,0:2:0:0:
199,179,59923,1,0,1:2:0:0:
354,326,60086,5,10,0:2:0:0:
470,134,60249,1,2,1:2:0:0:
255,265,60412,1,10,0:2:0:0:
81,144,60575,1,2,1:2:0:0:
81,144,60657,1,0,1:2:0:0:
81,144,60738,2,0,P|90:93|99:43,1,101.920001244141,10|0,0:2|1:2,0:2:0:0:
317,165,61064,1,10,0:2:0:0:
217,42,61227,6,0,P|204:125|190:213,1,152.880001866211,2|0,1:2|0:2,0:2:0:0:
189,224,61554,1,0,1:2:0:0:
409,125,61719,1,10,0:2:0:0:
328,347,61884,2,0,P|318:296|309:246,1,101.920001244141,2|8,1:2|0:2,0:2:0:0:
130,360,62214,1,0,1:2:0:0:
130,360,62296,1,0,1:2:0:0:
130,360,62379,1,10,0:2:0:0:
319,155,62543,6,0,P|271:137|222:120,1,101.920001244141,2|8,1:2|0:2,0:2:0:0:
57,279,62870,2,0,P|104:261|153:244,1,101.920001244141,2|8,1:2|0:2,0:2:0:0:
73,91,63194,1,2,1:2:0:0:
265,274,63356,1,10,0:2:0:0:
215,89,63518,1,0,1:2:0:0:
262,281,63680,1,8,0:2:0:0:
218,82,63843,1,2,1:2:0:0:
365,338,64005,5,12,0:2:0:0:
199,259,64168,1,0,1:2:0:0:
218,252,64249,1,0,1:2:0:0:
237,246,64331,1,10,0:2:0:0:
435,159,64494,1,0,1:2:0:0:
416,152,64576,1,0,1:2:0:0:
397,146,64658,1,10,0:2:0:0:
261,50,64821,5,0,1:2:0:0:
354,301,64984,1,10,0:2:0:0:
261,43,65147,1,0,1:2:0:0:
202,233,65311,6,0,P|249:215|298:198,1,101.920001244141,10|0,0:2|1:2,0:2:0:0:
84,104,65637,1,10,0:2:0:0:
236,20,65800,2,0,P|227:70|217:120,1,101.920001244141,2|8,1:2|0:2,0:2:0:0:
170,343,66127,1,0,1:2:0:0:
170,343,66209,1,0,1:2:0:0:
170,343,66290,1,8,0:2:0:0:
381,217,66453,6,0,P|333:199|284:182,1,101.920001244141,2|8,1:2|0:2,0:2:0:0:
393,337,66780,1,2,1:2:0:0:
393,337,66862,1,0,1:2:0:0:
393,337,66943,1,10,0:2:0:0:
474,137,67107,1,0,1:2:0:0:
383,310,67270,1,10,0:2:0:0:
272,106,67433,1,0,1:2:0:0:
402,289,67596,1,10,0:2:0:0:
485,57,67760,1,2,1:2:0:0:
333,234,67923,6,0,P|285:216|236:199,1,101.920001244141,10|0,0:2|1:2,0:2:0:0:
395,8,68249,2,0,P|386:58|376:108,1,101.920001244141,10|0,0:2|1:2,0:2:0:0:
478,241,68576,1,10,0:2:0:0:
281,111,68739,1,0,1:2:0:0:
281,111,68821,1,0,1:2:0:0:
281,111,68902,1,8,0:2:0:0:
351,316,69066,2,0,P|356:294|363:263,1,50.9600006220703,2|0,1:2|1:2,0:2:0:0:
383,186,69229,5,8,0:2:0:0:
241,315,69391,1,2,1:2:0:0:
376,108,69554,1,10,0:2:0:0:
244,321,69716,1,0,1:2:0:0:
374,101,69879,1,10,0:2:0:0:
249,327,70042,1,0,1:2:0:0:
111,216,70204,2,0,P|158:198|207:181,1,101.920001244141,10|0,0:2|1:2,0:2:0:0:
228,174,70448,1,0,1:2:0:0:
228,174,70529,6,0,P|237:123|246:73,1,101.920001244141,10|0,0:2|1:2,0:2:0:0:
346,271,70855,1,10,0:2:0:0:
454,91,71017,1,2,1:2:0:0:
512,236,71180,2,0,P|464:218|415:201,1,101.920001244141,10|0,0:2|1:2,0:2:0:0:
390,190,71424,1,0,1:2:0:0:
390,190,71505,1,10,0:2:0:0:
424,355,71668,6,0,P|369:314|282:335,1,152.880001866211,2|0,1:2|0:2,0:2:0:0:
270,349,71993,1,2,1:2:0:0:
66,215,72155,1,10,0:2:0:0:
151,384,72318,2,0,P|160:333|169:283,1,101.920001244141,2|8,1:2|0:2,0:2:0:0:
371,69,72643,1,2,1:2:0:0:
183,157,72806,1,8,0:2:0:0:
353,277,72968,1,2,1:2:0:0:
353,277,73050,1,0,1:2:0:0:
353,277,73131,5,12,0:2:0:0:
277,41,73294,1,2,1:2:0:0:
348,287,73458,1,2,1:2:0:0:
122,78,73622,1,14,0:2:0:0:
198,314,73786,1,2,1:2:0:0:
127,68,73950,1,0,1:2:0:0:
10,274,74114,1,8,0:2:0:0:
50,244,74192,1,8,0:2:0:0:
100,242,74270,1,8,0:2:0:0:
143,269,74348,1,8,0:2:0:0:
163,315,74426,6,0,P|115:333|67:349,1,101.920001244141,6|2,1:2|0:2,0:0:0:0:
249,169,74753,1,10,0:2:0:0:
65,146,74917,2,0,P|83:193|100:241,1,101.920001244141,2|0,1:2|0:2,0:2:0:0:
203,55,75245,1,2,1:2:0:0:
100,242,75409,1,8,0:2:0:0:
332,122,75573,1,2,3:2:0:0:
227,342,75737,6,0,B|269:327|298:316|298:316|354:347|354:347|395:332|414:326,1,203.840002488281,0|8,1:2|0:2,0:2:0:0:
246,207,76234,1,2,0:2:0:0:
439,113,76399,2,0,P|420:160|403:208,1,101.920001244141,2|2,1:2|1:2,0:0:0:0:
241,30,76731,1,10,0:2:0:0:
112,243,76897,6,0,P|161:201|258:209,1,151,2|0,0:2|0:2,0:2:0:0:
272,224,77225,1,2,1:2:0:0:
130,93,77388,1,10,0:2:0:0:
295,0,77551,2,0,P|276:47|259:95,1,101.920001244141,2|0,1:2|1:2,0:2:0:0:
424,261,77877,2,0,P|407:212|387:165,1,101.920001244141,2|8,1:2|0:2,0:2:0:0:
199,298,78203,1,2,3:2:0:0:
199,298,78284,1,0,3:2:0:0:
199,298,78366,6,0,P|229:351|377:314,2,203.840002488281,0|8|2,1:2|0:2|1:2,0:2:0:0:
136,71,79174,1,0,1:2:0:0:
47,288,79336,1,10,0:2:0:0:
272,209,79498,1,0,1:2:0:0:
272,209,79578,1,0,1:2:0:0:
272,209,79659,6,0,P|223:192|175:174,1,101.920001244141,6|0,1:2|1:2,0:0:0:0:
407,79,79988,1,10,0:2:0:0:
288,308,80152,1,0,1:2:0:0:
462,185,80317,1,2,1:2:0:0:
277,33,80482,1,2,1:2:0:0:
277,33,80564,1,0,1:0:0:0:
277,33,80646,2,0,P|296:79|313:128,1,101.920001244141,8|0,0:2|3:2,0:2:0:0:
193,277,80975,6,0,P|103:284|57:232,1,152.880001866211,0|0,1:2|0:2,0:2:0:0:
52,217,81300,1,10,0:2:0:0:
135,384,81462,1,0,0:2:0:0:
239,167,81625,1,2,1:2:0:0:
343,341,81788,1,2,1:2:0:0:
462,225,81950,2,0,P|413:208|365:190,1,101.920001244141,10|0,0:2|3:2,0:2:0:0:
345,180,82194,1,0,3:0:0:0:
345,180,82275,5,2,1:2:0:0:
451,34,82438,1,2,1:2:0:0:
275,262,82601,2,0,P|258:213|238:166,1,101.920001244141,10|0,0:2|0:0,0:2:0:0:
117,295,82926,1,2,1:2:0:0:
213,71,83088,1,0,0:2:0:0:
111,297,83251,1,10,0:2:0:0:
218,65,83408,1,0,1:2:0:0:
363,314,83566,5,10,0:2:0:0:
56,168,83726,1,0,1:2:0:0:
350,8,83887,1,0,1:2:0:0:
206,328,84048,5,12,0:2:0:0:
490,150,84209,1,0,1:2:0:0:
221,4,84370,1,0,1:2:0:0:
349,298,84531,6,0,P|343:274|327:227,1,50.9600006220703,8|8,0:2|0:2,0:2:0:0:
278,98,84692,2,0,P|271:119|264:146,1,50.9600006220703,8|8,0:2|0:2,0:2:0:0:
220,263,84852,6,0,P|277:229|383:251,1,152.880001866211,6|0,1:2|0:0,0:0:0:0:
385,253,85185,1,10,0:2:0:0:
179,165,85344,2,0,P|131:182|82:199,1,101.920001244141,2|0,1:2|0:2,0:2:0:0:
389,79,85668,2,0,P|437:95|485:113,1,101.920001244141,2|8,1:2|0:2,0:0:0:0:
268,0,85998,1,2,3:2:0:0:
268,0,86080,1,0,3:2:0:0:
268,0,86163,6,0,B|268:106|291:92|297:214,1,203.840002488281,0|8,1:2|0:2,0:2:0:0:
221,359,86657,1,2,0:2:0:0:
430,319,86822,1,2,1:2:0:0:
216,364,86987,1,2,1:2:0:0:
435,314,87152,1,10,0:2:0:0:
221,263,87316,1,0,3:0:0:0:
221,263,87399,1,0,3:0:0:0:
221,263,87481,6,0,P|276:226|365:246,1,152.880001866211,0|0,1:0|0:0,0:0:0:0:
377,255,87808,1,10,0:2:0:0:
280,52,87972,2,0,P|260:98|243:147,1,101.920001244141,2|0,1:2|1:2,0:2:0:0:
151,352,88300,2,0,P|134:303|114:256,1,101.920001244141,2|8,1:2|0:2,0:2:0:0:
0,70,88628,1,2,3:2:0:0:
0,70,88710,1,0,3:2:0:0:
0,70,88792,6,0,P|50:123|179:71,2,203.840002488281,0|8|2,1:2|0:2|1:2,0:2:0:0:
150,281,89609,1,0,1:2:0:0:
0,208,89770,2,0,P|47:190|96:173,1,101.920001244141,10|0,0:2|1:2,0:0:0:0:
121,165,90012,1,0,1:2:0:0:
121,165,90093,5,6,1:2:0:0:
71,353,90256,1,0,1:2:0:0:
233,126,90420,1,10,0:2:0:0:
150,281,90584,1,0,1:2:0:0:
150,281,90665,1,0,1:0:0:0:
150,281,90747,1,2,1:2:0:0:
366,139,90911,1,2,1:2:0:0:
160,42,91075,2,0,P|179:88|196:137,1,101.920001244141,8|0,0:2|3:2,0:2:0:0:
204,160,91320,1,0,3:2:0:0:
204,160,91402,6,0,P|127:187|57:137,1,152.880001866211,0|0,1:2|0:2,0:2:0:0:
51,131,91730,1,10,0:2:0:0:
204,340,91893,1,0,0:2:0:0:
36,302,92057,2,0,P|83:284|132:267,1,101.920001244141,2|2,1:2|1:2,0:0:0:0:
324,109,92384,2,0,P|304:155|287:204,1,101.920001244141,10|0,0:2|0:2,0:2:0:0:
442,341,92712,5,2,1:2:0:0:
287,204,92874,1,2,1:2:0:0:
237,361,93036,2,0,P|284:343|333:326,1,101.920001244141,10|0,0:2|0:0,0:2:0:0:
469,91,93361,1,2,1:2:0:0:
370,238,93523,1,2,0:2:0:0:
468,83,93686,1,10,0:2:0:0:
374,243,93852,1,2,1:2:0:0:
386,44,94019,5,14,0:2:0:0:
442,341,94181,1,0,1:2:0:0:
312,34,94343,5,10,0:2:0:0:
341,334,94505,1,0,1:2:0:0:
239,29,94667,5,10,0:2:0:0:
241,330,94829,1,0,1:2:0:0:
161,13,94991,5,10,0:2:0:0:
136,313,95154,1,0,1:2:0:0:
0,144,95316,6,0,B|119:19|306:132|181:238|390:359|507:200,1,611.519981337891,6|0,1:2|0:2,0:2:0:0:
