osu file format v14

[General]
AudioFilename: audio.mp3
AudioLeadIn: 0
PreviewTime: 86677
Countdown: 0
SampleSet: Normal
StackLeniency: 0.5
Mode: 0
LetterboxInBreaks: 0
EpilepsyWarning: 1
WidescreenStoryboard: 1
SamplesMatchPlaybackRate: 1

[Editor]
Bookmarks: 15290,43343,72232,88232,102401
DistanceSpacing: 1.1
BeatDivisor: 4
GridSize: 8
TimelineZoom: 1

[Metadata]
Title:When You Leave (Numa Numa) (Basshunter Remix) (Cut Ver.)
TitleUnicode:When You Leave (Numa Numa) (Basshunter Remix) (Cut Ver.)
Artist:Alina
ArtistUnicode:Alina
Creator:-Ady
Version:RAVE!
Source:
Tags:trance techno electronic remix dance english dragostea din tei words of love dan balan bălan o-zone DvxNL moldovan appetible P_O
BeatmapID:3538356
BeatmapSetID:1731160

[Difficulty]
HPDrainRate:6
CircleSize:4.2
OverallDifficulty:8
ApproachRate:8
SliderMultiplier:2
SliderTickRate:1

[Events]
//Background and Video events
0,0,"ALINA.jpg",0,0
//Break Periods
//Storyboard Layer 0 (Background)
//Storyboard Layer 1 (Fail)
//Storyboard Layer 2 (Pass)
//Storyboard Layer 3 (Foreground)
//Storyboard Layer 4 (Overlay)
//Storyboard Sound Samples

[TimingPoints]
13566,444.444444444444,4,1,1,70,1,0
14899,-100,4,1,2,70,0,0
15010,-100,4,1,1,70,0,0
15343,-100,4,1,0,70,0,1
15454,-100,4,1,1,70,0,1
28899,-100,4,1,1,30,0,1
29121,-100,4,1,1,50,0,1
29343,-100,4,1,1,56,0,1
29565,-100,4,1,0,60,0,0
29677,-100,4,2,1,40,0,0
43343,-100,4,2,1,40,0,0
43788,-100,4,2,1,40,0,0
49121,-100,4,2,1,42,0,0
50899,-100,4,2,1,45,0,0
53454,-100,4,2,1,50,0,0
54624,-100,4,1,0,55,0,0
56179,-100,4,1,0,65,0,0
56290,-100,4,2,0,40,0,0
57121,-100,4,2,0,30,0,0
57512,-100,4,1,2,70,0,0
57624,-100,4,2,1,40,0,0
58010,-100,4,1,0,70,0,1
58121,-100,4,1,1,70,0,1
71735,-100,4,1,2,70,0,1
71846,-100,4,1,1,70,0,1
72121,-100,4,1,1,70,0,0
72232,-100,4,1,0,70,0,1
72343,-100,4,1,1,70,0,1
84677,-100,4,1,1,70,0,0
84846,-100,4,1,0,50,0,0
86454,-100,4,1,0,50,0,0
86565,-100,4,2,1,50,0,0
88232,-100,4,1,0,70,0,1
88343,-100,4,1,1,70,0,1
100901,-100,4,1,0,70,0,1
101565,-100,4,1,0,30,0,1
101788,-100,4,1,0,34,0,1
102010,-100,4,1,0,40,0,1
102179,-100,4,1,0,43,0,1
102454,-100,4,1,0,70,0,0

[Colours]
Combo1 : 85,122,185
Combo2 : 205,141,160
Combo3 : 255,89,89
Combo4 : 156,168,209
Combo5 : 209,200,163

[HitObjects]
208,16,14899,5,4,0:0:0:0:
208,16,15343,6,0,P|256:28|304:16,1,100,4|2,0:0|0:0,0:0:0:0:
400,104,15788,2,0,P|351:91|303:103,1,100,8|2,0:0|0:0,0:0:0:0:
256,192,16232,1,0,0:0:0:0:
256,192,16343,1,0,0:0:0:0:
256,192,16454,1,2,0:0:0:0:
256,192,16566,1,0,0:0:0:0:
256,192,16677,1,8,0:0:0:0:
352,264,16899,6,0,B|256:292|256:292|160:264,1,200,2|2,0:0|0:0,0:0:0:0:
92,336,17565,2,0,L|188:364,1,100,8|2,0:0|0:0,0:0:0:0:
420,336,18010,1,0,0:0:0:0:
396,343,18121,1,0,0:0:0:0:
372,350,18232,1,2,0:0:0:0:
348,357,18343,1,0,0:0:0:0:
324,364,18454,1,8,0:0:0:0:
256,272,18677,6,0,L|256:72,1,200,2|2,0:0|0:0,0:0:0:0:
428,40,19343,2,0,B|381:55|381:55|333:39,1,100,8|2,0:0|0:0,0:0:0:0:
84,40,19788,1,0,0:0:0:0:
107,47,19899,1,0,0:0:0:0:
131,54,20010,1,2,0:0:0:0:
155,46,20121,1,0,0:0:0:0:
178,38,20232,1,8,0:0:0:0:
160,176,20454,6,0,P|256:200|353:176,1,200,2|2,0:0|0:0,0:0:0:0:
432,252,21121,2,0,P|419:300|431:348,1,100,8|2,0:0|0:0,0:0:0:0:
432,132,21565,1,0,0:0:0:0:
422,108,21676,1,0,0:0:0:0:
419,84,21787,1,2,0:0:0:0:
421,59,21898,1,0,0:0:0:0:
430,36,22009,1,8,0:0:0:0:
351,192,22232,6,0,P|255:216|159:192,1,200,2|2,0:0|0:0,0:0:0:0:
312,96,22899,1,8,0:0:0:0:
200,96,23121,1,2,0:0:0:0:
256,176,23343,1,0,0:0:0:0:
256,191,23454,1,0,0:0:0:0:
256,206,23565,1,2,0:0:0:0:
256,308,23788,1,8,0:0:0:0:
332,372,24010,6,0,B|380:356|380:356|426:371,1,100,2|0,0:0|0:0,0:0:0:0:
512,280,24454,2,0,B|464:296|464:296|417:280,1,100,2|8,0:0|0:0,0:0:0:0:
368,192,24899,1,2,0:0:0:0:
512,104,25121,2,0,B|464:88|464:88|417:103,1,100,0|2,0:0|0:0,0:0:0:0:
368,16,25565,1,8,0:0:0:0:
256,100,25788,6,0,B|168:100|168:100|96:100|72:52,1,200,2|2,0:0|0:0,0:0:0:0:
0,120,26454,1,8,0:0:0:0:
0,135,26565,1,0,0:0:0:0:
0,150,26677,1,2,0:0:0:0:
0,264,26899,5,4,0:0:0:0:
0,249,27010,1,0,0:0:0:0:
0,234,27121,1,2,0:0:0:0:
92,192,27343,2,0,L|144:192,2,50,8|0|2,0:0|0:0|0:0,0:0:0:0:
160,320,27788,5,4,0:0:0:0:
208,334,27899,1,0,0:0:0:0:
256,348,28010,1,8,0:0:0:0:
304,334,28121,1,0,0:0:0:0:
352,320,28232,1,8,0:0:0:0:
304,96,28454,5,0,0:0:0:0:
256,82,28565,1,0,0:0:0:0:
208,96,28677,1,4,0:0:0:0:
256,182,28899,6,0,L|256:206,12,25,8|8|8|8|8|8|8|8|8|8|8|8|4,0:0|0:0|0:0|0:0|0:0|0:0|0:0|0:0|0:0|0:0|0:0|0:0|0:0,0:0:0:0:
160,312,30010,6,0,P|256:288|353:312,1,200
444,288,30677,2,0,B|459:241|459:241|443:193,1,100,2|0,0:0|0:0,0:0:0:0:
448,100,31121,6,0,P|351:123|255:99,1,200,2|2,0:0|0:0,0:0:0:0:
176,48,31788,2,0,P|127:35|79:47,1,100,0|2,0:0|0:0,0:0:0:0:
24,124,32232,2,0,P|73:137|121:125,1,100,0|2,0:0|0:0,0:0:0:0:
188,192,32677,2,0,P|200:240|188:288,1,100,0|2,0:0|0:0,0:0:0:0:
256,352,33121,6,0,B|352:324|352:324|448:352,1,200
504,184,34010,2,0,B|408:212|408:212|312:184,1,200
256,112,34677,2,0,P|243:63|255:15,1,100,2|0,0:0|0:0,0:0:0:0:
416,64,35121,6,0,P|367:77|319:65,1,100,2|0,0:0|0:0,0:0:0:0:
160,113,35565,2,0,P|209:100|257:112,1,100,2|0,0:0|0:0,0:0:0:0:
312,192,36010,1,2,0:0:0:0:
256,268,36232,1,0,0:0:0:0:
200,192,36454,6,0,L|0:192,2,200,2|2|2,0:0|0:0|0:0,0:0:0:0:
332,40,37788,2,0,B|347:87|347:87|331:135,1,100,2|0,0:0|0:0,0:0:0:0:
407,287,38232,2,0,B|392:240|392:240|408:192,1,100,2|0,0:0|0:0,0:0:0:0:
495,311,38677,2,0,P|398:288|302:312,1,200,2|2,0:0|0:0,0:0:0:0:
207,311,39343,2,0,P|256:324|303:312,1,100,0|2,0:0|0:0,0:0:0:0:
302,217,39788,1,0,0:0:0:0:
302,217,40010,6,0,P|255:205|206:218,1,100,2|0,0:0|0:0,0:0:0:0:
160,128,40454,2,0,B|256:100|256:100|352:128,2,200,2|2|2,0:0|0:0|0:0,0:0:0:0:
88,192,41565,1,0,0:0:0:0:
160,256,41788,6,0,B|256:284|256:284|352:256,1,200,2|2,0:0|0:0,0:0:0:0:
424,192,42454,1,0,0:0:0:0:
256,192,42565,12,4,43788,0:0:0:0:
352,16,44232,6,0,P|255:39|159:15,1,200
88,80,44899,1,2,0:0:0:0:
88,176,45121,1,0,0:0:0:0:
160,240,45343,6,0,P|256:216|352:239,1,200,2|2,0:0|0:0,0:0:0:0:
436,288,46010,2,0,P|449:239|436:192,1,100,8|2,0:0|0:0,0:0:0:0:
399,95,46454,2,0,B|351:111|351:111|304:96,1,100,0|2,0:0|0:0,0:0:0:0:
256,12,46899,1,8,0:0:0:0:
256,12,47121,6,0,L|256:212,1,200,2|2,0:0|0:0,0:0:0:0:
328,276,47788,2,0,B|375:261|375:261|423:277,1,100,8|2,0:0|0:0,0:0:0:0:
304,360,48232,2,0,B|257:375|257:375|209:359,1,100,0|8,0:0|0:0,0:0:0:0:
89,277,48677,2,0,B|137:261|137:261|184:276,1,100,8|2,0:0|0:0,0:0:0:0:
256,216,49121,5,4,3:0:0:0:
256,216,49343,1,2,0:0:0:0:
332,52,49565,2,0,B|317:99|317:99|333:147,1,100,8|2,0:0|0:0,0:0:0:0:
256,216,50010,1,0,0:0:0:0:
256,216,50232,1,2,0:0:0:0:
180,52,50454,2,0,B|195:99|195:99|179:147,1,100,8|2,0:0|0:0,0:0:0:0:
160,304,50899,6,0,B|208:304|256:328|256:328|304:304|352:304,1,200,4|8,3:0|0:0,0:0:0:0:
496,88,52010,5,2,0:0:0:0:
437,168,52232,1,8,0:0:0:0:
337,168,52454,1,2,0:0:0:0:
277,88,52677,6,0,P|180:64|84:88,1,200,4|8,3:0|0:0,0:0:0:0:
12,156,53343,1,2,0:0:0:0:
12,256,53565,1,0,0:0:0:0:
84,326,53788,2,0,P|180:350|276:326,1,200,2|0,0:0|0:0,0:0:0:0:
337,247,54454,5,4,3:0:0:0:
256,188,54677,1,8,0:0:0:0:
175,247,54899,1,8,0:0:0:0:
256,88,55121,1,0,0:0:0:0:
256,88,55232,2,0,L|256:64,2,25,8|8|8,0:0|0:0|0:0,0:0:0:0:
384,8,55677,1,8,0:0:0:0:
128,8,56010,1,8,0:0:0:0:
156,104,56232,5,4,0:0:0:0:
256,48,56454,1,2,0:0:0:0:
356,104,56677,1,2,0:0:0:0:
160,248,57121,6,0,P|256:224|352:248,1,200,2|4,0:0|0:0,0:0:0:0:
504,56,58010,6,0,P|492:104|504:152,1,100,4|2,0:0|0:0,0:0:0:0:
417,300,58454,2,0,P|430:251|418:203,1,100,0|2,0:0|0:0,0:0:0:0:
168,136,58899,1,0,0:0:0:0:
256,88,59121,1,2,0:0:0:0:
344,136,59343,1,0,0:0:0:0:
256,60,59565,1,2,0:0:0:0:
160,264,59788,6,0,B|208:264|256:288|256:288|304:264|352:264,2,200
68,112,60899,1,2,0:0:0:0:
68,232,61121,1,0,0:0:0:0:
160,172,61343,1,2,0:0:0:0:
176,356,61565,6,0,B|228:356|256:300|256:300|276:356|356:356,1,200
316,96,62454,1,0,0:0:0:0:
196,96,62677,1,2,0:0:0:0:
344,0,62899,1,0,0:0:0:0:
168,0,63121,1,2,0:0:0:0:
256,156,63343,6,0,L|256:256,1,100,0|2,0:0|0:0,0:0:0:0:
256,356,63788,1,0,0:0:0:0:
340,304,64010,1,2,0:0:0:0:
355,304,64121,1,0,0:0:0:0:
370,304,64232,1,0,0:0:0:0:
172,304,64454,2,0,P|124:292|76:304,1,100,2|0,0:0|0:0,0:0:0:0:
8,232,64899,1,2,0:0:0:0:
8,232,65010,1,0,0:0:0:0:
8,232,65121,6,0,B|8:144|8:144|8:72|56:48,1,200,0|0,0:0|0:0,0:0:0:0:
344,40,66010,1,0,0:0:0:0:
256,88,66232,1,2,0:0:0:0:
168,40,66454,1,0,0:0:0:0:
256,116,66677,1,2,0:0:0:0:
160,256,66899,6,0,P|256:280|352:256,1,200,0|0,0:0|0:0,0:0:0:0:
428,192,67565,1,2,0:0:0:0:
476,336,67788,2,0,P|428:348|380:336,1,100,0|2,0:0|0:0,0:0:0:0:
208,384,68232,2,0,P|256:372|304:384,1,100,0|2,0:0|0:0,0:0:0:0:
304,192,68677,6,0,P|256:180|208:192,1,100,0|2,0:0|0:0,0:0:0:0:
144,116,69121,1,0,0:0:0:0:
207,39,69343,1,2,0:0:0:0:
457,95,69565,6,0,P|445:143|457:191,1,100,0|2,0:0|0:0,0:0:0:0:
381,255,70010,1,0,0:0:0:0:
304,192,70232,1,2,0:0:0:0:
208,332,70454,6,0,B|255:347|255:347|303:331,1,100,0|8,0:0|0:0,0:0:0:0:
131,255,70899,1,8,0:0:0:0:
52,196,71121,1,8,0:0:0:0:
52,211,71232,1,8,0:0:0:0:
52,226,71343,1,8,0:0:0:0:
131,129,71565,1,8,0:0:0:0:
131,129,71677,1,0,0:0:0:0:
131,129,71788,2,0,B|115:81|115:81|130:34,1,100,4|8,0:0|0:0,0:0:0:0:
381,129,72232,6,0,B|397:81|397:81|382:34,1,100,4|2,0:0|0:0,0:0:0:0:
320,192,72677,2,0,B|304:240|304:240|319:287,1,100,8|2,0:0|0:0,0:0:0:0:
495,287,73121,1,0,0:0:0:0:
407,335,73343,1,2,0:0:0:0:
319,287,73565,1,8,0:0:0:0:
407,363,73788,1,2,0:0:0:0:
352,120,74010,6,0,B|304:120|256:144|256:144|208:120|160:120,1,200,0|8,0:0|0:0,0:0:0:0:
84,192,74677,1,2,0:0:0:0:
84,192,74788,1,0,0:0:0:0:
84,192,74899,1,0,0:0:0:0:
256,40,75121,1,2,0:0:0:0:
304,128,75343,2,0,P|256:140|208:128,1,100,8|2,0:0|0:0,0:0:0:0:
160,244,75788,6,0,P|256:220|352:244,1,200,0|8,0:0|0:0,0:0:0:0:
436,192,76454,1,2,0:0:0:0:
436,192,76565,1,0,0:0:0:0:
436,192,76677,2,0,P|448:144|436:96,1,100,0|2,0:0|0:0,0:0:0:0:
352,44,77121,1,8,0:0:0:0:
76,192,77343,6,0,P|64:144|76:96,1,100,2|0,0:0|0:0,0:0:0:0:
160,44,77788,1,2,0:0:0:0:
256,88,78010,2,0,L|256:292,1,200,8|0,0:0|0:0,0:0:0:0:
328,356,78677,1,2,0:0:0:0:
328,356,78788,1,0,0:0:0:0:
328,356,78899,1,8,0:0:0:0:
184,356,79121,1,2,0:0:0:0:
352,232,79343,6,0,B|304:232|256:208|256:208|208:232|160:232,1,200,0|8,0:0|0:0,0:0:0:0:
68,192,80010,2,0,P|56:144|68:96,1,100,2|0,0:0|0:0,0:0:0:0:
159,55,80454,1,2,0:0:0:0:
256,267,80677,1,8,0:0:0:0:
353,55,80899,1,2,0:0:0:0:
160,168,81121,6,0,P|256:192|352:168,1,200,0|8,0:0|0:0,0:0:0:0:
448,192,81788,1,2,0:0:0:0:
448,207,81899,1,0,0:0:0:0:
448,222,82010,1,0,0:0:0:0:
352,344,82232,1,2,0:0:0:0:
160,248,82454,2,0,P|147:296|160:344,1,100,8|2,0:0|0:0,0:0:0:0:
256,380,82899,5,0,0:0:0:0:
256,280,83121,1,2,0:0:0:0:
256,265,83232,1,0,0:0:0:0:
256,250,83343,1,8,0:0:0:0:
256,148,83565,2,0,L|256:96,2,50,2|0|0,0:0|0:0|0:0,0:0:0:0:
348,192,84010,2,0,L|368:144,2,50,2|0|8,0:0|0:0|0:0,0:0:0:0:
164,192,84454,1,2,0:0:0:0:
164,192,84565,1,0,0:0:0:0:
164,192,84677,5,4,0:0:0:0:
256,360,84899,1,8,0:0:0:0:
388,272,85121,1,8,0:0:0:0:
124,272,85343,1,0,0:0:0:0:
256,184,85565,5,12,0:0:0:0:
256,64,85788,2,0,L|256:40,12,25,0|0|0|0|8|0|0|0|0|0|0|0|4,0:0|0:0|0:0|0:0|0:0|0:0|0:0|0:0|0:0|0:0|0:0|0:0|0:0,0:0:0:0:
256,192,86565,12,2,87788,0:0:0:0:
16,192,88232,6,0,P|64:180|112:192,1,100,4|2,0:0|0:0,0:0:0:0:
208,104,88677,2,0,P|159:117|111:105,1,100,8|2,0:0|0:0,0:0:0:0:
256,20,89121,5,0,0:0:0:0:
271,20,89232,1,0,0:0:0:0:
286,20,89343,1,2,0:0:0:0:
301,20,89454,1,0,0:0:0:0:
316,20,89565,1,8,0:0:0:0:
372,104,89788,1,2,0:0:0:0:
256,192,90010,6,0,P|243:241|255:289,1,100,0|2,0:0|0:0,0:0:0:0:
332,352,90454,1,8,0:0:0:0:
332,352,90677,1,2,0:0:0:0:
460,284,90899,5,0,0:0:0:0:
445,284,91010,1,0,0:0:0:0:
430,284,91121,1,2,0:0:0:0:
415,284,91232,1,0,0:0:0:0:
400,284,91343,1,8,0:0:0:0:
352,192,91565,1,2,0:0:0:0:
352,0,91788,6,0,B|367:47|367:47|351:95,1,100,0|2,0:0|0:0,0:0:0:0:
161,95,92232,2,0,B|145:47|145:47|160:0,1,100,8|2,0:0|0:0,0:0:0:0:
350,95,92677,1,0,0:0:0:0:
304,272,92899,2,0,B|256:288|256:288|209:273,1,100,2|8,0:0|0:0,0:0:0:0:
352,192,93343,6,0,B|304:192|256:168|256:168|208:192|160:192,2,200,2|2|2,0:0|0:0|0:0,0:0:0:0:
424,260,94454,2,0,L|328:288,1,100,0|2,0:0|0:0,0:0:0:0:
424,124,94899,2,0,L|328:96,1,100,8|2,0:0|0:0,0:0:0:0:
224,24,95343,5,0,0:0:0:0:
239,24,95454,1,0,0:0:0:0:
254,24,95565,1,2,0:0:0:0:
269,24,95676,1,0,0:0:0:0:
284,24,95787,1,8,0:0:0:0:
88,124,96010,2,0,L|184:96,1,100,2|0,0:0|0:0,0:0:0:0:
256,192,96454,1,2,0:0:0:0:
88,260,96677,2,0,L|184:288,1,100,8|2,0:0|0:0,0:0:0:0:
256,360,97121,5,0,0:0:0:0:
271,360,97232,1,0,0:0:0:0:
286,360,97343,1,2,0:0:0:0:
301,360,97454,1,0,0:0:0:0:
316,360,97565,1,8,0:0:0:0:
400,240,97788,1,2,0:0:0:0:
400,240,98010,2,0,P|388:192|400:144,1,100,0|2,0:0|0:0,0:0:0:0:
312,0,98454,2,0,P|324:48|312:96,1,100,8|2,0:0|0:0,0:0:0:0:
200,384,98899,6,0,P|188:336|200:288,1,100,4|2,0:0|0:0,0:0:0:0:
168,192,99343,1,8,0:0:0:0:
168,192,99565,1,2,0:0:0:0:
312,384,99788,2,0,P|324:336|312:288,1,100,4|2,0:0|0:0,0:0:0:0:
344,192,100232,1,8,0:0:0:0:
256,4,100454,1,2,0:0:0:0:
256,4,100565,1,0,0:0:0:0:
256,4,100677,5,4,0:0:0:0:
256,144,100899,1,0,0:0:0:0:
348,72,101121,1,8,0:0:0:0:
164,72,101343,1,0,0:0:0:0:
256,232,101565,6,0,L|256:256,16,25,4|0|0|0|8|8|8|8|8|8|8|8|8|8|8|8|4,0:0|0:0|0:0|0:0|0:0|0:0|0:0|0:0|0:0|0:0|0:0|0:0|0:0|0:0|0:0|0:0|0:0,0:0:0:0:
