osu file format v14

[General]
AudioFilename: audio.mp3
AudioLeadIn: 0
PreviewTime: 86677
Countdown: 0
SampleSet: Normal
StackLeniency: 0.3
Mode: 0
LetterboxInBreaks: 0
EpilepsyWarning: 1
WidescreenStoryboard: 1
SamplesMatchPlaybackRate: 1

[Editor]
DistanceSpacing: 1.2
BeatDivisor: 4
GridSize: 16
TimelineZoom: 2.799999

[Metadata]
Title:When You Leave (Numa Numa) (Basshunter Remix) (Cut Ver.)
TitleUnicode:When You Leave (Numa Numa) (Basshunter Remix) (Cut Ver.)
Artist:Alina
ArtistUnicode:Alina
Creator:-Ady
Version:P_O's Average RAVE!
Source:
Tags:trance techno electronic remix dance english dragostea din tei words of love dan balan bălan o-zone DvxNL moldovan appetible P_O
BeatmapID:3586383
BeatmapSetID:1731160

[Difficulty]
HPDrainRate:3
CircleSize:3.8
OverallDifficulty:4
ApproachRate:5
SliderMultiplier:1.25
SliderTickRate:1

[Events]
//Background and Video events
0,0,"ALINA.jpg",0,0
//Break Periods
//Storyboard Layer 0 (Background)
//Storyboard Layer 1 (Fail)
//Storyboard Layer 2 (Pass)
//Storyboard Layer 3 (Foreground)
//Storyboard Layer 4 (Overlay)
//Storyboard Sound Samples

[TimingPoints]
13566,444.444444444444,4,1,1,70,1,0
14899,-100,4,1,2,70,0,0
14957,-100,4,1,1,70,0,0
15343,-100,4,1,0,70,0,0
15401,-100,4,1,1,70,0,0
28899,-100,4,1,1,30,0,0
29121,-100,4,1,1,50,0,0
29290,-100,4,1,1,56,0,0
29565,-100,4,1,0,60,0,0
29624,-100,4,2,1,40,0,0
43343,-100,4,2,1,40,0,0
43401,-100,4,2,1,20,0,0
43788,-100,4,2,1,40,0,0
49121,-100,4,2,1,42,0,0
50899,-100,4,2,1,45,0,0
53401,-100,4,2,1,50,0,0
54624,-100,4,1,0,55,0,0
56232,-100,4,1,0,65,0,0
56290,-100,4,2,0,40,0,0
57121,-100,4,2,0,30,0,0
57565,-100,4,1,2,70,0,0
57624,-100,4,2,1,40,0,0
58010,-100,4,1,0,70,0,0
58068,-100,4,1,1,70,0,0
71788,-100,4,1,2,70,0,0
71846,-100,4,1,1,70,0,0
72232,-100,4,1,0,70,0,0
72290,-100,4,1,1,70,0,0
84899,-100,4,1,0,50,0,0
86512,-100,4,2,1,50,0,0
88232,-100,4,1,0,70,0,0
88290,-100,4,1,1,70,0,0
100901,-100,4,1,0,70,0,0
102457,-100,4,1,0,70,0,0

[Colours]
Combo1 : 85,122,185
Combo2 : 205,141,160
Combo3 : 255,89,89
Combo4 : 156,168,209
Combo5 : 209,200,163

[HitObjects]
144,144,13566,6,0,P|256:192|367:144,1,250
256,48,14899,1,4,0:0:0:0:
108,48,15343,6,0,P|75:60|44:96,1,62.5,4|2,0:0|0:0,0:0:0:0:
33,148,15788,2,0,L|33:220,1,62.5,8|2,0:0|0:0,0:0:0:0:
33,284,16232,1,0,0:0:0:0:
145,384,16677,1,8,0:0:0:0:
256,284,17121,6,0,L|318:284,1,62.5,0|2,0:0|0:0,0:0:0:0:
388,305,17565,2,0,P|408:328|418:358,1,62.5,8|2,0:0|0:0,0:0:0:0:
491,358,18010,1,0,0:0:0:0:
491,210,18454,1,8,0:0:0:0:
491,62,18899,6,0,P|481:32|460:8,1,62.5,0|2,0:0|0:0,0:0:0:0:
387,9,19343,2,0,L|315:9,1,62.5,8|2,0:0|0:0,0:0:0:0:
256,38,19788,1,0,0:0:0:0:
187,9,20010,2,0,L|125:9,1,62.5,2|8,0:0|0:0,0:0:0:0:
51,9,20454,6,0,B|6:45|6:45|6:123,1,125,2|2,0:0|0:0,0:0:0:0:
34,180,21121,2,0,B|101:180|101:180|137:225,1,125,8|0,0:0|0:0,0:0:0:0:
285,225,22010,1,8,0:0:0:0:
432,225,22454,6,0,P|462:235|486:256,1,62.5,0|2,0:0|0:0,0:0:0:0:
485,331,22899,2,0,P|461:351|431:360,1,62.5,8|2,0:0|0:0,0:0:0:0:
358,361,23343,1,0,0:0:0:0:
210,361,23788,1,8,0:0:0:0:
62,361,24232,6,0,L|62:295,1,62.5,0|2,0:0|0:0,0:0:0:0:
2,253,24677,2,0,L|2:187,1,62.5,8|2,0:0|0:0,0:0:0:0:
2,116,25121,1,0,0:0:0:0:
129,41,25565,1,8,0:0:0:0:
256,116,26010,6,0,L|318:116,1,62.5,4|2,0:0|0:0,0:0:0:0:
392,116,26454,1,8,0:0:0:0:
500,216,26899,2,0,L|500:284,1,62.5,4|2,0:0|0:0,0:0:0:0:
500,352,27343,1,8,0:0:0:0:
371,278,27788,5,4,0:0:0:0:
387,206,28010,1,8,0:0:0:0:
328,160,28232,1,8,0:0:0:0:
184,160,28677,5,4,0:0:0:0:
125,206,28899,1,8,0:0:0:0:
141,278,29121,1,8,0:0:0:0:
256,369,29565,5,4,0:0:0:0:
256,99,30899,5,0,0:0:0:0:
256,26,31121,1,2,0:0:0:0:
102,192,32677,5,0,0:0:0:0:
29,192,32899,1,2,0:0:0:0:
410,192,34454,5,0,0:0:0:0:
483,192,34677,1,2,0:0:0:0:
256,192,36010,5,2,0:0:0:0:
256,265,36232,1,0,0:0:0:0:
182,265,36454,2,0,P|171:316|109:337,1,125,2|2,0:0|0:0,0:0:0:0:
256,352,37343,1,2,0:0:0:0:
403,337,37788,6,0,P|345:322|330:265,1,125,2|2,0:0|0:0,0:0:0:0:
256,136,38677,1,2,0:0:0:0:
116,87,39121,2,0,B|142:31|142:31|219:10,1,125,2|2,0:0|0:0,0:0:0:0:
257,64,39788,1,0,0:0:0:0:
308,14,40010,2,0,B|370:31|370:31|396:87,1,125,2|2,0:0|0:0,0:0:0:0:
396,382,41343,5,2,0:0:0:0:
256,332,41788,1,2,0:0:0:0:
116,382,42232,1,2,0:0:0:0:
8,29,43343,6,0,L|94:17,1,62.5,4|2,0:0|0:0,0:0:0:0:
128,66,43788,1,4,0:0:0:0:
256,131,44232,1,0,0:0:0:0:
384,66,44677,1,0,0:0:0:0:
442,20,44899,6,0,L|504:29,2,62.5,2|0|2,0:0|0:0|0:0,0:0:0:0:
384,66,45565,1,0,0:0:0:0:
256,0,46010,1,8,0:0:0:0:
128,66,46454,1,0,0:0:0:0:
256,131,46899,6,0,L|257:201,1,62.5,8|2,0:0|0:0,0:0:0:0:
256,267,47343,1,4,3:0:0:0:
183,131,47788,1,8,0:0:0:0:
329,131,48232,1,0,0:0:0:0:
425,249,48677,6,0,P|413:287|381:320,1,62.5,8|2,0:0|0:0,0:0:0:0:
256,267,49343,1,2,0:0:0:0:
113,304,49788,1,2,0:0:0:0:
256,343,50232,1,2,0:0:0:0:
256,192,50677,2,0,L|256:107,2,62.5,2|4|2,0:0|3:0|0:0,0:0:0:0:
256,267,51343,1,8,0:0:0:0:
183,57,52010,5,2,0:0:0:0:
183,130,52232,1,8,0:0:0:0:
329,130,52677,1,4,3:0:0:0:
256,267,53121,1,8,0:0:0:0:
108,267,53565,6,0,L|35:267,1,62.5,0|2,0:0|0:0,0:0:0:0:
46,119,54232,1,2,0:0:0:0:
151,15,54677,1,8,0:0:0:0:
256,119,55121,1,0,0:0:0:0:
361,15,55565,1,8,0:0:0:0:
466,119,56010,2,0,B|487:185|487:185|423:185|390:255,1,187.5,8|2,0:0|0:0,0:0:0:0:
256,192,57121,5,2,0:0:0:0:
256,339,57565,1,4,0:0:0:0:
108,339,58010,6,0,B|46:339|46:339|11:281,1,125,4|0,0:0|0:0,0:0:0:0:
13,137,58899,2,0,B|13:75|13:75|71:40,1,125
140,42,59565,1,2,0:0:0:0:
214,41,59788,1,0,0:0:0:0:
256,192,60232,1,0,0:0:0:0:
256,339,60677,6,0,L|332:339,1,62.5,0|2,0:0|0:0,0:0:0:0:
392,339,61121,2,0,L|445:285,1,62.5,0|2,0:0|0:0,0:0:0:0:
483,238,61565,1,0,0:0:0:0:
483,90,62010,1,0,0:0:0:0:
335,90,62454,6,0,L|290:45,1,62.5,0|2,0:0|0:0,0:0:0:0:
217,45,62899,2,0,L|172:0,1,62.5,0|2,0:0|0:0,0:0:0:0:
99,0,63343,2,0,L|23:0,2,62.5,0|2|0,0:0|0:0|0:0,0:0:0:0:
99,147,64232,6,0,B|99:209|99:209|41:244,1,125
82,305,64899,2,0,B|141:271|141:271|217:271|241:363,1,187.5,2|0,0:0|0:0,0:0:0:0:
379,336,66010,2,0,P|411:322|434:284,1,62.5,0|2,0:0|0:0,0:0:0:0:
445,229,66454,2,0,P|459:197|497:174,1,62.5,0|2,0:0|0:0,0:0:0:0:
479,106,66899,5,0,0:0:0:0:
368,8,67343,1,0,0:0:0:0:
256,106,67788,1,0,0:0:0:0:
256,253,68232,1,0,0:0:0:0:
256,326,68454,6,0,B|256:374|256:374|163:374,1,125,2|2,0:0|0:0,0:0:0:0:
104,374,69121,1,0,0:0:0:0:
104,300,69343,2,0,B|27:300|27:300|27:252,1,125,2|2,0:0|0:0,0:0:0:0:
27,177,70010,1,0,0:0:0:0:
27,103,70232,2,0,B|27:55|27:55|104:55,1,125,2|8,0:0|0:0,0:0:0:0:
178,55,70899,1,8,0:0:0:0:
256,179,71343,5,8,0:0:0:0:
403,179,71788,1,4,0:0:0:0:
403,252,72010,2,0,L|403:330,2,62.5,8|4|2,0:0|0:0|0:0,0:0:0:0:
477,252,72677,1,8,0:0:0:0:
477,104,73121,6,0,B|477:50|477:50|448:16|393:16,1,125,0|8,0:0|0:0,0:0:0:0:
351,53,73788,1,2,0:0:0:0:
285,18,74010,2,0,B|253:17|223:52|223:52|223:105,1,125,0|8,0:0|0:0,0:0:0:0:
223,251,74899,6,0,L|166:307,1,62.5,0|2,0:0|0:0,0:0:0:0:
105,295,75343,2,0,L|60:250,1,62.5,8|2,0:0|0:0,0:0:0:0:
8,197,75788,1,0,0:0:0:0:
8,49,76232,5,8,0:0:0:0:
63,1,76454,1,2,0:0:0:0:
137,1,76677,2,0,L|203:1,1,62.5,0|2,0:0|0:0,0:0:0:0:
256,47,77121,2,0,L|256:113,1,62.5,8|2,0:0|0:0,0:0:0:0:
256,183,77565,2,0,B|256:245|256:245|314:280,1,125,0|8,0:0|0:0,0:0:0:0:
457,278,78454,5,0,0:0:0:0:
457,127,78899,1,8,0:0:0:0:
457,52,79121,2,0,B|457:1|457:1|356:1,1,125,2|2,0:0|0:0,0:0:0:0:
307,1,79788,1,8,0:0:0:0:
157,1,80232,6,0,L|94:1,1,62.5,0|2,0:0|0:0,0:0:0:0:
19,1,80677,2,0,L|19:63,1,62.5,8|2,0:0|0:0,0:0:0:0:
19,138,81121,1,0,0:0:0:0:
128,239,81565,1,8,0:0:0:0:
237,340,82010,6,0,B|299:340|299:340|334:287,1,125,0|8,0:0|0:0,0:0:0:0:
367,221,82677,2,0,B|402:168|402:168|464:168,1,125,2|2,0:0|0:0,0:0:0:0:
512,115,83343,1,8,0:0:0:0:
463,59,83565,2,0,B|400:59|400:59|366:6,1,125,2|2,0:0|0:0,0:0:0:0:
292,6,84232,1,8,0:0:0:0:
218,6,84454,2,0,B|182:59|182:59|121:59,1,125,2|8,0:0|0:0,0:0:0:0:
182,192,85343,5,0,0:0:0:0:
182,265,85565,2,0,L|182:338,1,62.5,12|0,0:0|0:0,0:0:0:0:
330,265,86232,5,8,0:0:0:0:
330,192,86454,1,4,0:0:0:0:
330,4,87343,5,2,0:0:0:0:
182,4,87788,1,2,0:0:0:0:
89,122,88232,2,0,P|101:155|137:186,1,62.5,4|2,0:0|0:0,0:0:0:0:
193,192,88677,2,0,L|265:192,1,62.5,8|2,0:0|0:0,0:0:0:0:
330,192,89121,5,0,0:0:0:0:
472,192,89565,1,8,0:0:0:0:
472,339,90010,2,0,L|409:339,1,62.5,0|2,0:0|0:0,0:0:0:0:
330,339,90454,2,0,P|306:359|276:369,1,62.5,8|2,0:0|0:0,0:0:0:0:
200,369,90899,5,0,0:0:0:0:
59,369,91343,1,8,0:0:0:0:
59,221,91788,2,0,P|38:197|28:167,1,62.5,0|2,0:0|0:0,0:0:0:0:
28,94,92232,2,0,P|48:70|58:40,1,62.5,8|2,0:0|0:0,0:0:0:0:
121,1,92677,5,0,0:0:0:0:
194,1,92899,2,0,L|256:1,1,62.5,2|8,0:0|0:0,0:0:0:0:
330,1,93343,2,0,B|366:46|366:46|444:46,1,125,2|2,0:0|0:0,0:0:0:0:
433,120,94010,2,0,B|366:120|366:120|330:165,1,125,8|0,0:0|0:0,0:0:0:0:
182,165,94899,5,8,0:0:0:0:
34,165,95343,2,0,L|34:245,1,62.5,4|2,0:0|0:0,0:0:0:0:
34,301,95788,2,0,L|90:357,1,62.5,8|2,0:0|0:0,0:0:0:0:
151,345,96232,5,0,0:0:0:0:
256,241,96677,1,8,0:0:0:0:
361,345,97121,2,0,L|423:345,1,62.5,0|2,0:0|0:0,0:0:0:0:
423,270,97565,2,0,L|467:225,1,62.5,8|2,0:0|0:0,0:0:0:0:
467,152,98010,5,0,0:0:0:0:
467,4,98454,1,8,0:0:0:0:
318,4,98899,2,0,L|248:4,1,62.5,4|2,0:0|0:0,0:0:0:0:
256,77,99343,2,0,L|186:77,1,62.5,8|2,0:0|0:0,0:0:0:0:
119,77,99788,5,4,0:0:0:0:
64,126,100010,2,0,L|64:187,1,62.5,2|8,0:0|0:0,0:0:0:0:
64,262,100454,2,0,B|100:307|100:307|178:307,1,125,2|8,0:0|0:0,0:0:0:0:
241,307,101121,2,0,B|308:307|308:307|344:352,1,125,8|4,0:0|0:0,0:0:0:0:
418,352,101788,5,8,0:0:0:0:
476,306,102010,2,0,L|476:226,1,62.5,8|8,0:0|0:0,0:0:0:0:
476,169,102454,1,4,0:0:0:0:
