osu file format v14

[General]
AudioFilename: audio.mp3
AudioLeadIn: 0
PreviewTime: 86677
Countdown: 0
SampleSet: Normal
StackLeniency: 0.5
Mode: 0
LetterboxInBreaks: 0
EpilepsyWarning: 1
WidescreenStoryboard: 1
SamplesMatchPlaybackRate: 1

[Editor]
Bookmarks: 15290,24179,43290,50179,72179,88179,102401
DistanceSpacing: 1
BeatDivisor: 4
GridSize: 8
TimelineZoom: 2.799999

[Metadata]
Title:When You Leave (Numa Numa) (Basshunter Remix) (Cut Ver.)
TitleUnicode:When You Leave (Numa Numa) (Basshunter Remix) (Cut Ver.)
Artist:Alina
ArtistUnicode:Alina
Creator:-Ady
Version:DvxNL's Light Insane RAVE!
Source:
Tags:trance techno electronic remix dance english dragostea din tei words of love dan balan bălan o-zone DvxNL moldovan appetible P_O
BeatmapID:3540003
BeatmapSetID:1731160

[Difficulty]
HPDrainRate:5
CircleSize:3.8
OverallDifficulty:7
ApproachRate:7.5
SliderMultiplier:1.6
SliderTickRate:1

[Events]
//Background and Video events
0,0,"ALINA.jpg",0,0
//Break Periods
//Storyboard Layer 0 (Background)
//Storyboard Layer 1 (Fail)
//Storyboard Layer 2 (Pass)
//Storyboard Layer 3 (Foreground)
//Storyboard Layer 4 (Overlay)
//Storyboard Sound Samples

[TimingPoints]
13566,444.444444444444,4,1,1,70,1,0
14899,-100,4,1,2,70,0,0
15010,-100,4,1,1,70,0,0
15343,-100,4,1,0,70,0,1
15454,-100,4,1,1,70,0,1
28899,-100,4,1,1,30,0,1
29121,-100,4,1,1,50,0,1
29343,-100,4,1,1,56,0,1
29565,-100,4,1,0,60,0,0
29677,-100,4,2,1,40,0,0
43343,-100,4,2,1,40,0,0
43788,-100,4,2,1,40,0,0
49121,-100,4,2,1,42,0,0
50899,-100,4,2,1,45,0,0
53454,-100,4,2,1,50,0,0
54624,-100,4,1,0,55,0,0
56179,-100,4,1,0,65,0,0
56290,-100,4,2,0,40,0,0
57121,-100,4,2,0,30,0,0
57512,-100,4,1,2,70,0,0
57624,-100,4,2,1,40,0,0
58010,-100,4,1,0,70,0,1
58121,-100,4,1,1,70,0,1
71735,-100,4,1,2,70,0,1
71846,-100,4,1,1,70,0,1
72121,-100,4,1,1,70,0,0
72232,-100,4,1,0,70,0,1
72343,-100,4,1,1,70,0,1
84677,-100,4,1,1,70,0,0
84846,-100,4,1,0,50,0,0
86454,-100,4,1,0,50,0,0
86565,-100,4,2,1,50,0,0
88232,-100,4,1,0,70,0,1
88343,-100,4,1,1,70,0,1
100901,-100,4,1,0,70,0,1
101565,-100,4,1,0,30,0,1
101788,-100,4,1,0,34,0,1
102010,-100,4,1,0,40,0,1
102179,-100,4,1,0,43,0,1
102454,-100,4,1,0,70,0,0

[Colours]
Combo1 : 85,122,185
Combo2 : 205,141,160
Combo3 : 255,89,89
Combo4 : 156,168,209
Combo5 : 209,200,163

[HitObjects]
256,29,14899,5,4,0:0:0:0:
256,149,15343,6,0,L|168:181,1,80,4|2,0:0|0:0,0:0:0:0:
256,269,15788,2,0,L|344:301,1,80,8|2,0:0|0:0,0:0:0:0:
445,332,16232,2,0,P|437:276|405:164,1,160,0|8,0:0|0:0,0:0:0:0:
364,110,16899,5,2,0:0:0:0:
512,119,17121,2,0,L|436:91,1,80,0|2,0:0|0:0,0:0:0:0:
334,203,17565,2,0,L|409:175,1,80,8|2,0:0|0:0,0:0:0:0:
277,132,18010,2,0,P|254:208|241:287,1,160,0|8,0:0|0:0,0:0:0:0:
261,365,18677,5,2,0:0:0:0:
108,371,18899,2,0,L|183:343,1,80,0|2,0:0|0:0,0:0:0:0:
83,276,19343,2,0,L|7:248,1,80,8|2,0:0|0:0,0:0:0:0:
132,86,19788,2,0,P|154:162|167:241,1,160,0|8,0:0|0:0,0:0:0:0:
286,348,20454,6,0,P|246:353|210:371,1,80,2|0,0:0|0:0,0:0:0:0:
392,265,20899,2,0,P|431:270|467:288,2,80,2|8|2,0:0|0:0|0:0,0:0:0:0:
202,180,21565,1,0,0:0:0:0:
234,86,21788,1,2,0:0:0:0:
328,117,22010,1,8,0:0:0:0:
294,212,22232,1,2,0:0:0:0:
202,180,22454,6,0,L|127:152,1,80,4|2,0:0|0:0,0:0:0:0:
149,270,22899,2,0,L|224:298,1,80,8|2,0:0|0:0,0:0:0:0:
328,117,23343,2,0,L|356:42,1,80,0|2,0:0|0:0,0:0:0:0:
474,20,23788,2,0,L|446:95,1,80,8|2,0:0|0:0,0:0:0:0:
438,295,24232,6,0,L|513:323,1,80,0|2,0:0|0:0,0:0:0:0:
491,205,24677,2,0,L|416:177,1,80,8|2,0:0|0:0,0:0:0:0:
210,138,25121,2,0,L|182:213,1,80,0|2,0:0|0:0,0:0:0:0:
300,191,25565,2,0,L|328:116,1,80,8|2,0:0|0:0,0:0:0:0:
228,57,26010,6,0,B|190:46|155:75|155:75|69:53,1,160,4|8,0:0|0:0,0:0:0:0:
353,331,26899,2,0,B|391:342|426:313|426:313|512:335,1,160,4|8,0:0|0:0,0:0:0:0:
366,252,27788,5,4,0:0:0:0:
294,228,28010,1,8,0:0:0:0:
214,140,28232,1,8,0:0:0:0:
142,164,28454,1,0,0:0:0:0:
298,142,28677,2,0,L|309:38,1,80,4|8,0:0|0:0,0:0:0:0:
294,228,29121,6,0,L|294:248,8,20,8|8|8|8|8|8|8|8|4,0:0|0:0|0:0|0:0|0:0|0:0|0:0|0:0|0:0,0:0:0:0:
364,190,29788,1,2,0:0:0:0:
436,223,30010,2,0,P|449:260|455:300,1,80,0|2,0:0|0:0,0:0:0:0:
509,191,30454,2,0,P|492:137|490:31,1,160
397,44,31121,5,2,0:0:0:0:
397,44,31343,2,0,L|304:25,1,80,0|2,0:0|0:0,0:0:0:0:
241,49,31788,2,0,L|162:65,1,80,0|2,0:0|0:0,0:0:0:0:
69,41,32232,2,0,P|52:95|50:201,1,160
97,288,32899,5,2,0:0:0:0:
97,288,33121,2,0,L|17:299,1,80,0|2,0:0|0:0,0:0:0:0:
126,362,33565,2,0,L|206:351,1,80,0|2,0:0|0:0,0:0:0:0:
300,362,34010,2,0,P|317:308|319:202,1,160
234,172,34677,5,2,0:0:0:0:
234,172,34899,2,0,L|223:252,1,80,0|2,0:0|0:0,0:0:0:0:
116,241,35343,2,0,L|105:321,2,80,0|2|0,0:0|0:0|0:0,0:0:0:0:
73,163,36010,1,2,0:0:0:0:
0,117,36232,1,0,0:0:0:0:
161,152,36454,6,0,L|319:131,1,160,2|2,0:0|0:0,0:0:0:0:
380,71,37121,2,0,P|400:104|402:144,1,80,0|2,0:0|0:0,0:0:0:0:
351,208,37565,1,0,0:0:0:0:
483,259,37788,6,0,L|493:180,1,80,2|0,0:0|0:0,0:0:0:0:
351,208,38232,2,0,P|364:286|387:363,1,160,2|2,0:0|0:0,0:0:0:0:
461,334,38899,1,0,0:0:0:0:
290,316,39121,2,0,B|208:305|234:374|138:357,1,160,2|2,0:0|0:0,0:0:0:0:
77,311,39788,1,0,0:0:0:0:
7,353,40010,6,0,P|30:282|40:171,1,160,2|2,0:0|0:0,0:0:0:0:
75,47,40677,2,0,L|85:148,1,80,0|2,0:0|0:0,0:0:0:0:
170,200,41121,2,0,L|177:120,2,80,0|2|0,0:0|0:0|0:0,0:0:0:0:
276,366,41788,6,0,P|266:283|270:182,1,160,2|2,0:0|0:0,0:0:0:0:
390,134,42454,2,0,L|380:235,1,80,0|2,0:0|0:0,0:0:0:0:
499,347,42899,2,0,L|491:267,1,80,0|2,0:0|0:0,0:0:0:0:
345,328,43343,1,4,0:0:0:0:
414,287,43565,1,0,0:0:0:0:
210,311,43788,6,0,P|193:251|151:142,1,160,4|0,0:0|0:0,0:0:0:0:
85,127,44454,1,2,0:0:0:0:
148,77,44677,2,0,L|238:61,1,80,0|2,0:0|0:0,0:0:0:0:
261,134,45121,2,0,L|339:148,1,80,0|2,0:0|0:0,0:0:0:0:
465,135,45565,6,0,P|436:209|413:286,1,160,0|8,0:0|0:0,0:0:0:0:
439,362,46232,1,2,0:0:0:0:
360,344,46454,2,0,L|270:328,1,80,0|2,0:0|0:0,0:0:0:0:
222,275,46899,2,0,L|143:289,1,80,8|2,0:0|0:0,0:0:0:0:
65,308,47343,5,4,3:0:0:0:
303,258,47788,1,8,0:0:0:0:
65,308,48454,6,0,P|81:271|76:219,2,80,4|8|2,3:0|0:0|0:0,0:0:0:0:
24,165,49121,2,0,B|112:112|109:203|201:134,1,160,4|8,3:0|0:0,0:0:0:0:
154,0,49788,6,0,P|138:37|140:77,1,80,2|0,0:0|0:0,0:0:0:0:
243,202,50232,2,0,P|258:165|257:125,2,80,2|8|2,0:0|0:0|0:0,0:0:0:0:
324,23,50899,2,0,P|393:39|478:89,1,160,4|8,3:0|0:0,0:0:0:0:
468,101,51788,6,0,L|457:181,1,80,0|2,0:0|0:0,0:0:0:0:
350,280,52232,2,0,L|339:201,1,80,8|2,0:0|0:0,0:0:0:0:
104,129,52677,2,0,P|165:166|260:191,1,160,4|8,3:0|0:0,0:0:0:0:
258,171,53565,6,0,L|263:91,1,80,0|2,0:0|0:0,0:0:0:0:
98,49,54010,2,0,L|104:140,1,80,8|2,0:0|0:0,0:0:0:0:
277,329,54454,5,4,3:0:0:0:
348,257,54677,1,8,0:0:0:0:
206,258,54899,1,8,0:0:0:0:
277,187,55121,1,0,0:0:0:0:
277,187,55232,1,8,0:0:0:0:
277,187,55343,2,0,L|258:53,2,120,8|8|8,0:0|0:0|0:0,0:0:0:0:
256,192,56232,12,4,57565,0:0:0:0:
439,247,58010,6,0,L|460:325,1,80,4|2,0:0|0:0,0:0:0:0:
279,244,58454,2,0,L|300:167,1,80,0|2,0:0|0:0,0:0:0:0:
436,75,58899,5,0,0:0:0:0:
421,154,59121,1,2,0:0:0:0:
357,263,59343,1,0,0:0:0:0:
372,342,59565,1,2,0:0:0:0:
300,167,59788,2,0,L|207:155,1,80,0|2,0:0|0:0,0:0:0:0:
171,266,60232,2,0,L|91:276,1,80,0|2,0:0|0:0,0:0:0:0:
6,176,60677,5,0,0:0:0:0:
1,97,60899,1,2,0:0:0:0:
108,113,61121,1,0,0:0:0:0:
103,34,61343,1,2,0:0:0:0:
258,170,61565,2,0,L|253:91,1,80,0|2,0:0|0:0,0:0:0:0:
368,123,62010,2,0,L|373:43,1,80,0|2,0:0|0:0,0:0:0:0:
471,185,62454,5,0,0:0:0:0:
476,264,62677,1,2,0:0:0:0:
369,248,62899,1,0,0:0:0:0:
374,327,63121,1,2,0:0:0:0:
259,198,63343,1,0,0:0:0:0:
264,277,63565,1,2,0:0:0:0:
103,278,63788,2,0,L|107:358,1,80,0|2,0:0|0:0,0:0:0:0:
10,178,64232,6,0,P|55:148|167:125,1,160,0|0,0:0|0:0,0:0:0:0:
231,155,64899,1,2,0:0:0:0:
372,120,65121,2,0,B|274:135|309:63|206:73,1,160
157,124,65788,1,2,0:0:0:0:
159,283,66010,5,0,0:0:0:0:
172,204,66232,1,2,0:0:0:0:
84,94,66454,1,0,0:0:0:0:
97,173,66677,1,2,0:0:0:0:
148,43,66899,6,0,P|80:10|15:50,1,160
231,155,67565,1,2,0:0:0:0:
231,155,67788,2,0,P|283:188|369:138,1,160,0|0,0:0|0:0,0:0:0:0:
401,76,68454,1,2,0:0:0:0:
287,25,68677,6,0,L|302:139,1,80,0|2,0:0|0:0,0:0:0:0:
238,234,69121,2,0,L|230:154,1,80,0|2,0:0|0:0,0:0:0:0:
104,331,69565,2,0,P|207:330|285:357,1,160
331,383,70232,1,2,0:0:0:0:
324,303,70454,5,0,0:0:0:0:
451,205,70677,1,8,0:0:0:0:
458,285,70899,1,8,0:0:0:0:
380,245,71121,1,8,0:0:0:0:
380,245,71232,1,8,0:0:0:0:
380,245,71343,2,0,L|361:136,1,80,8|8,0:0|0:0,0:0:0:0:
167,31,71788,54,0,P|195:91|213:176,1,120,4|0,0:0|0:0,0:0:0:0:
202,162,72232,6,0,L|107:185,1,80,4|2,0:0|0:0,0:0:0:0:
196,324,72677,2,0,L|291:347,1,80,8|2,0:0|0:0,0:0:0:0:
365,287,73121,5,0,0:0:0:0:
422,231,73343,1,2,0:0:0:0:
474,291,73565,1,8,0:0:0:0:
417,347,73788,1,2,0:0:0:0:
339,206,74010,2,0,L|349:116,1,80,0|2,0:0|0:0,0:0:0:0:
264,263,74454,2,0,L|272:342,1,80,8|2,0:0|0:0,0:0:0:0:
106,191,74899,5,0,0:0:0:0:
186,203,75121,1,2,0:0:0:0:
289,142,75343,1,8,0:0:0:0:
369,130,75565,1,2,0:0:0:0:
215,46,75788,2,0,L|209:125,2,80,0|2|8,0:0|0:0|0:0,0:0:0:0:
369,130,76454,5,2,0:0:0:0:
385,249,76677,1,0,0:0:0:0:
226,228,76899,1,2,0:0:0:0:
242,347,77121,1,8,0:0:0:0:
50,194,77343,1,2,0:0:0:0:
66,313,77565,1,0,0:0:0:0:
185,297,77788,1,2,0:0:0:0:
169,177,78010,2,0,L|178:87,1,80,8|2,0:0|0:0,0:0:0:0:
364,202,78454,6,0,P|442:135|483:63,1,160,0|8,0:0|0:0,0:0:0:0:
463,7,79121,1,2,0:0:0:0:
322,37,79343,2,0,L|421:55,1,80,0|2,0:0|0:0,0:0:0:0:
276,152,79788,2,0,L|177:170,1,80,8|2,0:0|0:0,0:0:0:0:
109,349,80232,5,0,0:0:0:0:
29,337,80454,1,2,0:0:0:0:
126,245,80677,1,8,0:0:0:0:
206,233,80899,1,2,0:0:0:0:
110,150,81121,2,0,L|26:136,1,80,0|2,0:0|0:0,0:0:0:0:
161,61,81565,2,0,L|245:47,1,80,8|2,0:0|0:0,0:0:0:0:
359,147,82010,6,0,P|326:237|306:319,1,160,0|8,0:0|0:0,0:0:0:0:
348,369,82677,1,2,0:0:0:0:
180,341,82899,2,0,L|-1:359,1,160,0|8,0:0|0:0,0:0:0:0:
88,227,83565,2,0,L|269:245,1,160,2|2,0:0|0:0,0:0:0:0:
310,299,84232,1,8,0:0:0:0:
326,220,84454,1,2,0:0:0:0:
444,334,84677,5,4,0:0:0:0:
292,377,84899,1,8,0:0:0:0:
386,274,85121,1,8,0:0:0:0:
370,353,85343,1,0,0:0:0:0:
394,195,85565,6,0,L|393:162,16,20,12|0|0|0|0|0|0|0|8|0|0|0|0|0|0|0|4,0:0|0:0|0:0|0:0|0:0|0:0|0:0|0:0|0:0|0:0|0:0|0:0|0:0|0:0|0:0|0:0|0:0,0:0:0:0:
256,192,86565,12,2,87788,0:0:0:0:
394,195,88232,6,0,L|376:98,1,80,4|2,0:0|0:0,0:0:0:0:
246,26,88677,2,0,L|231:104,1,80,8|2,0:0|0:0,0:0:0:0:
105,233,89121,2,0,P|228:233|277:220,1,160,0|8,0:0|0:0,0:0:0:0:
306,153,89788,5,2,0:0:0:0:
434,243,90010,2,0,L|468:335,1,80,0|2,0:0|0:0,0:0:0:0:
379,116,90454,2,0,L|406:40,1,80,8|2,0:0|0:0,0:0:0:0:
334,236,90899,2,0,P|259:186|173:163,1,160,0|8,0:0|0:0,0:0:0:0:
113,160,91565,5,2,0:0:0:0:
144,332,91788,2,0,L|155:238,1,80,0|2,0:0|0:0,0:0:0:0:
30,194,92232,2,0,L|19:100,1,80,8|2,0:0|0:0,0:0:0:0:
254,95,92677,2,0,P|169:125|88:127,1,160,0|8,0:0|0:0,0:0:0:0:
67,53,93343,6,0,P|102:15|149:-10,1,80,2|0,0:0|0:0,0:0:0:0:
254,95,93788,2,0,P|286:117|312:148,2,80,2|8|2,0:0|0:0|0:0,0:0:0:0:
124,223,94454,1,0,0:0:0:0:
160,327,94677,1,2,0:0:0:0:
263,293,94899,1,8,0:0:0:0:
226,188,95121,1,2,0:0:0:0:
160,327,95343,6,0,L|85:355,1,80,4|2,0:0|0:0,0:0:0:0:
49,250,95788,1,8,0:0:0:0:
123,222,96010,1,2,0:0:0:0:
309,219,96232,2,0,L|384:247,1,80,0|2,0:0|0:0,0:0:0:0:
420,142,96677,1,8,0:0:0:0:
345,114,96899,1,2,0:0:0:0:
129,77,97121,6,0,L|162:149,1,80,0|2,0:0|0:0,0:0:0:0:
261,100,97565,1,8,0:0:0:0:
227,27,97787,1,2,0:0:0:0:
308,218,98010,2,0,L|275:291,1,80,0|2,0:0|0:0,0:0:0:0:
373,340,98454,1,8,0:0:0:0:
407,267,98676,1,2,0:0:0:0:
355,123,98899,6,0,L|453:107,1,80,4|2,0:0|0:0,0:0:0:0:
306,40,99343,2,0,L|208:24,1,80,8|2,0:0|0:0,0:0:0:0:
68,221,99788,2,0,L|147:234,1,80,4|2,0:0|0:0,0:0:0:0:
274,138,100232,2,0,L|196:151,1,80,8|2,0:0|0:0,0:0:0:0:
247,377,100677,5,4,0:0:0:0:
254,297,100899,1,8,0:0:0:0:
264,217,101121,2,0,L|276:123,1,80,8|0,0:0|0:0,0:0:0:0:
292,33,101565,6,0,L|295:61,14,20,4|0|0|0|8|8|8|8|8|8|8|8|8|8|8,0:0|0:0|0:0|0:0|0:0|0:0|0:0|0:0|0:0|0:0|0:0|0:0|0:0|0:0|0:0,0:0:0:0:
287,15,102454,5,4,0:0:0:0:
