osu file format v14

[General]
AudioFilename: audio.mp3
AudioLeadIn: 0
PreviewTime: 86677
Countdown: 0
SampleSet: Normal
StackLeniency: 0.5
Mode: 0
LetterboxInBreaks: 0
EpilepsyWarning: 1
WidescreenStoryboard: 1
SamplesMatchPlaybackRate: 1

[Editor]
Bookmarks: 15290,24179,43343,50232,72179,88179,102454
DistanceSpacing: 1.2
BeatDivisor: 4
GridSize: 16
TimelineZoom: 2.799999

[Metadata]
Title:When You Leave (Numa Numa) (Basshunter Remix) (Cut Ver.)
TitleUnicode:When You Leave (Numa Numa) (Basshunter Remix) (Cut Ver.)
Artist:Alina
ArtistUnicode:Alina
Creator:-Ady
Version:Appe's Hard RAVE!
Source:
Tags:trance techno electronic remix dance english dragostea din tei words of love dan balan bălan o-zone DvxNL moldovan appetible P_O
BeatmapID:3552049
BeatmapSetID:1731160

[Difficulty]
HPDrainRate:5
CircleSize:3.5
OverallDifficulty:6
ApproachRate:7
SliderMultiplier:1.7
SliderTickRate:2

[Events]
//Background and Video events
0,0,"ALINA.jpg",0,0
//Break Periods
//Storyboard Layer 0 (Background)
//Storyboard Layer 1 (Fail)
//Storyboard Layer 2 (Pass)
//Storyboard Layer 3 (Foreground)
//Storyboard Layer 4 (Overlay)
//Storyboard Sound Samples

[TimingPoints]
13566,444.444444444444,4,1,1,70,1,0
14454,-100,4,2,0,70,0,0
14513,-100,4,2,0,40,0,0
14899,-100,4,1,2,70,0,0
14957,-100,4,1,1,70,0,0
15121,-100,4,2,0,50,0,0
15343,-100,4,1,0,70,0,1
15401,-100,4,1,1,70,0,1
28899,-100,4,1,1,30,0,1
29121,-100,4,1,1,50,0,1
29343,-100,4,1,1,56,0,1
29565,-142.857142857143,4,1,0,60,0,0
29624,-142.857142857143,4,2,1,40,0,0
43401,-125,4,2,1,20,0,0
43788,-125,4,2,1,40,0,0
49121,-125,4,2,1,42,0,0
50899,-111.111111111111,4,2,1,45,0,0
53401,-100,4,2,1,50,0,0
54677,-100,4,1,0,55,0,0
56232,-100,4,1,0,65,0,0
56290,-100,4,2,0,40,0,0
57121,-100,4,2,0,30,0,0
57565,-100,4,1,2,70,0,0
57624,-100,4,2,1,40,0,0
58010,-100,4,1,0,70,0,1
58068,-100,4,1,1,70,0,1
71788,-100,4,1,2,70,0,1
71846,-100,4,1,1,70,0,1
72121,-100,4,1,1,70,0,0
72232,-100,4,1,0,70,0,1
72290,-100,4,1,1,70,0,1
84677,-100,4,1,1,70,0,0
84788,-100,4,1,0,50,0,0
86454,-100,4,1,0,50,0,0
86512,-100,4,2,1,50,0,0
88232,-100,4,1,0,70,0,1
88290,-100,4,1,1,70,0,1
100901,-100,4,1,0,70,0,1
102454,-100,4,1,0,70,0,0

[Colours]
Combo1 : 85,122,185
Combo2 : 205,141,160
Combo3 : 255,89,89
Combo4 : 156,168,209
Combo5 : 209,200,163

[HitObjects]
42,192,14454,6,0,B|112:192|112:192|121:187|121:187|121:196|121:196|130:192|130:192|201:192,1,170,2|4,0:0|0:0,0:0:0:0:
256,106,15121,1,2,0:0:0:0:
310,192,15343,5,4,0:0:0:0:
365,106,15565,1,2,0:0:0:0:
365,106,15677,1,0,0:0:0:0:
365,106,15788,2,0,P|405:95|446:106,1,85,8|2,0:0|0:0,0:0:0:0:
500,192,16232,2,0,B|473:232|493:272|500:272|506:272|526:312|500:352,1,170,0|8,0:0|0:0,0:0:0:0:
414,305,16899,1,2,0:0:0:0:
335,352,17121,5,0,0:0:0:0:
256,305,17343,1,2,0:0:0:0:
256,305,17454,1,0,0:0:0:0:
256,305,17565,2,0,P|245:264|255:223,1,85,8|2,0:0|0:0,0:0:0:0:
332,156,18010,2,0,P|255:125|179:157,1,170,0|8,0:0|0:0,0:0:0:0:
106,84,18677,1,2,0:0:0:0:
33,156,18899,5,0,0:0:0:0:
105,228,19121,1,2,0:0:0:0:
105,228,19232,1,0,0:0:0:0:
105,228,19343,2,0,P|95:268|105:309,1,85,8|2,0:0|0:0,0:0:0:0:
194,268,19788,2,0,B|239:277|256:320|256:320|273:277|318:268,1,170,0|8,0:0|0:0,0:0:0:0:
256,192,20454,6,0,L|256:107,1,85,2|0,0:0|0:0,0:0:0:0:
298,14,20899,2,0,L|213:14,1,85,2|8,0:0|0:0,0:0:0:0:
111,14,21343,1,2,0:0:0:0:
111,14,21454,1,0,0:0:0:0:
111,14,21565,2,0,L|0:148,1,170,0|8,0:0|0:0,0:0:0:0:
93,192,22232,1,2,0:0:0:0:
2,239,22454,5,4,0:0:0:0:
93,287,22677,1,2,0:0:0:0:
93,287,22788,1,0,0:0:0:0:
93,287,22899,2,0,B|134:287|134:287|166:316,1,85,8|2,0:0|0:0,0:0:0:0:
255,266,23343,2,0,P|291:192|255:118,1,170,0|8,0:0|0:0,0:0:0:0:
166,67,24010,1,2,0:0:0:0:
256,20,24232,5,0,0:0:0:0:
345,67,24454,1,2,0:0:0:0:
345,67,24565,1,0,0:0:0:0:
345,67,24677,2,0,B|386:67|386:67|418:37,1,85,8|2,0:0|0:0,0:0:0:0:
491,109,25121,2,0,B|507:192|507:192|491:275,1,170,0|8,0:0|0:0,0:0:0:0:
416,358,25788,1,2,0:0:0:0:
336,274,26010,5,4,0:0:0:0:
256,358,26232,1,2,0:0:0:0:
256,358,26343,1,0,0:0:0:0:
256,358,26454,2,0,P|216:368|175:358,1,85,8|2,0:0|0:0,0:0:0:0:
92,274,26899,1,4,0:0:0:0:
174,192,27121,1,2,0:0:0:0:
174,192,27232,1,0,0:0:0:0:
174,192,27343,2,0,P|214:181|255:191,1,85,8|2,0:0|0:0,0:0:0:0:
339,107,27788,5,4,0:0:0:0:
420,192,28010,1,8,0:0:0:0:
420,192,28121,1,0,0:0:0:0:
420,192,28232,1,8,0:0:0:0:
339,276,28454,1,0,0:0:0:0:
339,276,28565,1,0,0:0:0:0:
339,276,28677,2,0,L|339:319,2,42.5,4|0|8,0:0|0:0|0:0,0:0:0:0:
256,192,29121,1,8,0:0:0:0:
173,276,29343,1,8,0:0:0:0:
173,276,29454,1,8,0:0:0:0:
173,276,29565,6,0,B|103:262|55:192|55:192|103:122|173:108,1,297.499990921021,4|2,0:0|0:0,0:0:0:0:
256,57,30899,1,0,0:0:0:0:
327,118,31121,6,0,P|456:192|328:265,1,356.999989105225,2|2,0:0|0:0,0:0:0:0:
255,326,32677,1,0,0:0:0:0:
184,265,32899,6,0,B|170:214|96:192|33:192|33:192|96:192|170:170|184:119,1,356.999989105225,2|2,0:0|0:0,0:0:0:0:
256,58,34454,1,0,0:0:0:0:
328,119,34677,6,0,B|458:192|458:192|328:265,1,297.499990921021,2|0,0:0|0:0,0:0:0:0:
256,327,36010,1,2,0:0:0:0:
183,264,36232,1,0,0:0:0:0:
111,327,36454,6,0,B|43:259|105:192|111:192|116:192|178:125|111:58,1,297.499990921021,2|0,0:0|0:0,0:0:0:0:
206,57,37788,6,0,P|256:30|306:58,1,118.999996368408,2|2,0:0|0:0,0:0:0:0:
440,192,38677,2,0,L|380:192,1,59.4999981842042,2|0,0:0|0:0,0:0:0:0:
338,277,39121,2,0,B|338:309|359:330|359:330|338:352|338:384,1,118.999996368408,2|2,0:0|0:0,0:0:0:0:
256,330,39788,1,0,0:0:0:0:
174,384,40010,2,0,B|174:352|153:330|153:330|174:309|174:277,1,118.999996368408,2|2,0:0|0:0,0:0:0:0:
204,134,41343,6,0,B|200:163|200:163|204:192,1,59.4999981842042,2|0,0:0|0:0,0:0:0:0:
306,192,41788,2,0,B|309:162|309:162|306:133,1,59.4999981842042,2|0,0:0|0:0,0:0:0:0:
396,192,42232,2,0,B|388:250|388:250|396:309,1,118.999996368408,2|2,0:0|0:0,0:0:0:0:
116,309,43343,5,4,0:0:0:0:
116,309,43565,2,0,B|116:267|144:235|184:235|184:235|208:235,1,136,2|2,0:0|0:0,0:0:0:0:
208,148,44232,2,0,L|140:148,1,68,0|2,0:0|0:0,0:0:0:0:
91,85,44677,1,0,0:0:0:0:
139,22,44899,2,0,L|206:22,1,68,2|0,0:0|0:0,0:0:0:0:
256,85,45343,2,0,B|309:85|309:85|318:80|318:80|318:89|318:89|327:85|327:85|380:85,1,136,2|2,0:0|0:0,0:0:0:0:
469,85,46010,2,0,L|469:153,1,68,8|0,0:0|0:0,0:0:0:0:
469,231,46454,2,0,L|469:299,1,68,0|2,0:0|0:0,0:0:0:0:
406,361,46899,1,8,0:0:0:0:
343,298,47121,6,0,B|343:247|343:247|343:202|309:171,1,136,2|2,0:0|0:0,0:0:0:0:
256,240,47788,2,0,L|256:308,2,68,8|0|0,0:0|0:0|0:0,0:0:0:0:
256,100,48677,1,8,0:0:0:0:
203,171,48899,2,0,B|169:202|169:247|169:247|169:298,1,136,2|2,0:0|0:0,0:0:0:0:
340,192,49788,1,2,0:0:0:0:
256,37,50232,2,0,L|188:37,1,68,2|8,0:0|0:0,0:0:0:0:
130,94,50677,6,0,B|62:94|62:94|11:139,1,136,2|2,0:0|0:0,0:0:0:0:
86,192,51343,2,0,L|163:192,2,76.4999976654053,8|2|0,0:0|0:0|0:0,0:0:0:0:
11,245,52010,1,2,0:0:0:0:
86,297,52232,2,0,L|163:297,1,76.4999976654053,8|2,0:0|0:0,0:0:0:0:
227,361,52677,2,0,P|263:297|227:233,1,152.999995330811,4|8,3:0|0:0,0:0:0:0:
144,192,53343,1,2,0:0:0:0:
79,127,53565,2,0,P|69:86|80:45,2,85,0|2|8,0:0|0:0|0:0,0:0:0:0:
144,192,54232,6,0,L|212:37,1,170,2|8,0:0|0:0,0:0:0:0:
256,127,54899,1,8,0:0:0:0:
300,37,55121,2,0,L|368:192,1,170,0|8,0:0|0:0,0:0:0:0:
440,120,55788,1,0,0:0:0:0:
512,192,56010,1,8,0:0:0:0:
512,192,56121,1,0,0:0:0:0:
512,192,56232,1,4,0:0:0:0:
512,192,57121,6,0,B|441:192|441:192|432:196|432:196|432:187|432:187|423:192|423:192|353:192,1,170,2|4,0:0|0:0,0:0:0:0:
256,192,57788,1,0,0:0:0:0:
256,90,58010,6,0,P|216:76|176:90,1,85,4|2,0:0|0:0,0:0:0:0:
88,141,58454,1,0,0:0:0:0:
88,243,58677,1,2,0:0:0:0:
176,293,58899,2,0,P|216:307|256:294,1,85,0|2,0:0|0:0,0:0:0:0:
328,366,59343,1,0,0:0:0:0:
400,293,59565,1,2,0:0:0:0:
327,220,59788,6,0,B|294:180|320:141|327:141|333:141|359:102|327:63,1,170,0|0,0:0|0:0,0:0:0:0:
256,0,60454,1,2,0:0:0:0:
185,63,60677,2,0,B|145:49|145:49|105:63,1,85,0|2,0:0|0:0,0:0:0:0:
25,127,61121,1,0,0:0:0:0:
104,192,61343,1,2,0:0:0:0:
25,257,61565,6,0,B|79:311|79:311|84:327|84:327|138:381,1,170,0|0,0:0|0:0,0:0:0:0:
199,298,62232,1,2,0:0:0:0:
257,382,62454,2,0,B|298:382|298:382|331:353,1,85,0|2,0:0|0:0,0:0:0:0:
404,281,62899,1,0,0:0:0:0:
445,192,63121,1,2,0:0:0:0:
404,103,63343,5,0,0:0:0:0:
331,30,63565,2,0,B|298:2|298:2|257:2,2,85,2|0|2,0:0|0:0|0:0,0:0:0:0:
404,103,64232,2,0,B|443:89|443:89|483:103,1,85,0|2,0:0|0:0,0:0:0:0:
445,192,64677,1,0,0:0:0:0:
483,280,64899,1,2,0:0:0:0:
483,280,65010,1,0,0:0:0:0:
483,280,65121,6,0,B|443:293|443:293|403:280,1,85,0|2,0:0|0:0,0:0:0:0:
336,357,65565,2,0,B|296:343|296:343|256:357,1,85,0|2,0:0|0:0,0:0:0:0:
187,280,66010,2,0,B|147:293|147:293|108:280,1,85,0|2,0:0|0:0,0:0:0:0:
35,351,66454,1,0,0:0:0:0:
107,279,66677,1,2,0:0:0:0:
34,206,66899,6,0,L|173:108,1,170,0|0,0:0|0:0,0:0:0:0:
256,49,67565,1,2,0:0:0:0:
339,108,67788,2,0,P|378:94|418:108,1,85,0|2,0:0|0:0,0:0:0:0:
476,192,68232,1,0,0:0:0:0:
417,276,68454,6,0,B|441:320|405:363|357:363|357:363|315:363,1,170,2|2,0:0|0:0,0:0:0:0:
256,280,69121,1,0,0:0:0:0:
197,363,69343,2,0,B|155:363|155:363|107:363|71:320|94:276,1,170,2|2,0:0|0:0,0:0:0:0:
33,192,70010,1,0,0:0:0:0:
93,108,70232,1,2,0:0:0:0:
93,108,70343,1,0,0:0:0:0:
93,108,70454,6,0,B|138:108|138:108|167:79,1,85,0|8,0:0|0:0,0:0:0:0:
256,29,70899,1,8,0:0:0:0:
256,29,71010,1,0,0:0:0:0:
256,29,71121,1,8,0:0:0:0:
344,79,71343,2,0,B|374:108|374:108|418:108,1,85,8|8,0:0|0:0,0:0:0:0:
476,192,71788,1,4,0:0:0:0:
418,275,72010,1,8,0:0:0:0:
418,275,72121,1,0,0:0:0:0:
418,275,72232,6,0,B|374:275|374:275|344:304,1,85,4|2,0:0|0:0,0:0:0:0:
256,358,72677,1,8,0:0:0:0:
167,304,72899,1,2,0:0:0:0:
256,256,73121,2,0,L|256:172,1,85,0|2,0:0|0:0,0:0:0:0:
203,83,73565,1,8,0:0:0:0:
309,83,73788,1,2,0:0:0:0:
203,83,74010,6,0,B|118:83|118:83|57:22,1,170,0|8,0:0|0:0,0:0:0:0:
1,108,74677,1,2,0:0:0:0:
58,192,74899,2,0,P|44:231|58:271,1,85,0|2,0:0|0:0,0:0:0:0:
104,361,75343,1,8,0:0:0:0:
205,361,75565,1,2,0:0:0:0:
255,271,75788,6,0,P|268:231|256:192,1,85,0|2,0:0|0:0,0:0:0:0:
176,129,76232,1,8,0:0:0:0:
256,66,76454,1,2,0:0:0:0:
256,66,76565,1,0,0:0:0:0:
256,66,76677,2,0,L|343:66,1,85,0|2,0:0|0:0,0:0:0:0:
410,141,77121,1,8,0:0:0:0:
410,243,77343,1,2,0:0:0:0:
341,318,77565,6,0,L|256:318,2,85,0|2|8,0:0|0:0|0:0,0:0:0:0:
410,243,78232,1,2,0:0:0:0:
410,141,78454,2,0,B|366:123|355:80|355:80|311:62|300:19,1,170,0|8,0:0|0:0,0:0:0:0:
255,115,79121,1,2,0:0:0:0:
212,19,79343,6,0,P|171:8|130:19,1,85,0|2,0:0|0:0,0:0:0:0:
51,116,79788,2,0,P|91:105|132:116,1,85,8|2,0:0|0:0,0:0:0:0:
198,192,80232,1,0,0:0:0:0:
256,115,80454,1,2,0:0:0:0:
314,192,80677,1,8,0:0:0:0:
379,116,80899,6,0,P|420:105|461:116,2,85,2|0|2,0:0|0:0|0:0,0:0:0:0:
314,192,81565,2,0,P|324:232|314:273,1,85,8|2,0:0|0:0,0:0:0:0:
256,358,82010,2,0,L|136:236,1,170,0|8,0:0|0:0,0:0:0:0:
136,147,82677,6,0,B|89:107|113:38|166:38|166:38|187:38,1,170,2|2,0:0|0:0,0:0:0:0:
256,114,83343,1,8,0:0:0:0:
324,38,83565,2,0,B|346:38|346:38|399:38|423:107|375:147,1,170,2|2,0:0|0:0,0:0:0:0:
467,192,84232,1,8,0:0:0:0:
375,236,84454,1,2,0:0:0:0:
375,236,84565,1,0,0:0:0:0:
375,236,84677,1,4,0:0:0:0:
256,192,84788,12,4,86454,0:0:0:0:
470,192,87343,6,0,B|400:192|400:192|391:203|391:203|382:192|382:192|311:192,1,170,2|0,0:0|0:0,0:0:0:0:
256,278,88010,1,2,0:0:0:0:
202,192,88232,5,4,0:0:0:0:
147,278,88454,1,2,0:0:0:0:
147,278,88565,1,0,0:0:0:0:
147,278,88677,2,0,B|106:289|106:289|65:278,1,85,8|2,0:0|0:0,0:0:0:0:
12,192,89121,2,0,B|39:152|19:112|12:112|6:112|-14:72|12:32,1,170,0|8,0:0|0:0,0:0:0:0:
98,79,89788,1,2,0:0:0:0:
177,32,90010,5,0,0:0:0:0:
256,79,90232,1,2,0:0:0:0:
256,79,90343,1,0,0:0:0:0:
256,79,90454,2,0,B|267:120|267:120|257:161,1,85,8|2,0:0|0:0,0:0:0:0:
179,227,90899,2,0,B|256:261|256:261|334:227,1,170,0|8,0:0|0:0,0:0:0:0:
406,300,91565,1,2,0:0:0:0:
479,228,91788,5,0,0:0:0:0:
407,156,92010,1,2,0:0:0:0:
407,156,92121,1,0,0:0:0:0:
407,156,92232,2,0,B|417:115|417:115|407:74,1,85,8|2,0:0|0:0,0:0:0:0:
318,116,92677,2,0,B|303:74|256:64|256:64|209:74|194:116,1,170,0|8,0:0|0:0,0:0:0:0:
256,192,93343,6,0,L|256:277,1,85,2|0,0:0|0:0,0:0:0:0:
214,370,93788,2,0,L|299:370,1,85,2|8,0:0|0:0,0:0:0:0:
401,370,94232,1,2,0:0:0:0:
401,370,94343,1,0,0:0:0:0:
401,370,94454,2,0,L|512:236,1,170,0|8,0:0|0:0,0:0:0:0:
419,192,95121,1,2,0:0:0:0:
510,145,95343,5,4,0:0:0:0:
419,97,95565,1,2,0:0:0:0:
419,97,95677,1,0,0:0:0:0:
418,97,95788,2,0,P|377:96|346:68,1,85,8|2,0:0|0:0,0:0:0:0:
257,118,96232,2,0,B|216:192|216:192|257:266,1,170,0|8,0:0|0:0,0:0:0:0:
346,317,96899,1,2,0:0:0:0:
256,364,97121,5,0,0:0:0:0:
167,317,97343,1,2,0:0:0:0:
167,317,97454,1,0,0:0:0:0:
167,317,97565,2,0,P|126:317|94:347,1,85,8|2,0:0|0:0,0:0:0:0:
21,275,98010,2,0,B|-7:192|21:109,1,170,0|8,0:0|0:0,0:0:0:0:
96,26,98677,1,2,0:0:0:0:
176,110,98899,5,4,0:0:0:0:
256,26,99121,1,2,0:0:0:0:
256,26,99232,1,0,0:0:0:0:
256,26,99343,2,0,B|296:15|296:15|337:26,1,85,8|2,0:0|0:0,0:0:0:0:
397,110,99788,1,4,0:0:0:0:
338,192,100010,1,2,0:0:0:0:
338,192,100121,1,0,0:0:0:0:
338,192,100232,2,0,B|297:203|297:203|256:193,1,85,8|2,0:0|0:0,0:0:0:0:
184,265,100677,5,4,0:0:0:0:
114,192,100899,2,0,L|68:192,2,42.5,8|0|8,0:0|0:0|0:0,0:0:0:0:
184,119,101343,1,0,0:0:0:0:
184,119,101454,1,0,0:0:0:0:
184,119,101565,2,0,L|184:76,2,42.5,4|0|8,0:0|0:0|0:0,0:0:0:0:
256,192,102010,1,8,0:0:0:0:
328,119,102232,1,8,0:0:0:0:
328,119,102343,1,8,0:0:0:0:
328,119,102454,1,4,0:0:0:0:
